#VERSION:0.83;
#TITLE:Always Bet On Red;
#SUBTITLE:;
#ARTIST:Crystal Lake;
#TITLETRANSLIT:;
#SUBTITLETRANSLIT:;
#ARTISTTRANSLIT:;
#GENRE:;
#ORIGIN:;
#CREDIT:;
#BANNER:banner.png;
#BACKGROUND:bg.png;
#PREVIEWVID:;
#JACKET:jacket.png;
#CDIMAGE:;
#DISCIMAGE:;
#LYRICSPATH:;
#CDTITLE:;
#MUSIC:Always Bet On Red.ogg;
#OFFSET:-0.284000;
#SAMPLESTART:99.093925;
#SAMPLELENGTH:16.000000;
#SELECTABLE:YES;
#BPMS:0.000=150.000;
#STOPS:;
#DELAYS:;
#WARPS:;
#TIMESIGNATURES:0.000=4=4;
#TICKCOUNTS:0.000=4;
#COMBOS:0.000=1;
#SPEEDS:0.000=1.000=0.000=0;
#SCROLLS:0.000=1.000;
#FAKES:;
#LABELS:0.000=Song Start;
#BGCHANGES:;
#KEYSOUNDS:;
#ATTACKS:
;

//---------------dance-single - ----------------
#NOTEDATA:;
#CHARTNAME:;
#STEPSTYPE:dance-single;
#DESCRIPTION:;
#CHARTSTYLE:;
#DIFFICULTY:Hard;
#METER:13;
#RADARVALUES:0.488851,0.772451,0.077245,0.308981,0.548440,443.000000,433.000000,10.000000,40.000000,24.000000,0.000000,0.000000,0.000000,0.000000,0.488851,0.772451,0.077245,0.308981,0.548440,443.000000,433.000000,10.000000,40.000000,24.000000,0.000000,0.000000,0.000000,0.000000;
#CREDIT:TonyAkita;
#NOTES:
0000
0000
0000
0000
,
0000
0000
0000
0000
,
0000
0000
0000
0000
,
0000
0000
0000
0000
,
0002
0010
0010
0013
,
1100
1010
0101
0011
,
0010
0100
0010
0100
0010
0100
0010
0100
1000
0001
1000
0001
1000
0001
1000
0001
,
0200
0010
0310
MMMM
,
1000
0000
0000
0100
0010
0000
0100
0000
0001
0000
0000
0100
0010
0000
0100
0000
,
1000
0000
0000
0100
0010
0000
0001
0000
1000
0010
0100
0002
0000
0000
0003
0000
,
1100
0000
0000
0001
0010
0000
0001
0000
0100
0000
0000
0001
0010
0000
0001
0000
,
0100
0000
0000
0010
1000
0000
0001
0000
2000
0000
0000
0000
3000
0000
0010
0100
,
0001
0000
0000
0100
0010
0000
0100
0000
1000
0000
0000
0100
0010
0000
0100
0000
,
0001
0000
0000
0100
0010
0000
1000
0000
0001
0010
0100
2000
0000
0000
3000
0000
,
0101
0000
0000
1000
0010
0000
1000
0000
0100
0000
0000
1000
0010
0000
1000
0000
,
0200
0010
0310
MMMM
,
0000
0000
0001
1000
0000
1000
0001
0000
0100
0000
0001
0000
0010
0000
0001
0000
,
0100
0000
0001
0000
0010
0000
0100
0000
1000
0010
0100
0002
0000
0000
0000
0000
,
0003
0010
0001
0010
0000
0100
1000
0000
1000
0000
0100
0000
0001
0000
0100
0000
,
1000
0000
0100
0000
0010
0000
0001
0000
0200
0000
0000
0000
0300
0000
0010
0100
,
0010
0000
1000
0001
0000
0001
1000
0000
0100
0000
1000
0000
0010
0000
1000
0000
,
0100
0000
1000
0000
0010
0000
0100
0000
0001
0010
0100
2000
0000
0000
0000
0000
,
3000
0010
1000
0010
0000
0100
0001
0000
0001
0000
0100
0000
1000
0000
0100
0000
,
0001
0100
0010
1000
0200
0000
0000
0000
,
0310
0000
0001
0000
0100
0000
0001
0000
0010
0000
0100
0000
1000
0000
0001
0100
,
0010
1000
0100
1000
0010
1000
0001
0001
,
0100
0000
0001
0000
0010
0000
0001
0000
0100
0000
0010
0000
1000
0000
0001
0010
,
0100
1000
0010
1000
0100
0010
0002
0000
,
0103
0000
0010
0000
0100
0000
1000
0000
0100
0000
0010
0000
0100
0000
0001
1000
,
0100
0000
0010
0000
0100
0000
0001
0000
0100
0000
0010
0000
0100
0000
0010
0001
,
1000
0010
0001
0010
1000
0010
0100
0100
,
0001
0010
1000
0010
0001
0010
0100
1000
,
0020
0000
0000
0000
,
0030
0000
0000
0000
,
1000
0000
0000
1000
0000
0000
2000
0000
,
0000
0000
0000
0000
,
3000
0000
0000
0000
,
0000
0000
0000
0000
,
0001
0000
0000
0001
0000
0000
0002
0000
,
0000
0000
0000
0000
,
0103
0000
0000
0100
0000
0000
0200
0000
,
0000
0000
0000
0000
,
0310
0000
0000
0010
0000
0000
0020
0000
,
0000
0000
0000
0030
,
2002
0000
0000
3003
,
0000
0000
0000
0000
MMMM
0000
0000
MMMM
,
0000
MMMM
0000
1000
,
0100
0000
0000
0001
0000
M000
0001
0000
0100
0020
0000
0000
,
0000
0000
0000
0030
0000
0000
1000
0100
0010
0002
0000
0000
,
0000
0000
0000
0003
0000
0000
0001
0100
0010
2000
0000
0000
,
0000
0000
0000
3000
0000
0000
1000
0100
0010
0001
0000
0000
,
0100
0000
0000
1000
0000
000M
1000
0000
0100
0020
0000
0000
,
0000
0000
0000
0030
0000
0000
0001
0010
0100
0001
0000
0000
,
0100
0000
0200
0000
0000
0000
1300
0010
0100
1000
0000
0000
,
0100
0000
0200
0000
0000
0000
0301
0010
0100
1000
0000
0010
,
1000
0000
0100
1000
0000
0010
1000
0000
0001
0010
0000
0000
,
0100
0000
0200
0000
0000
0000
1300
0010
0100
1000
0000
0000
,
0100
0000
0200
0000
0000
0000
0301
0010
0100
0001
0000
0000
,
0100
0000
0200
0000
0000
0000
1300
0010
0100
0001
0000
0100
,
0001
0000
0010
0001
0000
0100
0001
0000
1000
0100
0000
1000
,
0010
0000
1000
0100
0000
1000
0010
0000
1000
0100
0010
0100
,
0010
0100
0010
0001
1000
0001
1000
0001
1000
0020
0000
0000
,
0100
0000
0000
0130
0000
0000
0010
0100
0001
1000
0000
0100
,
0010
0000
0000
0000
0100
0000
0001
0000
0000
M000
0000
0000
0001
0000
0000
0000
1000
0000
0010
0000
0000
0000
0000
0000
,
0100
0000
0200
0000
0000
0000
0301
0010
0100
0001
0000
0000
,
0100
0000
0200
0000
0000
0000
1300
0010
0100
1000
0000
0100
,
0010
0000
0100
0010
0000
0000
1000
0100
0010
0001
0000
0100
,
0010
0000
0000
0000
0100
0000
1000
0000
0000
000M
0000
0000
1000
0000
0000
0000
0100
0000
0020
0000
0000
0000
0000
0000
,
0001
0000
0000
0031
0000
0000
0100
0010
1000
0001
0000
0000
,
0010
0000
0000
0000
0011
0000
0000
0000
0000
0000
0100
1000
0100
0000
1000
0000
0001
0000
0100
0000
0000
0000
0000
0000
,
0010
0000
1010
0000
0000
0000
1000
0001
1000
0200
0000
0000
,
0010
0000
0000
0310
0000
0000
0001
0000
0100
1000
0000
0100
,
0001
0000
0200
0000
0000
0000
0301
0100
0010
0001
0000
0000
,
0010
0000
0020
0000
0000
0000
1030
0100
0010
0002
0000
1000
,
0000
1003
0001
0100
0000
0000
0010
1000
0010
1000
0000
0010
,
0001
0000
0010
1000
0000
0000
0100
0000
0010
0002
0000
0000
,
0010
0000
0000
0013
0000
0000
0001
0100
0010
0001
0000
0000
,
0010
0000
0020
0000
0000
0000
1030
0100
0010
1000
0000
0000
,
0010
0000
0020
0000
0000
0000
0031
1000
0001
2002
0000
0000
,
0000
0000
0000
0000
,
3003
0000
0000
0000
;

//---------------dance-single - ----------------
#NOTEDATA:;
#CHARTNAME:;
#STEPSTYPE:dance-single;
#DESCRIPTION:;
#CHARTSTYLE:;
#DIFFICULTY:Medium;
#METER:10;
#RADARVALUES:0.366363,0.525267,0.038623,0.200837,0.324430,332.000000,327.000000,5.000000,26.000000,12.000000,0.000000,0.000000,0.000000,0.000000,0.366363,0.525267,0.038623,0.200837,0.324430,332.000000,327.000000,5.000000,26.000000,12.000000,0.000000,0.000000,0.000000,0.000000;
#CREDIT:;
#NOTES:
// measure 0
0000
0000
0000
0000
,  // measure 1
0000
0000
0000
0000
,  // measure 2
0000
0000
0000
0000
,  // measure 3
0000
0000
0000
0000
,  // measure 4
0002
0010
0010
0013
,  // measure 5
1100
1010
0101
0011
,  // measure 6
1000
0001
1000
0001
1000
0001
1000
0001
,  // measure 7
0020
0100
0200
0330
,  // measure 8
1000
0000
0000
0100
0000
0000
0100
0000
0010
0000
0000
0100
0000
0000
0100
0000
,  // measure 9
0001
0000
0000
0100
0000
0000
0100
0000
0020
0000
0000
0000
0030
0000
0000
0000
,  // measure 10
0001
0000
0000
1000
0000
0000
1000
0000
0010
0000
0000
1000
0000
0000
1000
0000
,  // measure 11
0100
0000
0000
1000
0000
0000
1000
0000
0010
0000
0200
0000
0000
0000
0000
0000
,  // measure 12
0301
0000
0000
0100
0000
0000
0100
0000
0010
0000
0000
0100
0000
0000
0100
0000
,  // measure 13
1000
0000
0000
0100
0000
0000
0100
0000
0020
0000
0000
0000
0030
0000
0000
0000
,  // measure 14
1000
0000
0000
0001
0000
0000
0001
0000
0010
0000
0000
0001
0000
0000
0001
0000
,  // measure 15
0200
0010
0020
0330
,  // measure 16
1000
0000
0100
0010
0100
0000
0010
0001
,  // measure 17
1000
0010
0001
0010
,  // measure 18
1000
0001
1000
0001
0010
0000
1000
0000
,  // measure 19
0010
0001
2000
0000
,  // measure 20
3001
0000
0100
0010
0100
0000
0010
1000
,  // measure 21
0001
0010
1000
0010
,  // measure 22
0001
1000
0001
1000
0010
0000
0001
0000
,  // measure 23
0010
1000
0002
0000
,  // measure 24
1003
0000
0100
0000
1000
0000
0010
0100
,  // measure 25
0001
0000
0100
0000
0001
0000
1000
1000
,  // measure 26
1000
0000
0010
0000
1000
0000
0100
0010
,  // measure 27
0001
0010
0002
0000
,  // measure 28
1003
0000
0100
0000
0001
0000
0100
0010
,  // measure 29
0001
0000
0100
0000
1000
0000
0100
0010
,  // measure 30
1000
0000
0001
0000
1000
0000
0100
0100
,  // measure 31
0100
0010
0100
1000
,  // measure 32
0020
0000
0000
0000
,  // measure 33
0030
0000
0000
0000
,  // measure 34
1000
0000
0000
1000
0000
0000
2000
0000
,  // measure 35
0000
0000
0000
0000
,  // measure 36
3000
0000
0000
0000
,  // measure 37
0000
0000
0000
0000
,  // measure 38
0001
0000
0000
0001
0000
0000
0002
0000
,  // measure 39
0000
0000
0000
0000
,  // measure 40
0103
0000
0000
0100
0000
0000
0200
0000
,  // measure 41
0000
0000
0000
0000
,  // measure 42
0310
0000
0000
0010
0000
0000
0020
0000
,  // measure 43
0000
0000
0000
0030
,  // measure 44
2002
0000
0000
3003
,  // measure 45
0000
0000
0000
0000
MMMM
0000
0000
MMMM
,  // measure 46
0000
MMMM
0000
1000
,  // measure 47
0100
0000
0000
0010
0000
0000
0001
0000
1000
0020
0000
0000
,  // measure 48
0000
0000
0000
0030
0000
0000
1000
0100
1000
0200
0000
0000
,  // measure 49
0000
0000
0000
0300
0000
0000
0001
0100
0001
0200
0000
0000
,  // measure 50
0000
0000
0000
0300
0000
0000
1000
0001
1000
0001
0000
0000
,  // measure 51
0100
0000
0000
0010
0000
0000
1000
0000
0001
0020
0000
0000
,  // measure 52
0000
0000
0000
0030
0000
0000
0001
0100
0001
0100
0000
0000
,  // measure 53
0010
0000
0010
0000
0000
0000
1000
0100
1000
0100
0000
0000
,  // measure 54
0010
0000
0010
0000
0000
0000
0001
1000
0001
1000
0000
0000
,  // measure 55
0010
0000
0000
0001
0000
0000
0010
0000
1000
0001
0000
0000
,  // measure 56
0010
0000
0010
0000
0000
0000
0100
1000
0100
1000
0000
0000
,  // measure 57
0010
0000
0010
0000
0000
0000
0100
0001
0100
0001
0000
0000
,  // measure 58
0010
0000
0010
0000
0000
0000
0100
1000
0100
1000
0000
0000
,  // measure 59
0100
0001
0100
0010
,  // measure 60
1000
0000
0000
0010
0000
0000
0001
0000
0000
1000
0001
1000
,  // measure 61
0001
1000
0001
1000
0001
1000
0001
1000
0001
0200
0000
0000
,  // measure 62
0010
0020
0330
1000
,  // measure 63
0100
0000
0000
0010
0000
0000
0001
0000
1000
0010
0000
0000
,  // measure 64
0100
0000
0100
0000
0000
0000
0001
0010
0001
0010
0000
0000
,  // measure 65
0100
0000
0100
0000
0000
0000
1000
0010
1000
0010
0000
0100
,  // measure 66
0001
0000
0100
0001
0000
0000
1000
0001
1000
0001
0000
0000
,  // measure 67
0100
0000
0000
0010
0000
0000
1000
0000
0001
0010
0000
0000
,  // measure 68
0100
0000
0000
0100
0000
0000
1000
0010
1000
0010
0000
0000
,  // measure 69
0100
0000
0100
0000
0000
0000
0001
0010
0001
0010
0000
0000
,  // measure 70
0100
0000
0100
0000
0000
0000
1000
0001
1000
0002
0000
0000
,  // measure 71
0010
0000
0000
0013
0000
0000
0100
0000
1000
0001
0000
0000
,  // measure 72
0100
0000
0100
0000
0000
0000
0010
1000
0010
1000
0000
0000
,  // measure 73
0100
0000
0100
0000
0000
0000
0010
0001
0010
0001
0000
0000
,  // measure 74
0100
0000
0100
0000
0000
0000
0001
0010
0001
0010
0000
0000
,  // measure 75
1000
0000
0000
0010
0000
0000
0100
0000
1000
0001
0000
0000
,  // measure 76
0100
0000
0000
0100
0000
0000
0010
1000
0010
1000
0000
0000
,  // measure 77
0100
0000
0100
0000
0000
0000
0010
0001
0010
0001
0000
0000
,  // measure 78
0100
0000
0100
0000
0000
0000
0010
0100
0010
0200
0000
0000
,  // measure 79
0000
0000
0000
0000
,  // measure 80
0300
0000
0000
0000
;
