#TITLE:Alright (Zarotta Remix);
#SUBTITLE:;
#ARTIST:Ferris;
#TITLETRANSLIT:;
#SUBTITLETRANSLIT:;
#ARTISTTRANSLIT:;
#GENRE:Eurodance;
#CREDIT:Braeden;
#MUSIC:Alright (Zarotta Remix).ogg;
#BANNER:Alright-ban.png;
#BACKGROUND:Alright-bg.png;
#CDTITLE:;
#SAMPLESTART:41.196;
#SAMPLELENGTH:15.000;
#SELECTABLE:YES;
#OFFSET:0.000;
#BPMS:0.000=142.004;
#STOPS:228.000=2.113;
#JACKET:Alright-jacket.png;
#BGCHANGES:;
#FGCHANGES:;

//--------------- dance-single - ----------------
#NOTES:
     dance-single:
     :
     Beginner:
     3:
     0,0,0,0,0:
0000
0000
0000
0000
,
1001
0000
0000
0000
,
1000
0000
0000
0000
,
0001
0000
0000
0000
,
0100
0000
0000
0000
,
0000
0010
0000
0010
,
0000
1000
0000
1000
,
1000
0000
0001
0000
,
2000
0000
3000
0000
,
1001
0000
0000
0000
,
0001
0000
0000
0000
,
2000
0000
3000
0000
,
0001
0000
0000
0000
,
0100
0000
0000
0000
,
0010
0000
0000
0000
,
1000
0000
0000
0000
,
0001
0000
0000
0000
,
1000
1000
0000
0001
,
0000
0100
0000
0010
,
0000
1000
0000
0100
,
0000
0010
0000
0001
,
0000
0100
0000
0010
,
0000
1000
0000
0001
,
0001
0000
1000
0000
,
0002
0000
0003
0000
,
1001
0000
1000
0000
,
0001
0000
1000
0000
,
0001
0000
1000
0000
,
0001
0000
0000
0000
,
0010
0010
0010
0000
,
0100
0000
0000
0000
,
1000
0000
0001
0000
,
0100
0000
0010
0000
,
1000
0000
0001
0000
,
1000
0000
0001
0000
,
1000
0000
0001
0000
,
0100
0000
0000
0000
,
0001
0001
0001
0000
,
1000
0000
0000
0000
,
0001
0000
1000
0000
,
0002
0000
0003
0000
,
1001
0000
0000
0000
,
1000
0000
0000
0000
,
0010
0000
0000
0000
,
0100
0000
0000
0000
,
0001
0000
0000
0000
,
0010
0000
0000
0000
,
0100
0000
0000
0000
,
1000
0000
0000
0000
,
0001
0000
1000
0000
,
0001
0000
0100
0000
,
0010
0000
1000
0000
,
0001
0000
0010
0000
,
0100
0000
1000
0000
,
0001
0000
1000
0000
,
0002
0000
0003
0000
,
2000
0000
3000
0000
,
0001
0000
0000
0000
,
1000
0000
0001
0000
,
0100
0000
0010
0000
,
1000
0000
0100
0000
,
0010
0000
0001
0000
,
1000
0000
0001
0000
,
0100
0000
0001
0000
,
1000
0000
0001
0000
,
1000
0000
0000
1001
,
0000
0000
0001
0000
,
1000
0000
0001
0000
,
0010
0000
0100
0000
,
0010
0000
0001
0000
,
1000
0000
0001
0000
,
0100
0000
0010
0020
,
0000
0030
0000
0100
,
0000
0010
0000
1001
;

//--------------- dance-single - ----------------
#NOTES:
     dance-single:
     :
     Easy:
     5:
     0,0,0,0,0:
0000
0000
0000
0000
,
1001
0001
0001
0001
,
0100
0100
0100
0100
,
0010
0000
0010
0000
,
1000
0000
0001
0000
,
1000
0001
0100
0001
,
0100
0010
1000
0001
,
1001
0000
0110
0100
,
0001
1000
0001
1000
,
1020
1030
0001
0100
,
0010
1000
0000
0001
,
2000
3001
0100
0001
,
1000
0001
0000
0100
,
0000
0010
0000
1000
,
0000
0100
0000
0010
,
0000
0001
0000
0100
,
0000
0010
0000
0000
,
2000
0000
0000
3001
0000
0000
0100
0000
,
0000
0010
0000
1000
,
0002
0000
0000
1003
0000
0000
0010
0000
,
0000
0100
0000
0001
,
0000
0100
0000
0010
,
0000
1000
0000
0100
,
0010
0001
1000
0010
,
0100
0100
0001
1000
,
0001
0100
0001
0100
,
0010
1000
0010
1000
,
0100
1000
0001
0100
,
0010
1000
0100
0010
,
0001
0100
0001
0000
,
0200
0000
0000
0310
0000
0000
1000
0000
,
0002
0000
0000
0000
2003
0000
0000
3010
,
0000
1000
0000
0001
,
0100
0010
0000
1000
,
0100
1000
0000
0001
,
0000
1000
0000
0010
,
0000
0100
0000
0001
,
0100
0001
0010
0001
,
0100
0001
1000
0010
,
2002
3003
0110
0100
,
0001
1000
0010
1000
,
1001
0000
0000
1000
0000
0000
0001
0000
,
0100
0000
0000
0010
0000
0000
1000
0000
,
0100
0000
0000
0010
0000
0000
0001
0000
,
1000
0000
0000
0010
0000
0000
0100
0000
,
0001
0000
0000
1000
0000
0000
0010
0000
,
0100
0000
0000
0001
0000
0000
0010
0000
,
0001
0000
0000
1000
0000
0000
0001
0000
,
0100
0000
0000
0010
0000
0000
1000
0000
,
0001
0100
0001
0100
,
0010
1000
0100
1000
,
0001
0100
0001
0100
,
0010
1000
0100
0010
,
0001
0000
1000
0000
,
0001
0000
0100
0000
,
1010
1000
1010
0010
,
0100
0001
0010
0001
,
1000
0000
0000
0001
,
0100
0001
0010
0001
,
1000
0010
1000
0001
,
0010
0100
1000
0001
,
0100
0001
1000
0010
,
0100
0001
1000
0100
,
0010
0001
1000
0001
,
0010
0100
1000
0001
,
0100
0000
0000
1001
,
0001
1000
0010
1000
,
0001
0100
0001
1000
,
0100
1000
0001
0010
,
0100
1000
0001
0100
,
0010
0100
0001
1000
,
0100
1000
0100
0010
,
0001
0010
0001
2000
,
0000
3001
1000
0220
,
0000
0330
0000
0000
;

//--------------- dance-single - ----------------
#NOTES:
     dance-single:
     :
     Medium:
     9:
     0,0,0,0,0:
0000
0000
0000
0000
,
1001
0001
0100
0001
,
0100
0010
1000
0100
,
0010
0001
0100
0010
,
1000
0001
0100
0010
,
1000
1001
0001
0101
,
0100
0110
0010
1010
,
1001
0100
1001
0100
,
0001
0010
0001
0010
0100
1000
0100
1000
,
0002
0000
1003
0010
0000
0000
1001
0000
,
0001
0100
0010
0100
0000
0001
1000
0000
,
0002
0000
1003
0100
0000
0000
1100
0000
,
1000
0001
0100
0010
0000
1000
0100
1000
,
0000
0002
0000
0000
1003
0000
0010
1000
,
0001
0101
1000
1001
,
0001
0101
0100
0110
,
0010
0000
1000
0001
0000
1000
0010
0100
,
0002
0000
1003
0010
1000
0000
0001
0000
,
1000
0010
0000
0001
0000
0010
1000
0000
,
0002
0000
1003
0100
0010
0000
0100
0000
,
1000
0100
0000
0001
0000
0100
0000
1000
,
0000
0010
0100
0000
0001
1000
0010
1000
,
0000
0000
1001
0000
0001
0000
1000
0010
,
1000
0100
1000
0100
0010
0001
0010
0001
,
2000
3002
0103
0010
,
1000
0000
0001
0000
0100
0010
0100
0000
,
0001
0000
1000
0000
0001
0100
0001
0200
,
0000
0000
0000
0310
0000
1000
0000
0010
,
1000
0000
0001
0000
0100
0010
0100
0000
,
0001
0000
1001
0000
1000
0000
0001
0100
,
0001
0010
0001
0100
0000
0000
0101
0000
,
0200
0000
0000
0000
0320
0000
1030
0001
,
0100
0000
0001
0000
0100
0001
1000
0100
,
2000
0000
3001
0000
0100
0010
0100
0001
,
0200
0000
0310
0000
1000
0001
0000
2000
,
0000
0000
0000
0001
0000
0100
0000
3001
,
1000
0000
0010
0000
0100
0001
0100
0000
,
0010
0000
1000
0000
0010
0000
0100
0001
,
0010
0001
0000
0100
0000
0010
1000
0000
,
0001
0100
0001
0100
0010
1000
0010
1000
,
0002
0203
0320
1030
,
1000
0000
0000
0001
0000
0000
1000
0000
0000
0001
0000
0000
1000
0000
0000
0000
,
0001
0000
0000
0100
0000
0000
0001
0000
0000
0100
0000
0000
0001
0000
0000
0000
,
1000
0000
0000
0010
0000
0000
0100
0000
0000
0010
0000
0000
1000
0000
0000
0000
,
0001
0000
0000
0010
0000
0000
0100
0000
0000
0010
0000
0000
0001
0000
0000
0000
,
1000
0000
0000
0100
0000
0000
0010
0000
0000
0100
0000
0000
1000
0000
0000
0000
,
0001
0000
0000
0100
0000
0000
0010
0000
0000
0100
0000
0000
0001
0000
0000
0000
,
1000
0000
0000
0010
0000
0000
0100
0000
0000
0001
0000
0000
0100
0000
0000
0000
,
0001
0000
0000
0010
0000
0000
0100
0000
0000
1000
0000
0000
0001
0000
0000
0000
,
1000
0001
0100
0010
,
1000
0001
0010
0100
,
1000
0001
0100
0010
,
0100
0001
1000
0100
,
0010
0001
0010
0000
0100
1000
0100
0000
,
1000
0001
0100
0010
,
1010
1000
1001
0001
,
0101
0110
1010
1100
,
1001
0000
0000
0000
0000
0000
0000
0000
0000
0000
0000
0000
0001
0000
0000
0100
,
0000
0000
0001
0000
0000
0100
0000
0000
0001
0000
0000
0000
1000
0000
0000
0010
,
0000
0000
1000
0000
0000
0010
0000
0000
1000
0000
0000
0000
0001
0000
0000
0010
,
0000
0000
0001
0000
0000
0100
0000
0000
0001
0000
0000
0000
1000
0000
0000
0100
,
0000
0000
1000
0000
0000
0010
0000
0000
1000
0000
0000
0000
0001
0000
0000
0100
,
0000
0000
0010
0000
0000
0100
0000
0000
0001
0000
0000
0000
1000
0000
0000
0010
,
0000
0000
0100
0000
0000
0010
0000
0000
1000
0000
0000
0000
0001
0000
0000
0010
,
0000
0000
0100
0000
0000
1000
0000
0000
0010
0000
0000
0000
1000
0000
0000
0000
,
0010
0000
0000
0000
0100
0000
0000
0000
0001
0000
1000
0000
0001
0000
0000
0010
,
0000
0000
0001
0000
0000
0100
0000
0000
0010
0000
1000
0000
0010
0000
0000
1000
,
0000
0000
0100
0000
0000
1000
0000
0000
0001
0000
0010
0000
0100
0000
0000
1000
,
0000
0000
0010
0000
0000
0100
0000
0000
0001
0000
0010
0000
0001
0000
0000
1000
,
0000
0000
0010
0000
0000
0100
0000
0000
0001
0000
0000
0000
1000
0000
0010
0000
,
1000
0000
0001
0100
0001
0000
1000
0010
,
1000
0000
0001
0100
0001
0000
1000
0010
,
1000
0010
0100
0001
0100
0001
1000
0000
,
0010
0000
0100
0000
0001
0010
0220
0000
,
0000
0330
0000
0000
;

//--------------- dance-single - XO FS- ----------------
#NOTES:
     dance-single:
     XO FS-:
     Hard:
     12:
     0,0,0,0,0:
0000
0000
0000
0000
,
1001
1000
0001
0010
0001
1000
0010
0100
,
0001
1000
0100
1000
0010
1000
0001
0010
,
0001
1000
0100
0010
,
0001
1000
0010
0100
,
0001
0011
0010
0110
,
0100
1100
1000
1001
,
0001
1000
0100
1000
0001
0010
0001
0100
,
0010
1000
0010
1000
0001
0010
0001
1000
,
0002
0000
1003
0100
0010
0001
1000
0000
,
0001
0100
0010
1000
0100
1000
0010
0000
,
2000
0000
3001
0010
0100
1000
0001
0100
,
0001
1000
0100
0020
0000
0031
0100
0002
,
0000
0000
1003
0000
0100
0000
1000
0000
0010
0000
1000
0001
1000
0000
0100
0000
,
0010
0000
0001
0100
0001
0000
1000
0000
0100
0000
1000
0001
1000
0000
0100
0000
,
0010
0001
0011
0000
0100
1000
1100
0000
,
1000
0010
1000
0001
0000
1000
0100
0010
,
0002
0000
1003
0100
0010
0000
0001
0000
1000
0000
0001
0010
0100
0000
1000
0000
,
0001
0000
0010
0000
0001
0000
0100
0000
0000
0000
0010
1000
0010
0000
1000
0000
,
0002
0000
1003
0001
0010
0000
0100
0000
1000
0000
0001
1000
0010
0000
1000
0000
,
0100
0010
0001
0100
0000
1000
0100
0010
,
0000
1000
0001
0010
0100
1000
0010
1000
,
0100
0000
0010
0001
0010
0000
0001
0000
0100
0000
0000
0000
0010
0000
1000
0000
,
0001
0010
1000
0010
0001
0100
1000
0100
,
0001
0000
0100
0000
0001
0000
1000
0000
0010
0000
1000
0001
1000
0000
0001
0000
,
1000
0000
0100
0000
0001
0000
0100
0010
0100
0000
1000
0000
0001
0000
0100
0010
,
1000
0000
0010
0000
0100
0000
0001
1000
0001
0000
0100
0000
0001
0000
2000
0000
,
0000
0000
3001
1000
0100
0000
0010
0000
0001
0000
0010
0000
1000
0000
0010
0000
,
0001
0000
1000
0000
0001
0000
1000
0100
1000
0000
0001
0000
0100
0000
0001
0000
,
0100
0010
0100
0001
0100
0010
1000
0001
,
0100
0100
0010
1000
0100
1000
0001
1000
,
0002
0000
0000
0000
1003
0000
0010
0100
0020
0000
0000
0000
1030
0000
0001
0100
,
0001
1000
0010
0100
0001
0010
0100
1000
,
0001
0000
0100
0000
1000
0000
0100
0010
0100
0000
0001
0000
1000
0000
0010
0000
,
1000
0000
0100
0000
0001
0000
0100
0010
0001
0000
1000
0000
0010
0000
2000
0000
,
0000
3001
0100
0010
0100
1000
0100
0010
,
1000
0000
0010
0000
0001
0000
0010
0000
0100
0000
0001
0000
1000
0000
0001
1000
,
0001
0100
0010
1000
0010
0000
0110
0100
,
0001
0010
0001
0100
0000
0000
0010
1000
,
0001
0100
1000
0100
0001
0010
0001
1000
,
1010
0000
0110
0000
0001
1000
0001
0100
,
0110
0000
0000
0010
0000
0000
1000
0000
0000
0001
0000
0000
0100
0000
0010
0000
,
0100
0000
0000
0001
0000
0000
0100
0000
0000
0010
0000
0000
1000
0000
0100
0000
,
1000
0000
0000
0001
0000
0000
0010
0000
0000
0100
0000
0000
1000
0000
0001
0000
,
1000
0000
0000
0010
0000
0000
0100
0000
0000
0001
0000
0000
1000
0000
0100
0000
,
1000
0000
0000
0001
0000
0000
0100
0000
0000
0010
0000
0000
1000
0000
0100
0000
,
0010
0000
0000
0001
0000
0000
0100
0000
0000
0001
0000
0000
0010
0000
0001
0000
,
0100
0000
0000
0010
0000
0000
1000
0000
0000
0100
0000
0000
0010
0000
0001
0000
,
0010
0000
0000
0100
0000
0000
1000
0000
0000
0000
0001
0000
0100
0000
0010
0000
,
0100
0000
0000
0000
0001
0000
0100
0000
0010
0000
0000
0000
1000
0000
0000
1000
,
0001
0000
0100
0000
0010
0000
0100
0000
0001
0000
0000
0000
0100
0000
0001
0100
,
0001
0000
0000
0000
1000
0000
0010
0000
0100
0010
0000
0000
1000
0000
0000
0001
,
1000
0100
1000
0010
1000
0000
0001
0010
,
0001
0100
0001
0000
0010
0001
0010
0001
,
1000
0000
0000
0010
0000
0000
0100
0000
0000
0001
0000
0000
1000
0000
0001
0000
,
1001
0000
0000
1000
0000
0000
0010
0000
0100
0001
0000
0000
0100
0000
0010
0000
,
1000
0000
0000
0001
0000
0000
0100
0000
0000
0010
0000
0000
1000
0000
0001
0000
,
1MM0
0000
0000
0000
0001
0000
1000
0000
0010
0000
1000
0100
1000
0000
0001
0100
,
0001
0000
0100
0000
0000
1000
0000
0000
0100
0000
0001
0000
0100
0000
0000
0001
,
0010
0000
0100
0000
0000
1000
0000
0000
0010
0000
0001
0000
0010
0000
0000
1000
,
0010
0000
0100
0000
0000
0010
0000
0000
0001
0000
0010
0000
0100
0000
0000
0001
,
1000
0000
0100
0000
0000
0010
0000
0000
1000
0000
0010
0000
0100
0000
0000
1000
,
0001
0000
0100
0000
0000
0010
0000
0000
0001
0000
0010
0000
1000
0000
0000
0001
,
0100
0000
0001
0000
0000
0100
0000
0000
1000
0000
0100
0000
0010
0000
0000
1000
,
0001
0000
0100
0000
0000
1000
0000
0000
0100
0000
0001
0000
1000
0000
0000
0001
,
0100
0000
0010
0000
1000
0000
0001
0000
1000
0000
0010
0000
1010
0000
0000
1000
,
0100
0000
0010
0000
0000
0001
0000
0000
1000
0000
0001
0000
0100
0000
00M0
0100
,
1000
0000
0001
0000
0000
0100
0000
0000
0010
0000
1000
0000
0100
0000
00M0
0100
,
0001
0000
0010
0000
0000
0100
0000
0000
1000
0000
1000
0000
0010
0000
0M00
0010
,
0001
0000
1000
0000
0000
0010
0000
0000
0100
0000
0001
0000
0010
0000
0M00
0010
,
1000
0000
0001
0000
0000
0100
0000
0000
0010
0000
1000
0000
0001
0000
1000
0010
,
1000
0000
0001
0000
0000
0100
0000
0000
0010
0000
1000
0000
0001
0000
0100
0000
,
0001
0000
0010
0000
0001
0000
0100
0000
0010
0000
1000
0000
0001
0000
0000
0100
,
0000
0000
0001
0000
0000
1000
0000
0000
0010
0000
1000
0000
2002
0000
0000
0000
,
0000
3003
0000
0000
;

//--------------- dance-single - STR XO+ DS- FS+ SJ ----------------
#NOTES:
     dance-single:
     STR XO+ DS- FS+ SJ:
     Challenge:
     16:
     0,0,0,0,0:
0000
0000
0000
0000
,
1001
0001
1000
0010
1000
0100
1000
0010
,
0100
0001
0100
0010
0100
0001
0100
0010
,
1000
0000
0001
0000
1000
0000
0000
0000
0100
0000
0010
0100
0010
0000
0000
0000
,
0001
0000
1000
0100
1000
0000
0000
0000
0001
0000
1000
0100
1000
0000
0000
0000
,
0001
1000
1001
0000
0001
0100
0101
0000
,
0010
1000
1010
0000
1000
0100
1100
0000
,
1000
0010
0100
0001
1000
0100
0010
0001
1000
0010
0100
0001
1000
0100
1000
0010
,
0100
0001
0100
0001
1000
0100
1000
0100
0010
0001
0100
0001
1000
0010
1000
0100
,
2000
0000
0001
3010
0000
1000
1100
0000
,
0010
0001
0100
0001
1000
0010
1000
0000
,
0002
0000
1000
0103
0000
0001
1001
1000
,
0100
0010
0001
0200
0000
0310
1000
0001
,
0010
0100
0110
0000
0020
0000
0031
1000
,
0010
0100
0001
0010
0100
1000
0001
0020
,
0000
0031
0101
0000
0010
0000
1000
0100
,
0010
0000
0001
1001
0000
1000
1100
0100
,
1000
0000
0001
0100
0001
0000
1000
0000
0001
0000
0010
0100
0010
0000
0001
0000
,
1000
0010
1010
0100
0001
0100
0101
0001
,
1000
0000
0001
0010
0100
0000
1000
0000
0001
0000
1000
0100
1000
0000
0001
0000
,
1000
0100
0110
0010
0001
0010
0011
0002
,
0000
0000
1003
0100
1000
0000
0100
0000
0000
0000
0010
0001
0010
0000
0001
0000
,
0000
0000
1000
0010
1000
0000
0010
0000
0000
0000
0100
0001
0100
0000
0010
1000
,
0001
0100
0010
1000
0010
0100
0001
1000
0100
0010
0100
1000
0001
1000
0010
0100
,
0001
0010
0001
0010
0100
1000
0010
0100
0010
1000
0001
0010
0100
1000
0010
0100
,
0001
0000
0000
0000
1000
0000
0100
00M0
0100
0000
0000
0000
0001
0000
1000
0000
0001
0000
0000
0000
0010
0000
0100
000M
0100
0000
0000
0000
0001
0000
0100
0000
,
0010
0000
0000
0000
0100
0000
0010
M000
0010
0000
0000
0000
0001
0000
1000
0000
0001
0000
0000
0000
0010
0000
0100
M000
0100
0000
0000
0000
0002
0000
0000
0000
,
0010
0000
0000
0000
0000
0000
0000
0000
1000
0000
0000
0000
0103
0000
0001
0000
0100
0000
0000
0000
0010
0000
0100
000M
0100
0000
0000
0000
1000
0000
0100
0000
,
1000
0000
0000
0000
0001
0000
0010
0M00
0010
0000
0000
0000
1000
0000
0100
0000
1000
0000
0000
0000
0001
0000
0100
00M0
0100
0000
0000
0000
1000
0000
0001
0000
,
1000
0000
0100
0010
1000
0000
0010
0100
1000
0000
0001
0100
1000
0000
0100
0010
,
1000
0000
0001
0010
0100
0000
0001
0100
1000
0000
0001
0100
0010
0000
1000
0010
,
0200
0000
0000
0000
0301
0000
1000
0001
0020
0000
0001
0000
0031
0000
1000
0001
,
0100
0000
0010
0100
0010
0000
0100
1000
0100
0000
0010
0100
0001
0000
1000
0001
,
0010
0000
0000
0000
0001
0000
0100
00M0
0100
0000
0000
0000
1000
0000
0010
0000
0100
0000
0000
0000
0001
0000
0100
00M0
0100
0000
0000
0000
1000
0000
0010
0000
,
0100
0000
0001
0010
0100
0000
0001
0100
0010
0000
0001
1000
0100
0000
0020
0000
,
0001
0000
0000
0000
0001
0000
0130
0010
0001
0000
1000
0100
0010
0000
0001
1000
,
0001
0000
0010
0000
0011
0000
0001
1000
0100
0000
0010
0000
0110
0000
0100
1000
,
0100
0000
1000
0010
0100
0000
0001
0000
0100
0000
0010
1000
0010
0000
1000
0000
,
0100
0000
0010
0000
0100
0000
1000
0000
0010
0000
0100
0000
0001
0000
1000
0001
,
1000
0010
0100
0001
1000
0100
0010
0001
1000
0001
0100
0010
1000
0100
0010
0001
,
1000
0010
0100
0001
1000
0010
1000
0100
1000
0001
0100
0010
1000
0001
0010
0001
,
1000
0000
0000
0010
0000
0000
0100
0000
0000
0001
0000
0000
0010
0M00
0010
0000
,
1000
0000
0000
0100
0000
0000
0010
0000
0000
0001
0000
0000
0100
00M0
0100
0000
,
1000
0000
0000
0000
0000
0000
0001
0000
0000
0000
0000
0000
0010
0000
0000
0000
0000
0000
0001
0000
0000
0000
0000
0000
0010
0000
0000
0M00
0010
0000
0000
0000
,
1000
0000
0000
0100
0000
0000
1000
0000
0000
0100
0000
0000
0010
0M00
0010
0000
,
1000
0000
0000
0001
0000
0000
0010
0000
0000
0001
0000
0000
0100
00M0
0100
0000
,
1000
0000
0000
0001
0000
0000
0010
0000
0000
0001
0000
0000
0010
0M00
0010
0000
,
1000
0000
0000
0001
0000
0000
0100
0000
0000
0001
0000
0000
0100
00M0
0100
0000
,
1000
0000
0000
0010
0000
0000
0100
0000
0000
0001
0000
0000
0100
0000
0100
0000
,
0101
0000
0000
0000
0001
0000
0000
0000
1000
0001
0000
0000
0100
0000
0010
1000
,
0001
0000
0010
0000
0100
0000
1000
0000
0100
0000
0000
0000
0010
0000
0100
1000
,
0100
0000
0000
1000
0001
0000
0010
0000
0001
0100
0000
0000
0010
0000
1000
0001
,
0100
0000
0010
0000
1000
0000
0000
0000
0001
0000
0000
0000
0100
0000
0010
1000
,
0001
0000
0001
0000
0100
0000
0100
0000
0010
0000
0010
0000
1000
0000
1000
0001
,
0100
0000
0000
0010
0000
0000
0100
0000
0000
0010
0000
0000
1000
0000
0001
0100
,
0001
1000
0100
1000
0001
0010
0100
1000
0001
0100
0001
1000
0100
0010
0001
1000
,
0001
0010
0100
1000
0001
0100
0001
1000
0100
0010
0001
1000
0010
0100
0001
1000
,
00M1
0000
0000
0000
0000
0000
0000
0000
0000
0000
1000
0001
1000
0000
0100
0001
,
0100
0000
0010
0000
0001
0100
0010
0000
1010
0000
1000
0000
0001
0000
0100
0010
,
0001
0000
0010
0000
1000
0001
0000
1000
0010
0000
0100
0001
1000
0000
0001
0100
,
1000
0000
0100
0000
0010
0100
0000
0000
0001
0000
0001
0000
1000
0000
0010
0100
,
1000
0000
0100
0000
0010
1000
0000
0000
0100
0000
0100
0000
0010
0000
0001
0100
,
0010
0000
0001
0000
0010
1000
0000
0000
0001
0000
0001
0000
1000
0000
0100
0010
,
1000
0000
0010
0000
0001
1000
0010
0000
1000
0000
1000
0000
0001
0000
0100
0010
,
0001
0000
0010
0000
0100
0001
1000
0000
0010
0000
0010
0000
1000
0000
0000
0001
,
1000
0000
0010
0000
0100
0000
0001
0000
1000
0000
1000
0000
1001
0000
0001
0100
,
0010
0000
0100
0000
1000
0100
0010
0000
0100
0000
0100
0000
0001
0000
0010
0100
,
0010
0000
1000
0000
0010
0100
0010
0000
0001
0000
0001
0000
1000
0000
0010
1000
,
0001
0000
0010
0000
0001
1000
0010
0000
1000
0000
1000
0000
0001
0000
0100
0010
,
0100
0000
0001
0000
1000
0010
0100
0000
0001
0000
0001
0000
1000
0000
0001
1000
,
0001
0000
0010
0000
0001
0100
0001
0000
1000
0000
1000
0000
0001
0000
0100
0010
,
0100
0000
0001
0000
0100
0010
0100
0000
0001
0000
0001
1000
0001
0010
0100
1000
,
0001
0100
0010
1000
0001
0010
0100
0010
0001
1000
0010
1000
0001
0010
0100
1000
,
0001
0100
0010
1000
0001
0010
0100
1000
0001
0000
0100
0000
0022
0000
0000
0000
,
0000
0000
0000
0000
0000
0033
0000
0000
0000
0000
0000
0000
0000
0000
0000
0000
;

//--------------- dance-double - XO ----------------
#NOTES:
     dance-double:
     XO:
     Hard:
     11:
     0,0,0,0,0:
00000000
00000000
00000000
00000000
,
00011000
00010000
00010000
00010000
,
00001000
00001000
00001000
00001000
,
01000000
00100000
01000000
00000000
00010000
01000000
00010000
00000000
,
10000000
00010000
10000000
00000000
00010000
01000000
00010000
00000000
,
01000000
01001000
00010000
00011000
,
00001000
00011000
00010000
00010010
,
00000010
00001000
00000010
00000100
00000010
00010000
00000100
00001000
,
00000001
00000010
00000001
00000100
00000010
00001000
00000100
00001000
,
00000020
00000000
00010030
00001000
00000000
00000000
01001000
00000000
,
01000000
00100000
01000000
00010000
00000000
10000000
00100000
00000000
,
20000000
00000000
30100000
01000000
00000000
00000000
01010000
00000000
,
00010000
01000000
00001000
00020000
00000000
00031000
00100000
00010000
,
00000000
00100000
00101000
00000000
00001000
00000000
00100000
00001000
,
00000000
00000000
00011000
00000000
00010000
00000010
00001000
00000010
,
00000000
00000100
00000101
00000000
00000002
00000000
00001003
00000010
,
00001000
00000000
00000001
00001000
00000000
00001000
00000001
00000100
,
00000001
00000100
00000010
00010000
00001000
01000000
00100000
10000000
,
00010000
01000000
00010000
00100000
00000000
00010000
10000000
00000000
,
01000000
10000000
01000000
00100000
00010000
00001000
00000100
00000010
,
00000001
00001000
00000100
00001000
00000000
00000001
00001000
00000020
,
00000000
00001030
00000001
00001000
00000010
00001000
00000001
00000100
,
00000000
00000000
00000000
00000000
00000101
00000000
00000000
00000000
00000001
00000000
00000000
00000000
00001000
00000000
00000100
00001000
,
00000100
00010000
00001000
01000000
00100000
00010000
00100000
01000000
,
00200000
00000000
00000000
00000000
00000000
00000000
00000000
00000000
00300000
00000000
10000000
00010000
10000000
00000000
00010000
00000000
,
10000000
01000000
00010000
00001000
00010000
00000100
00001000
00000001
,
00000010
00001000
00010000
00001000
00010000
00001000
10000000
00020000
,
00000000
00000000
10030000
00100000
00000000
01000000
00010000
01000000
,
00010000
00100000
01000000
10000000
00100000
01000000
00001000
10000000
,
00100000
10000000
01000000
00000000
00100000
00001000
01000000
00001000
,
00010000
00000010
00000100
00000010
00000000
00001000
00000001
00001000
,
00000002
00000000
00001003
00000000
00000020
00000000
00001030
00000001
,
00001000
00000010
00000100
00000001
00000010
00000001
00001000
00000001
,
00000010
00001000
00010000
01000000
10000000
00010000
10000000
00000000
,
00010000
01000000
10000000
01000000
00100000
01000000
00001000
00020000
,
00000000
00000000
00030010
00000100
00000001
00001000
00000100
00000000
,
00001000
00000000
00000010
00000000
00000001
00000000
00000010
00000000
00000100
00000000
00000001
00000000
00001000
00000000
00000100
00010000
,
00000100
00010000
00001000
00000000
00100000
00010000
00100000
00010000
,
01000000
00100000
10000000
00100000
10000000
00010000
10000000
00010000
,
00100000
00001000
00100000
00010000
01000000
00001000
00100000
00010000
,
00100000
00001000
00010000
00000100
00001000
00000010
00010000
00000100
,
00001000
00000000
00000000
00000010
00000000
00000000
00001000
00000000
00000000
00000010
00000000
00000000
00001000
00000000
00000001
00000000
,
00000010
00000000
00000000
00000100
00000000
00000000
00010000
00000000
00000000
00001000
00000000
00000000
00010000
00000000
00000100
00000000
,
00000010
00000000
00000000
00010000
00000000
00000000
00001000
00000000
00000000
00100000
00000000
00000000
00010000
00000000
10000000
00000000
,
00010000
00000000
00000000
01000000
00000000
00000000
00100000
00000000
00000000
10000000
00000000
00000000
00010000
00000000
00100000
00000000
,
00001000
00000000
00000000
00010000
00000000
00000000
00000010
00000000
00000000
00010000
00000000
00000000
00001000
00000000
00000010
00000000
,
00001000
00000000
00000000
00010000
00000000
00000000
00000010
00000000
00000000
00000100
00000000
00000000
00000001
00000000
00001000
00000000
,
00000001
00000000
00000000
00000100
00000000
00000000
00000010
00000000
00000000
00000100
00000000
00000000
00000001
00000000
00001000
00000000
,
00000100
00000000
00000000
00010000
00000000
00000000
00001000
00000000
00000000
00010000
00000000
00000000
00001000
00000000
01000000
00000000
,
01001000
00000000
00000000
00000000
01000000
00000000
00000000
00000000
00010000
10000000
00000000
00000000
00010000
00000000
01000000
00100000
,
01000000
00000000
00010000
00000000
10000000
00000000
00000000
00000000
00010000
01000000
00000000
00000000
00010000
00000000
10000000
01000000
,
10000000
00000000
00010000
01000000
00001000
00000000
00010000
00001000
,
00010000
00000100
00010000
00000010
,
00001000
00000100
00001000
00000010
00000100
00000001
00000010
00000100
,
00001000
00000000
00000000
00000100
00000000
00000000
00010000
00000000
00000000
00000100
00000000
00000000
00010000
00000000
00001000
00000000
,
01000000
00100000
01000000
00010000
00100000
01000000
10000000
00010000
,
10000000
01000000
10000000
00100000
01000000
00001000
00010000
00000100
,
M0010000
00000000
00000000
00000000
00000000
00000000
00000000
00000000
00000000
00000000
00001000
00010000
00001000
00000000
00000000
01000000
,
00000000
00000000
00100000
00000000
00000000
00010000
00000000
00000000
00100000
00000000
01000000
00000000
00010000
00000000
00000000
10000000
,
00000000
00000000
00100000
00000000
00000000
01000000
00000000
00000000
00001000
00000000
00010000
00000000
00001000
00000000
00000000
00000010
,
00000000
00000000
00001000
00000000
00000000
00010000
00000000
00000000
00000010
00000000
00000100
00000000
00000001
00000000
00000000
00000100
,
00000000
00000000
00001000
00000000
00000000
00010000
00000000
00000000
00001000
00000000
00100000
00000000
00010000
00000000
00000000
00100000
,
00000000
00000000
10000000
00000000
00000000
00100000
00000000
00000000
01000000
00000000
00100000
00000000
00010000
00000000
00000000
00100000
,
00000000
00000000
00001000
00000000
00000000
00100000
00000000
00000000
00010000
00000000
01000000
00000000
00010000
00000000
00000000
00100000
,
00000000
00000000
00001000
00000000
00000000
00010000
00000000
00000000
00000010
00000000
00000100
00000000
00000001
00000000
00000000
00001000
,
00000000
00000000
00000010
00000000
00000000
00001000
00000000
00000000
00000001
00000000
00001000
00000000
00000001
00000000
00001000
00000000
,
00000010
00000000
00001000
00000000
00000001
00000010
00000001
00000000
00000100
00000000
00000100
00000000
00000010
00000000
00001000
00000000
,
00000100
00000000
00001000
00000000
00000010
00001000
00000010
00000000
00010000
00000000
00010000
00000000
00001000
00000000
01000000
00000000
,
00100000
00000000
01000000
00000000
00010000
00100000
00010000
00000000
10000000
00000000
10000000
00000000
00010000
00000000
01000000
00000000
,
00100000
00000000
10000000
00000000
00010000
01000000
00010000
00000000
00100000
00000000
00100000
00000000
00001000
00000000
00010000
00000000
,
00000010
00010000
00000100
00001000
00000001
00000001
00001000
00000010
,
00001000
00000010
00000100
00000001
00000100
00000001
00001000
00000100
,
00000010
00000000
00000001
00000000
00000010
00000000
00000100
00000000
00010000
00000000
00001000
00000000
01000000
00000000
00000000
00010000
,
00000000
00000000
00100000
00000000
00000000
00001000
00000000
00000000
00010000
00000000
00000001
00000000
00002002
00000000
00000000
00000000
,
00003003
00000000
00000000
00000000
;
