#TITLE:煽げや尊し;
#SUBTITLE:;
#ARTIST:Reol;
#TITLETRANSLIT:Agitate;
#SUBTITLETRANSLIT:;
#ARTISTTRANSLIT:;
#GENRE:;
#CREDIT:;
#BANNER:banner.png;
#BACKGROUND:bg.png;
#LYRICSPATH:;
#CDTITLE:;
#MUSIC:Agitate.ogg;
#OFFSET:1.829000;
#SAMPLESTART:35.728001;
#SAMPLELENGTH:15.000000;
#LASTBEATHINT:1.788314;
#SELECTABLE:YES;
#BPMS:0.000000=131.000000
;
#STOPS:
;
#BGCHANGES:;
#KEYSOUNDS:;
#ATTACKS:;

//---------------dance-single - DS FS XO SS-----------------
#NOTES:
     dance-single:
     :
     Challenge:
     15:
     0.709226,0.758158,0.301754,0.431078,0.718463,691.000000,649.000000,42.000000,60.000000,22.000000,0.000000,0.709226,0.758158,0.301754,0.431078,0.718463,691.000000,649.000000,42.000000,60.000000,22.000000,0.000000:
0000
0000
0000
0000
,
0000
0000
0000
0000
,
0000
0000
0000
0000
,
1000
0000
0001
0000
1000
0010
0100
0001
0000
0010
0000
0000
0001
0000
1000
0000
,
0100
1000
0010
0000
0100
0001
0010
0000
0100
1000
0000
0001
0000
0000
0000
0000
,
1000
0100
1000
0000
0001
0010
0100
1000
0000
0010
0000
0100
0001
0010
0001
0000
,
1000
0000
0010
0000
0100
0001
0010
0000
0100
1000
0000
0001
0000
0000
1000
0000
,
1010
0000
0000
0000
0101
0000
0000
1100
0000
0001
0000
0010
0100
1000
0001
0000
,
0101
0000
0000
0000
1010
0000
0000
0011
0000
0000
1000
0000
0100
0010
0001
0000
,
0011
0000
0000
0000
1100
0000
0000
0101
0000
1000
0000
0010
0100
0000
0001
0000
,
1000
0000
0000
0100
0000
0000
1000
0000
0000
0000
0000
0000
0001
0000
0000
0100
0000
0000
0001
0000
0000
0000
0000
0000
0010
0000
0000
0100
0000
0000
1000
0000
0000
0001
0000
0000
1000
0000
0000
0000
0010
0000
0000
0000
0100
0000
0000
0000
,
0002
0000
0000
0000
1003
0100
1000
0100
1000
0000
0001
0200
0000
0000
0310
0000
,
1000
0000
1000
0000
0001
0010
0000
0001
0100
0010
1000
0000
0001
0000
0001
0000
,
2000
0000
0000
0000
3001
0100
0001
0100
0000
0010
1000
0001
0010
0000
0100
0000
,
1000
0000
0010
0100
0010
0000
1000
0000
0001
0010
0100
1000
0002
0000
0010
0000
,
2003
0000
0000
0000
3010
0000
0000
0100
0001
0000
0010
0000
0001
0000
1000
0000
,
0002
0000
0100
0000
1003
0000
0001
0010
0000
0100
0000
0010
0001
0000
1000
0000
,
1010
0000
0000
0000
0101
0000
0000
0000
1000
0100
0000
0010
0001
0000
1000
0000
,
0010
0000
0100
0000
0010
1000
0000
0100
1000
0000
0001
0100
0000
0001
0010
0000
,
0100
1000
0100
1000
0001
0100
0001
0100
0010
1000
0010
1000
0001
0010
0100
1000
,
0001
0000
0000
1000
0020
0000
0100
0000
1030
0000
0100
1000
0100
1000
0001
0000
,
1001
0000
0001
0010
0M00
0020
1000
0000
0130
0000
0001
0100
00M0
0200
1000
0000
,
0310
0000
0001
0010
0M00
0020
1000
0000
0130
0000
0001
0000
0010
0000
0100
0000
,
1001
0000
1000
0100
00M0
0200
0001
0000
0310
0000
1000
0010
0M00
0020
0001
0000
,
0130
0001
0100
0010
0001
1000
0001
1000
,
1001
0000
1000
0010
0M00
0020
0001
0000
0130
0000
1000
0100
00M0
0200
0001
0000
,
0310
0000
0100
1000
00M0
1000
0010
0000
0100
0000
0001
0000
0100
0000
0001
0000
,
1000
0100
1000
0100
0010
0000
0001
0000
0200
0000
0000
0310
0000
0000
1000
0000
,
0001
0020
0000
0000
0000
0000
0130
1000
0001
0000
0100
0001
1000
0100
1000
0000
,
0110
0000
0001
0000
0110
0000
1000
0000
0001
0000
0100
0000
0110
0000
0000
1000
,
0001
0010
0000
0000
0110
0000
0000
0000
1000
0000
0010
0000
0100
0001
0000
0000
,
0110
0000
1000
0000
0110
0000
0001
0000
1000
0000
0100
M000
0200
0010
0000
0000
,
0301
0000
0100
000M
0200
0010
0000
0000
1300
0001
1000
0001
0010
0000
0100
0000
,
0001
0000
0100
0000
0010
0000
0001
1000
0000
0020
0000
0000
0130
0000
0001
0100
,
1000
0000
0100
0010
1000
0000
0001
1000
0000
0200
0000
0000
0310
0000
0001
0000
,
2001
0000
0000
0000
0010
0000
0000
0000
0100
0000
0000
0000
3010
0000
0100
0001
,
1000
0000
0100
0000
0010
0000
0001
0000
1000
0010
1000
0010
0100
0001
0100
0001
,
2000
0000
0000
0000
3200
0000
0000
0320
0000
0000
0031
0000
1000
0000
0001
0000
,
0101
0000
0000
2000
0000
0000
0000
0000
0000
0100
0000
0000
3001
0000
0000
0010
0000
0000
0100
0000
1000
0000
0001
0000
,
0100
0000
0000
0000
0001
0000
1000
0000
0001
0000
0000
0000
0100
00M0
0100
0000
1000
0000
0100
0000
0000
0000
0010
0000
0001
0000
0000
0000
1000
0000
0000
0000
,
0020
0000
0000
0000
0100
0000
0000
0000
1030
0000
0000
0000
0100
00M0
0100
0000
0001
0000
0100
0000
0001
0000
0000
0000
1000
0000
0000
0000
0100
0000
0000
0000
,
0000
0000
0000
0010
0000
0000
0000
0000
0000
0001
0000
0000
0010
0000
0000
0000
0000
0000
0100
0000
0000
1000
0000
0000
0001
0000
0000
0000
0100
0000
0000
0000
0010
0000
0000
0000
1000
0000
0000
0000
0010
0000
0000
0000
0100
0000
0000
0000
,
0001
0000
0000
0000
0000
0000
0000
0000
1002
0000
0000
0000
0000
0000
0000
0000
0010
0000
0000
0000
1003
0000
0000
0000
0001
0000
0000
0000
0100
00M0
0100
0000
,
1000
0000
0000
0100
0000
0000
0000
0000
0000
0010
0000
0000
0001
0000
0000
0000
0000
0000
1000
0000
0000
0000
0000
0000
0004
0000
0000
0000
0003
0000
0400
0000
0000
0000
0300
0000
0040
0000
0000
0000
0030
0000
4000
0000
0000
0000
3000
0000
,
1002
0000
0000
0000
0000
0000
0000
0000
0023
0000
0000
0000
0000
0000
0000
0000
0130
0000
0000
0000
0010
0000
0001
0000
1000
0000
0001
0000
0100
00M0
0100
0000
,
4000
0000
0000
0000
0004
0000
0000
3003
,
1002
0000
0000
0000
0023
0000
0000
0000
0130
0000
0100
0000
0100
0000
1000
0001
,
0100
0000
0010
0000
0100
0000
1000
0000
0100
0000
0001
0000
1001
0000
1000
0100
,
2000
0000
0000
0000
3020
0000
0000
0000
0130
0000
0100
0000
0100
0000
0001
1000
,
0010
0000
0100
0000
0001
0000
0010
0001
1000
0100
1000
0000
0001
0100
0001
0000
,
2001
0000
0000
0000
3020
0000
0000
0000
0130
0000
0100
0000
0100
0000
0001
1000
,
0100
0000
0010
0000
0100
0000
0001
0000
0100
0000
1000
0000
1001
0000
0001
0100
,
0002
0000
0000
0000
0023
0000
0000
0000
0130
0000
0100
0000
0100
0000
1000
0001
,
0010
0000
0000
0000
0000
0000
0100
0000
0000
0000
0000
0000
1000
0000
0000
0000
0000
0000
0001
0000
0000
0100
0000
0000
0010
0000
0000
1000
0000
0000
0010
0000
0000
1000
0000
0000
0001
0000
0000
0000
0010
0000
0000
0000
0100
0000
0000
0000
,
2000
0000
0020
0030
0200
0300
3002
0203
,
0310
0000
1000
0000
0010
0000
0100
0001
0000
1000
0000
0001
0010
0000
0100
0000
,
1100
0000
0000
0000
0001
0100
0010
1000
0000
0001
0010
0000
0001
0000
1000
0000
,
0010
0000
0100
0001
0000
0010
0001
0000
1000
0000
1000
0000
0010
0000
0010
0000
,
0100
0000
0100
0000
0001
0000
0001
0000
1000
0010
1000
0010
0100
0001
0100
0002
,
2000
0000
0000
0000
3003
0000
0000
0000
1001
0000
1000
0010
0M00
0020
0001
0000
,
0130
0000
1000
0100
00M0
0200
0001
0000
0310
0000
1000
0010
0M00
0020
0001
0000
,
0130
0000
1000
0000
0010
0000
0100
0000
1001
0000
0001
0100
00M0
0200
1000
0000
,
0310
0000
0001
0010
0M00
0020
1000
0000
0130
0000
1000
0000
0100
0000
0010
0000
,
1000
0000
0001
0000
1000
0000
0001
0000
1001
0000
0001
0010
0M00
0020
1000
0000
,
0130
0000
0001
0100
00M0
0200
1000
0000
0310
0000
0100
0001
00M0
0001
0010
0000
,
0100
1000
0100
1000
2002
3000
0103
0000
,
2002
0000
0003
0000
3100
0000
0010
0001
1000
0000
1000
0000
0010
0000
0010
0000
,
0100
0001
0100
0001
1000
0100
0010
0001
1000
0000
0000
0001
0100
0000
0010
0000
,
1010
0000
0000
1000
0100
0000
0010
0000
0001
2000
0000
0000
0010
0000
3001
0000
,
0100
0000
0010
1000
0001
0000
0010
0000
0011
0000
0000
0001
0100
0000
0010
0000
,
1010
0000
0001
0000
0010
0200
0000
0000
0301
0000
0100
0000
0010
0000
0100
0000
,
1000
0001
1000
0001
0100
0000
0010
0000
1010
0000
0000
1000
0100
0000
0010
0000
,
0011
0000
0001
0000
1001
0000
0000
1000
0001
0200
0000
0000
0310
0000
1000
0000
,
0001
0000
0010
0000
0100
1000
0000
0000
1010
0000
0000
1000
0100
0000
0010
0000
,
0011
0000
1000
0000
0010
0200
0000
0000
0301
1000
0100
0000
0010
0001
0000
1000
,
0010
1000
0001
0010
0200
0000
1300
0000
0000
0000
0000
0000
0000
0000
0000
0000
;

//---------------dance-single - ----------------
#NOTES:
     dance-single:
     :
     Hard:
     13:
     0.630195,0.595696,0.273016,0.222724,0.495739,614.000000,576.000000,38.000000,31.000000,0.000000,0.000000,0.630195,0.595696,0.273016,0.222724,0.495739,614.000000,576.000000,38.000000,31.000000,0.000000,0.000000:
0000
0000
0000
0000
,
0000
0000
0000
0000
,
0000
0000
0000
0000
,
1000
0000
0100
0000
1000
0000
0001
0100
0000
0020
0000
0000
1030
0000
0001
0000
,
1000
0100
1000
0000
0001
0010
0001
0000
1000
0010
0000
0100
0000
0000
0000
0000
,
0001
0000
0100
0000
0001
0000
1000
0100
0000
0020
0000
0031
1000
0000
0001
0000
,
0100
0000
0001
0000
1000
0010
1000
0000
0001
0010
0000
0100
0000
0000
0000
0000
,
1001
0000
0000
0000
0101
0000
0000
1100
0000
0001
0000
1000
0010
0000
0100
0000
,
1001
0000
0000
0000
1010
0000
0000
0011
0000
0000
1000
0000
0001
0100
0010
0000
,
1001
0000
0000
0000
1100
0000
0000
0101
0000
1000
0000
0100
0010
0000
0001
0000
,
1000
0000
0000
0010
0000
0000
1000
0000
0000
0000
0000
0000
0001
0000
0000
0000
0000
0000
0010
0000
0000
0000
0000
0000
0100
0000
0000
0000
0000
0000
1000
0000
0000
0000
0000
0000
0001
0000
0000
0000
0100
0000
0000
0000
0001
0000
0000
0000
,
0200
0000
0000
0000
0310
0000
1000
0000
0001
0000
0010
0200
0000
0000
1300
0000
,
0001
0000
0001
0000
0100
0010
0000
0100
0010
0000
1000
0000
1000
0000
0001
0000
,
0010
0000
0000
0000
0100
0000
1000
0001
0000
0100
0000
0001
1000
0000
0100
0000
,
0010
0000
0001
0000
1000
0000
0010
0000
0100
0001
0100
0001
1000
0000
0100
0000
,
0010
0000
0000
0000
0011
0000
0000
0001
1000
0000
0010
0000
0100
0000
0001
0000
,
1000
0000
0100
0000
0010
0000
0001
1000
0000
0010
0000
1000
0001
0000
0100
0000
,
0010
0000
0000
0000
1010
0000
0000
1000
0001
0000
0010
0000
0100
0000
1000
0000
,
0001
0000
0100
0000
0010
1000
0000
0010
1000
0000
0001
0010
0000
0001
0010
0000
,
0100
0000
1000
0000
0001
0000
0100
0010
0100
0000
0001
0000
1000
0000
0100
0000
,
0010
0000
0000
0001
1000
0000
0001
0000
1000
0000
0010
0000
0100
0000
0010
0000
,
1001
0000
0001
0010
0000
0001
0100
0000
0010
0000
1000
0100
0000
1000
0001
0000
,
0100
0000
0010
1000
0000
0001
0010
0000
0100
0000
1000
0000
0010
0000
0100
0000
,
0001
0000
1000
0100
0000
1000
0001
0000
0100
0000
0010
1000
0000
0001
0010
0000
,
0100
0001
0100
0010
0001
1000
0001
1000
,
0010
0000
0100
0001
0000
1000
0100
0000
0010
0000
0001
0100
0000
0010
1000
0000
,
0001
0000
0100
1000
0000
0100
0010
0000
1000
0000
0001
0000
1000
0000
0001
0000
,
0020
0000
0000
0000
0130
0000
1000
0000
0020
0000
0000
0230
0000
0000
0301
0000
,
0010
0002
0000
0000
0000
0000
1003
0000
0010
0000
0100
0001
1000
0000
0100
0000
,
0011
0000
1010
0000
0011
0001
0101
0000
,
1000
0100
0000
0000
0011
0000
0000
0000
1000
0000
0010
0000
0100
0010
0000
0000
,
1010
0000
0000
0000
0011
0000
0000
0000
1010
0000
1000
0000
0100
1000
0000
0000
,
0001
0000
0100
0000
0010
1000
0000
0000
0001
0010
0001
0010
0100
0000
1000
0000
,
0010
0000
1000
0000
0001
0000
0010
0100
0000
2000
0000
0000
3000
0000
0100
0000
,
0001
0000
0100
0000
0010
0000
0001
1000
0000
0020
0000
0000
0130
0000
0001
0000
,
1000
1100
0101
1100
,
0001
0000
0100
0000
0001
0000
0100
0000
0010
1000
0010
1000
0001
0000
0010
0000
,
0200
0000
0000
0000
,
1300
0000
0000
0010
0000
0000
0000
0000
0000
0010
0000
0000
0100
0000
0000
0001
0000
0000
1000
0000
0100
0000
0010
0000
,
0001
0000
1000
0000
0010
0000
0100
0001
0100
0001
0000
1000
0100
0000
0010
0000
,
0001
0000
1000
0000
0000
0000
0100
0010
0001
0010
0001
0000
1000
0000
0010
0000
,
0000
0000
0000
0100
0000
0000
0000
0000
0000
0001
0000
0000
0100
0000
0000
0000
0000
0000
0010
0000
0000
1000
0000
0000
0001
0000
0000
0000
0010
0000
0000
0000
0100
0000
0000
0000
1000
0000
0000
0000
0100
0000
0000
0000
0010
0000
0000
0000
,
0001
0000
0000
0000
1002
0000
0000
0000
0013
0000
0100
0000
1000
0000
0001
0100
,
0001
0000
0000
0100
0000
0000
0000
0000
0000
0010
0000
0000
1000
0000
0000
0000
0000
0000
0001
0000
0000
0000
0000
0000
0040
0000
0000
0000
0030
0000
0400
0000
0000
0000
0300
0000
4000
0000
0000
0000
3000
0000
0040
0000
0000
0000
0030
0000
,
0110
0000
0000
0000
0002
0000
0000
0000
2003
0000
0100
0000
3001
0000
0100
0010
,
0200
0000
0302
0000
,
2003
0000
3020
0000
0130
0100
0100
0001
,
1000
0000
0001
0000
0010
0000
1000
0000
0010
0000
0100
0000
1000
0000
0001
0100
,
0002
0000
0023
0000
0130
0100
0200
0000
,
0301
0100
1000
0001
0100
1000
0001
0010
,
2000
0000
3020
0000
0130
0100
0100
0001
,
1000
0000
0001
0000
0010
0000
1000
0000
0010
0000
0100
0000
1000
0000
0001
0100
,
0002
0000
0023
0000
0130
0100
0100
1000
,
0010
0000
0000
0000
0000
0000
0100
0000
0000
0000
0000
0000
0001
0000
0000
0000
0000
0000
1000
0000
0000
0100
0000
0000
1000
0000
0000
0000
0000
0000
0001
0000
0000
0000
0000
0000
0100
0000
0000
0000
0010
0000
0000
0000
0100
0000
0000
0000
,
0020
0000
1000
0000
0001
0000
1030
0001
,
1000
0000
0100
0000
0010
0000
0001
1000
0000
0010
0000
1000
0001
0000
0010
0000
,
0200
0000
0000
0000
1300
0000
0001
0100
0000
0001
0010
0000
0100
0000
0100
0000
,
1001
0000
1000
0010
0000
1000
0001
0000
0010
0000
0010
0000
0100
0000
0100
0000
,
1000
0000
1000
0000
0010
0000
0010
0000
0100
0001
0100
0001
1000
0000
0100
0000
,
0020
0000
0000
0000
0000
0000
0030
0000
1001
0000
1000
0010
0000
1000
0100
0000
,
0010
0000
0001
0100
0000
0001
1000
0000
0100
0000
0010
0001
0000
1000
0010
0000
,
0100
0000
0001
0000
0010
0000
0100
0000
1000
0000
0001
0100
0000
0001
1000
0000
,
0100
0000
0010
0001
0000
1000
0010
0000
0100
0000
1000
0000
0100
0000
0010
0000
,
1000
0000
0001
0000
1000
0000
0001
0000
0010
0000
0100
1000
0000
0001
0100
0000
,
0010
0000
1000
0100
0000
0010
0001
0000
1000
0000
0100
0001
0000
0100
0010
0000
,
0001
1000
0001
1000
0020
0030
0011
0000
,
0020
0030
1010
0000
0001
1000
0001
1000
,
0100
0010
0100
0010
0001
0000
1000
0000
1010
0000
0000
0010
1000
0000
0001
0000
,
0011
0000
0000
0010
0001
0000
1000
0000
0100
1000
0000
0000
0002
0000
0000
0000
,
0103
0000
0010
0000
1010
0000
0001
0000
0011
0000
0000
0010
0001
0000
1000
0000
,
0010
0000
0100
0000
0001
1000
0000
0000
0100
0000
0001
0000
0100
0000
0010
0000
,
0001
1000
0001
1000
0010
0000
0100
0000
0101
0000
0000
0100
0001
0000
1000
0000
,
1100
0000
0100
0000
0010
0000
0000
0000
0001
1000
0000
0000
0010
0000
0100
0000
,
1000
0000
0100
0000
0001
1000
0000
0000
1100
0000
0000
0000
0101
0000
0000
0000
,
0110
0000
0010
0000
1000
0001
0000
0000
0010
0100
1000
0000
0001
0100
0000
0001
,
1000
0000
0100
0010
0001
0000
1000
0000
0000
0000
0000
0000
0000
0000
0000
0000
;

//---------------dance-single - ----------------
#NOTES:
     dance-single:
     :
     Medium:
     10:
     0.410550,0.433233,0.136508,0.380785,0.096993,400.000000,381.000000,19.000000,53.000000,0.000000,0.000000,0.410550,0.433233,0.136508,0.380785,0.096993,400.000000,381.000000,19.000000,53.000000,0.000000,0.000000:
0000
0000
0000
0000
,
0000
0000
0000
0000
,
0000
0000
0000
0000
,
1000
0000
0000
0000
0010
0000
0000
0100
0000
0000
0001
0000
1000
0000
0000
0000
,
0100
0000
0010
0000
0100
0000
0010
0000
0001
0000
0000
1000
0000
0000
0000
0000
,
0001
0000
0000
0000
0010
0000
0000
0100
0000
0000
1000
0000
0001
0000
0000
0000
,
0100
0000
0010
0000
0100
0000
0010
0000
1000
0000
0000
0001
0000
0000
0000
0000
,
0021
0000
0000
0000
0230
0000
0000
2300
0000
3000
0000
0000
0001
0000
1000
0000
,
1020
0000
0000
0000
0230
0000
0000
0302
0000
0003
1000
0000
0100
0000
0010
0000
,
0012
0000
0000
0000
2003
0000
0000
3020
0000
0030
0000
0000
0100
0000
0001
0000
,
1000
0100
1000
0100
0010
0001
2000
0000
,
3010
0000
0100
0001
1000
0000
0200
0000
,
0310
0001
0010
0000
0100
1000
0001
0000
,
0100
0000
0000
0000
0010
0000
0000
1000
0000
0000
0001
0000
0010
0000
0000
0000
,
0100
1000
0100
0000
0010
0001
1000
0001
,
2000
0000
0000
3020
0000
0000
0000
0000
,
0130
0000
0001
0000
1000
0000
0000
0100
0000
0000
1000
0000
0001
0000
0000
0000
,
0200
0000
0320
0000
1030
0001
1000
0001
,
0010
0100
1000
0001
,
1000
0010
1000
0010
0100
0001
1000
0100
,
0010
0000
2002
0000
3003
1000
0001
1000
,
0010
0000
0000
1000
0000
0000
0100
0000
0010
0000
0000
0001
0000
0000
0100
0000
,
0010
0000
0000
1000
0000
0000
0100
0000
0020
0000
0000
0000
0032
0000
0000
0000
,
1003
0000
0000
0010
0000
0000
0100
0000
0001
0000
0000
0010
0000
0000
0100
0000
,
2000
0000
3002
0000
0103
0010
0100
0010
,
0100
0000
0000
0001
0000
0000
0010
0000
0100
0000
0000
1000
0000
0000
0010
0000
,
0100
0000
0000
1000
0000
0000
0100
0000
0001
0000
1000
0000
0001
0000
1000
0000
,
0200
0000
0000
0000
0000
0000
0310
0000
0001
0000
0000
1000
0000
0000
0001
0000
,
0200
0000
0310
1000
,
1001
0000
1001
0000
0001
0010
0100
0000
,
2000
0010
3002
0013
,
1001
0000
1001
0000
1000
0010
0100
0000
,
0001
0010
0100
0000
1000
0001
1000
0000
,
0010
0000
0100
0000
0001
1000
0001
0000
,
0010
0000
0100
0000
1000
0001
1000
0000
,
0010
0100
0100
0100
,
0001
1000
0001
1000
0200
0000
0320
0000
,
0032
0000
0000
0000
,
1003
0010
0000
1000
0001
0000
0020
0000
,
0130
0000
1000
0001
2000
0000
3010
0100
,
0001
0010
0000
0001
1000
0010
1000
0000
,
0000
0001
0000
0000
1000
0000
0000
0000
0200
0000
0000
0000
0320
0000
0000
0000
,
0031
0000
2000
0000
3010
0100
0020
0000
,
2030
0000
3001
0010
0200
0000
0000
0300
,
1001
0000
0000
0000
1000
0010
0100
0010
,
2000
0000
0000
0000
0002
0000
0000
3003
,
1000
0000
0100
0000
0010
0001
0010
0000
,
0100
1000
0001
0200
0000
0000
0000
0000
,
0301
0000
0100
0000
0010
1000
0010
0000
,
0100
0001
1000
0100
0020
0000
0032
0000
,
1003
0000
0100
0000
0010
0001
0010
0000
,
0100
1000
0001
0200
0000
0000
0000
0000
,
0301
0000
0100
0000
0010
1000
0010
0000
,
0100
0001
0100
0001
1000
0100
0020
0000
,
0032
1000
1000
1000
,
1003
0010
1000
0000
0001
0100
0001
0000
,
2000
0001
0001
0001
,
3001
0010
0001
0000
1000
0100
1000
0000
,
0001
0100
0001
0000
1000
0010
1000
0000
,
0002
0000
0000
0000
0000
0000
0000
0000
0013
0000
0000
0001
0000
0000
0100
0000
,
0010
0000
0000
1000
0000
0000
0100
0000
0010
0000
0000
0001
0000
0000
0100
0000
,
0020
0000
0000
0000
2030
0000
0000
0000
3001
0000
0000
0010
0000
0000
0100
0000
,
1000
0000
0000
0010
0000
0000
0100
0000
0002
0000
0000
0000
2003
0000
0000
0000
,
3100
0000
0010
0000
0100
0000
0010
0000
0100
0000
0000
1000
0000
0000
0010
0000
,
0100
0000
0000
0001
0000
0000
0010
0000
0100
0000
0000
0001
0000
0000
0100
0000
,
1000
0001
1000
0001
0100
0000
0110
0000
,
0010
0000
0110
0000
1000
0001
1000
0001
,
0000
0010
0100
1000
1001
0000
1001
0000
,
0001
0100
0010
0000
2000
0000
3100
0000
,
1000
0001
1000
0000
1001
0000
1001
0000
,
1000
0100
0010
0000
0001
1000
0010
1000
,
0002
0013
1001
1001
,
0001
0010
0100
0000
2000
0000
3001
0100
,
0001
0100
0001
0000
1001
0000
1001
0000
,
1000
0010
0100
0000
0001
1000
0001
1000
,
0001
0010
0100
1000
0000
0000
0000
0000
;

//---------------dance-double - ----------------
#NOTES:
     dance-double:
     :
     Challenge:
     16:
     0.693830,0.731081,0.301754,0.237093,0.689725,676.000000,634.000000,42.000000,33.000000,21.000000,0.000000,0.693830,0.731081,0.301754,0.237093,0.689725,676.000000,634.000000,42.000000,33.000000,21.000000,0.000000:
// measure 0
00000000
00000000
00000000
00000000
,  // measure 1
00000000
00000000
00000000
00000000
,  // measure 2
00000000
00000000
00000000
00000000
,  // measure 3
00011000
00000000
00100000
00000000
00010000
00100000
01000000
10000000
00000000
00010000
00000000
01000000
00100000
00000000
00010000
00000000
,  // measure 4
00001000
00010000
00001000
00000000
00100000
00010000
00100000
00000000
01000000
10000000
00000000
00010000
00000000
00000000
01000000
00000000
,  // measure 5
00001000
00000000
00010000
00000010
00001000
00000010
00000100
00000001
00000000
00001000
00000000
00000100
00000010
00000000
00001000
00000000
,  // measure 6
00010000
00000000
00010000
00000000
00000010
00001000
00000010
00000000
00000100
00000001
00000000
00001000
00000000
00000000
00000100
00000000
,  // measure 7
00000110
00000000
00000000
00000000
00011000
00000000
00000000
01100000
00000000
10000000
00000000
00010000
00100000
00010000
01000000
00000000
,  // measure 8
01100000
00000000
00000000
00000000
00011000
00000000
00000000
00000110
00000000
00000000
00000001
00000000
00001000
00000100
00000010
00000000
,  // measure 9
00000110
00000000
00000000
00000000
00011000
00000000
00000000
01100000
00000000
10000000
00000000
00010000
00100000
00000000
00001000
00000000
,  // measure 10
00010000
00000000
00000000
00000100
00000000
00000000
00010000
00000000
00000000
00000000
00000000
00000000
00001000
00000000
00000000
01000000
00000000
00000000
00001000
00000000
00000000
00000000
00000000
00000000
00010000
00000000
00000000
00000010
00000000
00000000
00001000
00000000
00000000
00000000
00000000
00000000
00000001
00000000
00000000
00000000
00000010
00000000
00000000
00000000
00000100
00000000
00000000
00000000
,  // measure 11
00001000
00000000
00000000
00000000
00000010
00000000
00010000
00001000
00010000
00000000
00000010
00002000
00000000
00000000
00003100
00000000
,  // measure 12
00010000
00000000
00010000
00000000
00001000
00100000
00000000
00010000
01000000
00100000
10000000
00000000
00010000
00000000
00100000
00000000
,  // measure 13
00010000
00000000
00000000
00000000
01000000
00001000
00010000
00001000
00000000
00100000
00010000
00100000
00001000
00000000
00010000
00000000
,  // measure 14
00000010
00000000
00001000
00000001
00000010
00000000
00000100
00000000
00010000
00001000
00010000
00001000
00100000
00010000
00100000
01000000
,  // measure 15
10000000
00000000
00000000
00000000
10010000
00000000
00000000
00010000
01000000
00000000
00001000
00000000
00010000
00000000
00000100
00000000
,  // measure 16
00001000
00000000
00000010
00000000
00000100
00000000
00001000
00010000
00000000
00001000
00000000
00000010
00000100
00000000
00001000
00000000
,  // measure 17
00000001
00000000
00000000
00000000
00001001
00000000
00000000
00001000
00000100
00001000
00000000
00000010
00010000
00001000
00010000
00000000
,  // measure 18
00000100
00000000
00001000
00000000
00000100
00000010
00000000
00000100
00001000
00000000
00000001
00000100
00000000
00000010
00001000
00000000
,  // measure 19
00000100
00010000
00000100
00010000
00001000
01000000
00001000
01000000
00010000
00100000
00001000
00010000
00001000
01000000
00001000
00010000
,  // measure 20
00000100
00000000
00000000
00001000
00000010
00000000
00010000
00000000
00001000
00000000
00100000
00000000
00010000
00000000
10000000
00000000
,  // measure 21
10010000
00000000
10000000
01000000
00M00000
01000000
00010000
00000000
00001000
00000000
00000010
00001000
00000M00
00001000
00010000
00000000
,  // measure 22
00100000
00000000
10000000
00100000
0M000000
00100000
00010000
00000000
01000000
00000000
00100000
00000000
00010000
00000000
00001000
00000000
,  // measure 23
00000010
00000000
00000001
00000010
00000M00
00000010
00001000
00000000
00010000
00000000
01000000
00010000
00M00000
00010000
00001000
00000000
,  // measure 24
00000010
00000001
00001000
00000010
00010000
00001000
00010000
00001000
,  // measure 25
00000100
00000000
00000001
00000100
000000M0
00000100
00001000
00000000
00010000
00000000
00100000
00010000
0000M000
00010000
00001000
00000000
,  // measure 26
00000010
00000000
00000100
00000001
000000M0
00000001
00000010
00000000
00001000
00000000
00010000
00000000
00001000
00000000
00010000
00000000
,  // measure 27
00100000
10000000
00100000
10000000
00010000
00000000
00100000
00000000
00002000
00000000
00000000
00023000
00000000
00000000
00030010
00000000
,  // measure 28
00001000
00000002
00000000
00000000
00000013
00000000
00000100
00010000
00001000
00000000
01000000
00000000
00010000
00000000
00100000
00000000
,  // measure 29
00110000
00000000
00000000
00000000
00001100
00000000
00000000
00000000
00110000
00000000
00001000
00000000
00011000
00000000
00000000
01000000
,  // measure 30
00010000
01000000
00000000
00000000
01010000
00000000
00000000
00000000
00001000
00000000
00010000
00000000
00000010
00001000
00000000
00000000
,  // measure 31
00001010
00000000
00000000
00000000
01010000
00000000
00000000
00000000
00001010
00000000
00010000
00000000
00001000
00010000
00000000
00000000
,  // measure 32
00000010
00000000
00001000
00000000
00000100
00001000
00000000
00000000
00000100
00010000
00001000
00010000
00000010
00000000
00001000
00000000
,  // measure 33
00010000
00000000
01000000
00000000
00001000
00000000
00010000
00000100
00000000
00020000
00000000
00000000
00031000
00000000
00100000
00010000
,  // measure 34
00001000
00000000
00000100
00010000
00001000
00000000
00100000
00010000
00000000
20000000
00000000
00000000
30100000
00000000
01000000
00000000
,  // measure 35
00010000
00000000
00000000
00000000
00110000
00000000
00000000
00000000
00001010
00000000
00000000
00000000
00110000
00000000
00001000
00010000
,  // measure 36
00001000
00000000
00100000
00000000
00010000
00000000
01000000
00000000
00001000
00010000
00000100
00001000
00000010
00010000
00001000
00100000
,  // measure 37
00020000
00000000
00000000
00000000
00000000
00000000
00000000
00000000
00000000
00000000
00000000
00000000
00000000
00000000
01030000
00001000
,  // measure 38
00020000
00000000
00000000
00000100
00000000
00000000
00000000
00000000
00000000
01030000
00000000
00000000
10000000
00000000
00000000
00010000
00000000
00000000
01000000
00000000
00001000
00000000
00010000
00000000
,  // measure 39
00001000
00000000
00000000
00100000
00010000
00000000
00100000
00001000
00010000
00000100
00000000
00001000
00000010
00000000
00010000
00000000
,  // measure 40
00002000
00000000
01000000
00000000
00000000
00000000
00003100
00000001
00000100
00000001
00001000
00000000
00000100
00000000
00010000
00000000
,  // measure 41
00000000
00000000
00000000
00001000
00000000
00000000
00000000
00000000
00000000
00100000
00000000
00000000
00010000
00000000
00000000
00000000
00000000
00000000
10000000
00000000
00000000
00100000
00000000
00000000
10000000
00000000
00000000
00000000
01000000
00000000
00000000
00000000
00010000
00000000
00000000
00000000
00001000
00000000
00000000
00000000
00000010
00000000
00000000
00000000
00000001
00000000
00000000
00000000
,  // measure 42
00001000
00000000
00000000
00000000
00001001
00000000
00000000
00000000
00000001
00000000
00000010
00000000
00000100
00000000
00010000
00001000
,  // measure 43
00010000
00000010
00000000
00001000
00000100
00000000
00000010
00000000
00000004
00000003
00004000
00003000
00040000
00030000
40000000
30000000
,  // measure 44
10010000
00000000
00000000
00000000
00020000
00000000
00000000
00000000
00130000
00000000
00001000
00010000
00000100
00000000
00010000
00001000
,  // measure 45
02000000
00000000
00000000
00000000
00000200
00000000
00000000
03000300
,  // measure 46
00012000
00000000
00000000
00000000
00003020
00000000
00000000
00000000
00000130
00000000
00000100
00000000
00000100
00000000
00010000
00001000
,  // measure 47
00010000
00000000
00000010
00000000
00001000
00000000
00010000
00000000
00001000
00000000
00000010
00000000
00010000
00001000
00010000
00001000
,  // measure 48
00020000
00000000
00000000
00000000
00230000
00000000
00000000
00000000
01300000
00000000
01000000
00000000
01000000
00000000
00001000
00010000
,  // measure 49
00002000
00003020
00000032
00000203
00002300
00023000
00230000
20300000
,  // measure 50
30020000
00000000
00000000
00000000
00032000
00000000
00000000
00000000
00003100
00000000
00000100
00000000
00000100
00000000
00000010
00000001
,  // measure 51
00001000
00000000
00000010
00000000
00001000
00000000
00010000
00000000
00001000
00000000
00000010
00000000
00000100
00000001
00001000
00000001
,  // measure 52
00002000
00000000
00000000
00000000
00023000
00000000
00000000
00000000
01030000
00000000
01000000
00000000
01000000
00000000
00100000
10000000
,  // measure 53
00020000
00000000
00000000
00000000
00000000
00000000
00000000
00000000
00000000
00000000
00000000
00000000
00000000
00000000
00000000
00000000
00000000
00000000
00130000
00000000
00000000
00001000
00000000
00000000
00010000
00000000
00000000
00001000
00000000
00000000
00010000
00000000
00000000
00000000
00000000
00000000
00000100
00000000
00000000
00000000
00010000
00000000
00000000
00000000
00001000
00000000
00000000
00000000
,  // measure 54
01000000
00000000
01010000
00000000
00011000
00000000
00001010
00000001
,  // measure 55
00000010
00000000
00000100
00000000
00010000
00000000
00001000
00100000
00000000
00010000
00000000
00100000
00001000
00000000
00010000
00000000
,  // measure 56
00100000
00000000
00000000
00000000
10000000
00000000
00010000
00100000
00000000
00010000
01000000
00000000
00001000
00000000
00001000
00000000
,  // measure 57
00011000
00000000
00010000
00000010
00000000
00001000
00000100
00000000
00010000
00000000
00010000
00000000
00001000
00000000
00001000
00000000
,  // measure 58
00100000
00010000
00100000
00010000
01000000
00001000
01000000
00001000
00010000
00000010
00010000
00000010
00001000
00000100
00001000
00000100
,  // measure 59
00000020
00000000
00000000
00000000
00000000
00000000
00000030
00000000
00001001
00000000
00000001
00000100
000000M0
00000100
00001000
00000000
,  // measure 60
00010000
00000000
00100000
00010000
0M000000
00010000
00001000
00000000
00000010
00000000
00000001
00000010
00000M00
00000010
00001000
00000000
,  // measure 61
00000100
00000000
00000010
00000000
00001000
00000000
00010000
00000000
00100000
00000000
10000000
00100000
0M000000
00100000
00010000
00000000
,  // measure 62
00001000
00000000
00000100
00001000
000000M0
00001000
00010000
00000000
00100000
00000000
10000000
00000000
00010000
00000000
00100000
00000000
,  // measure 63
00001000
00000000
00010000
00000000
00001000
00000000
00010000
00000000
01000000
00000000
10000000
01000000
00M00000
01000000
00010000
00000000
,  // measure 64
00001000
00000000
00000010
00001000
000M0000
00001000
00010000
00000000
00100000
00000000
01000000
10000000
00M00000
10000000
00100000
00000000
,  // measure 65
00010000
00001000
00010000
00001000
00000010
00000000
00000110
00000000
,  // measure 66
00100000
00000000
01100000
00000000
00001000
00100000
00001000
01000000
,  // measure 67
00010000
01000000
00010000
01000000
00001000
00010000
00000100
00010000
00001000
00000000
000M0000
00001000
00000100
00000000
00010000
00000000
,  // measure 68
00011000
00000000
0000M000
00010000
01000000
00000000
00001000
00000000
00010000
00001000
00000000
00000000
00011000
00000000
00000000
00000000
,  // measure 69
00100000
00000000
00010000
00000000
01000000
00000000
00001000
00000000
00011000
00000000
000M0000
00001000
00000100
00000000
00010000
00000000
,  // measure 70
00001000
00000000
01000000
00000000
00010000
00200000
00000000
00000000
01300000
00000000
00010000
00000000
00001000
00000000
00000010
00000000
,  // measure 71
00000100
00001000
00000100
00020000
00002000
00000000
00033000
00000000
00011000
00000000
0000M000
00010000
01000000
00000000
00001000
00000000
,  // measure 72
00011000
00000000
000M0000
00001000
00000100
00000000
00010000
00001000
00010000
00000010
00000000
00001000
00000100
00000000
00010000
00000000
,  // measure 73
00001000
00000000
00100000
00000000
00001000
00010000
00000000
00000000
00010010
00000000
00000000
00000000
00101000
00000000
00000000
00000000
,  // measure 74
00100010
00000000
00001000
00000000
00010000
00001000
00000000
00000000
00100000
00010000
00100000
00000000
00001000
00010000
00000000
00000010
,  // measure 75
00001000
00000100
00010000
00001000
00100000
00010000
01000000
00000000
00000000
00000000
00000000
00000000
00000000
00000000
00000000
00000000
;
