#TITLE:アドレナリン;
#SUBTITLE:;
#ARTIST:U1 overground;
#TITLETRANSLIT:Adrenaline;
#SUBTITLETRANSLIT:;
#ARTISTTRANSLIT:;
#GENRE:;
#CREDIT:;
#MUSIC:Adrenaline.ogg;
#BANNER:Adrenaline.png;
#BACKGROUND:Adrenaline-bg.png;
#CDTITLE:;
#SAMPLESTART:29.125;
#SAMPLELENGTH:15.000;
#SELECTABLE:YES;
#OFFSET:0.000;
#BPMS:0.000=140.000;
#STOPS:96.000=1.286
,221.000=1.286
;
#BGCHANGES:;
#FGCHANGES:;

//--------------- dance-single - forcednature ----------------
#NOTES:
     dance-single:
     forcednature:
     Beginner:
     4:
     0,0,0,0,0:
0000
0000
0000
0000
,
0000
0000
0000
0000
,
0000
0000
0000
0000
,
0000
0000
0000
0000
,
0000
0000
0000
0000
,
1000
1000
1000
0000
,
0001
0100
0001
0000
,
0010
0100
0010
0000
,
0001
1000
0001
0000
,
1001
0000
0000
0000
,
1000
0000
0010
0000
,
0100
0000
0100
0000
,
0001
0001
0010
0000
,
1001
0000
0000
0000
,
0001
0000
1000
0000
,
0110
0000
0000
0000
,
0001
0000
1000
0000
,
1001
0000
0001
0000
,
0100
0000
0001
0000
,
0010
0000
0010
0000
,
0100
0000
0000
0000
,
1001
0000
1000
0000
,
0010
0000
1000
0000
,
0100
0000
0100
0000
,
0020
0030
0000
0000
0000
0000
0000
0000
0000
0000
0000
0000
0110
0000
0000
0000
,
0000
0100
0000
1000
,
0000
0000
0000
1001
,
0000
0001
0000
0100
,
0000
0010
0000
0010
,
0000
1000
0000
0001
,
0000
0010
0000
0010
,
0000
0001
0000
1000
,
0000
1001
0000
0001
,
0000
0100
0000
0001
,
0000
1000
0000
0100
,
0000
1000
0000
0000
,
0000
1001
0000
0001
,
0000
0010
0000
0001
,
0000
0100
0000
0010
,
0000
1000
0000
0001
,
0001
0001
0000
1000
,
0000
0100
0100
0100
,
0000
0110
0000
0010
,
0000
0001
0000
1000
,
0000
0010
0000
0100
,
0000
0001
0001
0001
,
0000
1000
0000
0100
,
0000
0010
0010
0010
,
0000
0110
0000
1000
,
0000
0001
0000
0100
,
0000
0010
1000
0010
,
0000
0100
0001
0100
,
0000
1001
0000
1000
,
0100
1000
0000
0001
,
0010
0001
0001
1000
,
1000
0000
0000
0000
0020
0030
0000
0000
0000
0000
0000
0000
0000
0000
0000
0000
;

//--------------- dance-single - forcednature ----------------
#NOTES:
     dance-single:
     forcednature:
     Easy:
     7:
     0,0,0,0,0:
0000
0000
0000
0000
,
0000
0000
0000
0000
,
0000
0000
0000
0000
,
0000
0000
0000
0000
,
0000
0000
0000
0000
,
1001
0000
0001
0000
0100
0000
0010
1000
,
0001
0000
1000
0000
0100
0000
0010
0001
,
1000
0000
0001
0000
0100
0000
0010
1000
,
0001
0000
0010
0000
0100
1000
0100
0000
,
0110
0010
0001
1000
,
0010
0100
0002
2003
,
3200
0301
0200
1300
,
0100
0010
0100
0010
0002
0000
1003
0000
,
1001
0001
0100
0010
,
1000
0001
0020
0000
,
0130
1000
0001
1000
,
0002
0100
2003
3010
,
0100
1001
0001
0010
,
0100
1001
1000
0010
,
0100
0001
0100
0000
0010
0000
1000
0000
,
0100
1000
0100
0000
0010
0000
0001
0000
,
0100
1001
1000
0010
,
0100
1001
0001
0010
,
0100
0000
0000
1000
0000
0000
0100
0000
0000
1000
0000
0000
0100
0000
0000
0000
,
0020
0030
0000
0000
0001
0000
0000
0000
0001
0000
0000
0000
0101
0000
0000
0000
,
1000
0020
0000
0230
,
0302
1003
1000
1100
,
0001
0020
0000
0130
,
0100
2000
0000
3001
,
0001
0000
0100
0000
0010
1000
0010
0000
,
0100
0002
0000
1003
,
1000
0000
0001
0000
0010
0100
0020
0000
,
0032
1003
1010
0001
,
0101
1000
1100
0001
,
0011
0100
0101
0010
,
1010
0000
0000
0100
0000
0000
0110
0000
0000
0001
1000
0001
,
1000
0100
0011
0001
,
1000
0100
1010
1000
,
0001
0020
0000
0130
,
0001
0100
1000
0010
,
0010
0200
0000
1300
,
0100
0001
0001
0020
,
0230
1300
0011
0001
,
1000
0010
1010
1000
,
0001
0200
0000
0301
,
0010
0000
0100
2000
0000
3010
2000
0000
,
3100
0020
0000
0031
,
0100
0000
0010
1000
0010
1000
0002
0000
,
0023
0000
0130
0000
1001
0000
1000
0001
,
0100
0000
0010
0000
1001
0000
0001
1000
,
0100
0000
0000
0000
0010
0000
0000
0001
0000
0000
0010
0000
0000
0001
0000
0000
,
0010
0000
0000
0000
0100
0000
0000
1000
0000
0000
0100
0000
0000
1000
0000
0000
,
0100
0000
0110
0000
0001
1000
0000
0001
,
0100
0000
0010
0000
1000
0001
0000
1000
,
0100
0000
0010
0001
1000
0000
0010
1000
,
0001
0000
0000
0000
0200
0300
0000
0000
0000
0000
0000
0000
0000
0000
0000
0000
;

//--------------- dance-single - forcednature ----------------
#NOTES:
     dance-single:
     forcednature:
     Medium:
     12:
     0,0,0,0,0:
0000
0000
0000
0000
,
0000
0000
0000
0000
,
0000
0000
0000
0000
,
0000
0000
0000
0000
,
0000
0000
0000
0000
,
0101
0000
0000
0000
1010
0000
0000
0000
0001
0000
0000
1000
0000
0000
0100
0000
,
0010
0000
0001
0000
0100
0000
0001
0000
1000
0000
0000
1000
0000
0000
0000
0000
,
0010
0000
1000
0000
0100
0000
1000
0000
0001
0000
0000
0001
0000
0000
0000
0000
,
0010
0000
0100
0000
1000
0000
0100
0000
0010
0001
0000
0001
0000
0000
0010
0000
,
2002
0000
3003
0000
0001
0100
1000
0000
,
0100
0010
1000
0001
0020
0000
0230
0000
,
2300
0000
3010
0100
2000
0000
3100
0001
,
1000
0010
1000
0010
0200
0000
0301
0001
,
2002
0000
3003
0000
1000
0100
0001
0000
,
0100
0010
0001
1000
0020
0000
0000
0000
,
0230
0000
0301
1000
0100
0000
0010
0001
,
1000
0000
0010
0000
0100
0000
0000
0100
0002
0000
0000
0000
0023
0000
0000
0000
,
0130
0000
1000
0000
1100
0000
0000
0000
1000
0000
0000
0010
0000
0000
0100
0000
,
0001
0000
0100
0000
0101
0000
0000
0000
0001
0000
0000
1000
0000
0000
0100
0000
,
0010
0001
0000
0000
0010
0000
0100
1000
0000
0000
0100
0000
0000
0000
0010
0000
,
0000
0001
0000
0000
0100
0000
0000
0010
0000
0000
1000
0000
0001
0000
1000
0000
,
0100
0000
0010
0000
0011
0000
0000
0000
0001
0000
0000
1000
0000
0000
0001
0000
,
0100
0000
0010
0000
1010
0000
0000
0000
0001
0000
0000
1000
0000
0000
0001
0000
,
0020
0000
0000
0100
0000
0000
1000
0000
0000
0100
0000
0000
0031
0000
0000
0000
,
2000
0000
0000
3000
0000
0000
0000
0000
0000
0000
0000
0000
0001
0000
0000
0000
0000
0000
0000
0000
0000
0000
0000
0000
0001
0000
0000
0000
0000
0000
0000
0000
0000
0000
0000
0000
1000
0000
0000
0000
0010
0000
0000
0000
1000
0000
0000
0000
,
0001
0100
0001
0020
0000
0000
0000
0000
0000
0230
0000
0000
,
1300
0001
1000
0010
0000
0000
0010
0000
0000
1000
0100
1000
,
0001
0010
0001
0200
0000
0000
0000
0000
0000
0310
1000
0010
,
1000
0010
1000
0002
0000
0000
0000
0000
0013
0100
0010
0100
,
0010
0000
0002
0000
1003
0001
0100
0100
,
0020
0000
0000
2030
0000
0000
0000
0000
3010
0100
0010
0100
,
0010
0000
2000
0000
3001
1000
0200
0000
,
0310
0000
0000
0110
0000
0000
1001
0000
0000
1000
0100
1000
,
0100
0000
0000
0010
0001
0010
0001
0000
0000
1000
0010
0100
,
0001
0000
0000
0110
0000
0000
0110
0000
0000
0001
0010
0001
,
0010
0000
0000
0100
1000
0100
1000
0000
0000
0001
0100
0010
,
1000
0000
0000
0000
0001
0000
0100
0000
0101
0000
0000
0000
0001
0000
0000
1000
,
0000
0000
0010
0000
1000
0000
0100
0000
1100
0000
0000
0000
1000
0000
0000
0001
,
0000
0000
0000
0010
0000
0000
0002
0000
0000
0000
0000
0000
0000
0000
0000
0000
0103
0000
0010
0000
0100
0000
0010
0000
,
0100
0000
0000
0001
1000
0001
1000
0000
0000
0020
0000
0000
,
0130
0000
0000
0010
0000
0000
2000
0000
0000
0000
0000
0000
0000
0000
0000
0000
3100
0000
0010
0000
0100
0000
0010
0000
,
0100
0000
2000
0000
3001
1000
0020
0000
,
0130
0000
0001
0000
1000
0000
0100
0000
1100
0000
0000
0000
1000
0000
0000
0001
,
0000
0000
0010
0000
0001
0000
0100
0000
0101
0000
0000
0000
0001
0000
0000
1000
,
0000
0000
0000
0010
0000
0000
2000
0000
0000
0000
0000
0000
0000
0000
0000
0000
3010
0000
0100
0000
0010
0000
0100
0000
,
0010
0000
1000
0002
0000
0103
0020
0000
,
1030
0000
0000
1000
0000
0000
0002
0000
0000
0000
0000
0000
0000
0000
0000
0000
0013
0000
0100
0000
0010
0000
0100
0000
,
0010
0000
0001
0001
0001
0001
2000
0000
,
3020
0000
0000
0000
0130
0000
0001
0000
0100
0000
1000
0000
0100
0000
0000
0001
,
0000
0000
0010
0000
0100
0000
0001
0000
0100
0000
1000
0000
0100
0010
0000
0001
,
0000
0000
1000
0000
0001
0100
0000
0001
0100
0000
0010
1000
0000
0010
1000
0000
,
0001
0000
0001
0000
1000
0100
0000
1000
0100
0000
0010
0001
0000
0010
0001
0000
,
1000
0000
0001
0000
1000
0100
1000
0000
0010
0000
1000
0100
1000
0000
0010
0000
,
1000
0001
1000
0000
0001
0100
0001
0000
0010
0000
0001
0100
0001
0000
0010
0000
,
0001
1000
0001
0000
0100
0010
0000
1000
0001
0000
0010
0100
0000
1000
0001
0000
,
0100
0001
0000
1000
0200
0300
0000
0000
0000
0000
0000
0000
0000
0000
0000
0000
;

//--------------- dance-single - forcednature ----------------
#NOTES:
     dance-single:
     forcednature:
     Hard:
     14:
     0,0,0,0,0:
0000
0000
0000
0000
,
0000
0000
0000
0000
,
0000
0000
0000
0000
,
0000
0000
0000
0000
,
0000
0000
0000
0000
,
1100
0000
0000
0000
1100
0000
0000
0000
1000
0000
0000
1000
0100
0000
0010
0000
,
0001
0100
0001
0000
0100
0001
0100
0000
0010
0000
0000
1000
0000
0000
0001
0000
,
1000
0100
1000
0000
0010
0000
0100
0000
0001
0000
0000
0010
0000
0000
0100
0000
,
1000
0010
1000
0000
0001
0010
0001
0000
0100
0010
0000
0010
0000
0010
1000
0000
,
0101
0000
0000
0001
0010
0000
0100
0000
1000
0000
0000
1000
0001
0000
0100
0000
,
0010
0001
0010
1000
0200
0000
0320
0000
,
0032
0100
1003
0001
2000
0010
3001
1000
,
0100
0000
0100
0000
0100
0000
0100
0000
0020
0000
0000
0000
0031
1000
0001
1000
,
0010
0000
0000
0010
0100
0000
0001
0000
1000
0000
0000
1000
0100
0000
0010
0001
,
0010
0000
0000
0100
0000
0000
1000
0000
0000
0001
0000
0000
0100
0000
0001
0000
1000
0000
0010
0000
1000
0000
0001
0000
,
0010
0000
0000
0010
0100
0000
1000
0000
0001
0000
0000
0001
0100
0000
0010
1000
,
0020
0000
0100
0000
1030
0010
0000
0100
0002
0000
0000
0000
0013
0100
0010
0100
,
1000
0000
0001
1000
0010
0000
0100
0001
1000
0100
0000
0010
0000
0001
1000
0000
,
0010
0000
0100
0001
1000
0000
0100
0010
0001
0010
0000
0100
0000
1000
0010
0000
,
1000
0100
0000
0100
0001
0000
0001
0100
0000
0100
1000
0000
0010
0000
1000
0000
,
0001
0100
0000
0100
1000
0000
1000
0100
0000
0100
0001
0000
0010
0100
0010
0000
,
0001
0000
1000
0010
0100
0000
0001
0010
0100
1000
0000
0001
0000
0100
0010
0000
,
1000
0000
0100
0010
0100
0000
1000
0001
0100
0001
0000
1000
0000
0010
1000
0000
,
0001
0010
0000
0100
0010
0000
1000
0010
0000
0100
0010
0000
0001
0010
0100
1000
,
0020
0000
0000
0030
0000
0000
0000
0000
0000
0000
0000
0000
0200
0000
0000
0000
0000
0000
0000
0000
0300
0000
0000
0000
0200
0000
0000
0000
0000
0000
0000
0000
0300
0000
0000
0000
0001
0000
0000
0000
0010
0000
0000
0000
0001
0000
0000
0000
,
0100
0000
0000
0000
0010
0000
0000
0000
1000
0000
0000
0000
0200
0000
0000
0000
0000
0000
0000
0000
0000
0000
0000
0000
0000
0000
0000
0000
0000
0000
0310
0000
0000
0001
0000
0000
2000
0000
0000
0000
0000
0000
0000
0000
0000
0000
0000
0000
,
3010
0100
0001
0200
0000
0300
0200
0000
0300
0001
1000
0100
,
0010
0000
0000
0000
0001
0000
0000
0000
0100
0000
0000
0000
0020
0000
0000
0000
0000
0000
0000
0000
0000
0000
0000
0000
0000
0000
0000
0000
0000
0000
1030
0000
0000
0010
0000
0000
0100
0000
0000
0000
0001
0000
0000
0000
1000
0000
0000
0000
,
0100
1000
0001
0020
0000
0000
0000
0000
1030
0010
0001
0010
,
0100
0000
0000
0000
2000
0000
3000
0000
1000
0000
1000
0010
0100
0000
0001
0000
,
2000
0000
0000
3020
0000
0000
0000
0000
0031
0010
1000
0010
,
0100
0000
0000
0000
0002
0000
0003
0000
0001
0000
0001
0010
0200
0000
0000
0000
,
2300
0000
0000
3010
0000
0000
1010
0000
0000
1000
0001
0010
,
0001
1000
0010
0100
0001
0010
1000
0010
0001
0100
1000
0001
,
0010
1000
0001
0010
0000
0000
0011
0000
0000
0001
1000
0010
,
1000
0001
0010
0100
1000
0010
0001
0010
1000
0001
0100
0100
,
1000
0000
0000
0000
0110
0000
0001
1000
0100
0000
0010
0001
1000
0010
0000
0100
,
0000
0001
1000
0000
0100
0000
1000
0010
0100
0000
0001
1000
0100
0010
0000
0001
,
0000
0000
0000
1000
0000
0000
0010
0000
0000
0000
0000
0000
0200
0000
0000
0000
0000
0000
0000
0000
0000
0000
0000
0000
0000
0000
0000
0000
0000
0000
0000
0000
1300
0000
0000
0000
0100
0000
0000
0000
0001
0000
0000
0000
0100
0000
0000
0000
,
0010
0000
0000
0000
0000
0000
0000
0000
0000
0000
0000
0000
0001
0000
0000
0000
0010
0000
0000
0000
1000
0000
0000
0000
0010
0000
0000
0000
0000
0000
0100
0000
0000
0001
0000
0000
2000
0000
0000
0000
0000
0000
3000
0000
0000
0000
0000
0000
,
1000
0000
0000
1000
0000
0000
0200
0000
0000
0000
0000
0000
0000
0000
0000
0000
0301
0000
0100
0000
1000
0000
0100
0000
,
0010
0000
0000
0000
0002
0000
0003
0000
0001
0000
0001
0100
0020
0000
0000
0000
,
1030
0000
1000
0000
1001
0000
0001
0010
0100
0000
1000
0001
0100
0010
0000
1000
,
0000
0001
0010
0000
0100
0000
1000
0001
0100
0000
0010
1000
0100
1000
0000
0010
,
0000
0000
0000
0100
0000
0000
0001
0000
0000
0000
0000
0000
0020
0000
0000
0000
0000
0000
0000
0000
0000
0000
0000
0000
0000
0000
0000
0000
0000
0000
0000
0000
1030
0000
0000
0000
0010
0000
0000
0000
0001
0000
0000
0000
0010
0000
0000
0000
,
0100
0000
0000
0000
2000
0000
3020
0000
0000
0000
0031
0010
0200
0000
0000
0000
,
0301
0000
0000
1000
0000
0000
0200
0000
0000
0000
0000
0000
0000
0000
0000
0000
0301
0000
0100
0000
1000
0000
0100
0000
,
0010
0000
0000
0000
0001
0000
0001
0000
0001
0000
0001
0100
0020
0000
0000
0000
,
2030
0000
0000
0000
3001
0000
0010
0100
1000
0000
0001
0100
0010
1000
0000
0100
,
0000
0010
0100
0000
1000
0000
0010
1000
0001
0000
0010
0001
1000
0001
0100
0010
,
0000
1000
0001
0000
0010
1000
0000
0010
0100
0000
0010
0001
0000
1000
0001
0000
,
0100
0010
1000
0000
0010
0001
0000
0010
0100
0000
0010
1000
0000
0001
1000
0000
,
0100
0010
0001
0000
1000
0010
0100
0001
0010
0000
0001
0010
0100
1000
0010
0000
,
0100
0001
1000
0000
0100
1000
0010
1000
0001
0000
0100
0001
0010
0001
1000
0000
,
0100
0010
0001
0000
1000
0010
0100
0001
1000
0001
0010
0100
0000
0100
1000
0001
,
1000
0010
0100
0001
0020
0030
0000
0000
0000
0000
0000
0000
0000
0000
0000
0000
;

//--------------- dance-double - forcednature ----------------
#NOTES:
     dance-double:
     forcednature:
     Easy:
     7:
     0,0,0,0,0:
00000000
00000000
00000000
00000000
,
00000000
00000000
00000000
00000000
,
00000000
00000000
00000000
00000000
,
00000000
00000000
00000000
00000000
,
00000000
00000000
00000000
00000000
,
00011000
00000000
00010000
00000000
00000100
00000000
00001000
00000001
,
00001000
00000000
00000010
00000000
00010000
00000000
00001000
00010000
,
00001000
00000000
01000000
00000000
00010000
00000000
00100000
01000000
,
00100000
00000000
00010000
00000000
10000000
00010000
10000000
00000000
,
10010000
00010000
01000000
00001000
,
00010000
00000100
00002000
00003002
,
00000203
00001300
00000200
00000301
,
00000010
00000100
00000010
00000100
00020000
00000000
00031000
00000000
,
00011000
00001000
01000000
00010000
,
00100000
01000000
20000000
00000000
,
30100000
01000000
00010000
00100000
,
00002000
01000000
00023000
00030100
,
00010000
00011000
00001000
00000010
,
00000100
00000110
00000010
00000001
,
00000100
00000001
00000100
00000000
00001000
00000000
00010000
00000000
,
00001000
00100000
00001000
00000000
01000000
00000000
00010000
00000000
,
10000000
10010000
00010000
00100000
,
00001000
00011000
00010000
00000010
,
00001000
00000000
00000000
00000100
00000000
00000000
00001000
00000000
00000000
00000100
00000000
00000000
00001000
00000000
00000000
00000000
,
00000020
00000030
00000000
00000000
00000100
00000000
00000000
00000000
00000100
00000000
00000000
00000000
00000101
00000000
00000000
00000000
,
00000001
00002000
00000000
00003200
,
00020300
00031000
00001000
01001000
,
01000000
00020000
00000000
00130000
,
00100000
02000000
00000000
13000000
,
10000000
00000000
00010000
00000000
01000000
00001000
01000000
00000000
,
00010000
00200000
00000000
00301000
,
00001000
00000000
00010000
00000000
00000010
00001000
00000020
00000000
,
00000230
00000301
00000011
00001000
,
00001100
00010000
00011000
01000000
,
01010000
00100000
10100000
00010000
,
01010000
00000000
00000000
00001000
00000000
00000000
00011000
00000000
00000000
00000100
00000000
00000100
,
00001000
00000001
00000101
00000100
,
00000010
00010000
00011000
00001000
,
00100000
00020000
00000000
01030000
,
10000000
01000000
00010000
00100000
,
00100000
00002000
00000000
00013000
,
00001000
00000100
00000100
00000002
,
00002003
00003100
00000110
00000010
,
00000001
00000100
00000110
00000010
,
00001000
00020000
00000000
01030000
,
00010000
00000000
00100000
02000000
00000000
13000000
02000000
00000000
,
03100000
00020000
00000000
01030000
,
00001000
00000000
00010000
00000100
00010000
00000100
00002000
00000000
,
00003002
00000000
00000103
00000000
00000110
00000000
00000010
00001000
,
00000100
00000000
00010000
00000000
00011000
00000000
00001000
00100000
,
00010000
00000000
00000000
00000000
01000000
00000000
00000000
00010000
00000000
00000000
01000000
00000000
00000000
00010000
00000000
00000000
,
01000000
00000000
00000000
00000000
00001000
00000000
00000000
00010000
00000000
00000000
00001000
00000000
00000000
00010000
00000000
00000000
,
00001000
00000000
00000100
00000000
00000001
00001000
00000000
00000001
,
00000010
00000000
00000100
00000000
00010000
00000010
00000000
00010000
,
00001000
00000000
01000000
00010000
00100000
00000000
01000000
10000000
,
00100000
00000000
00000000
00000000
02000000
03000000
00000000
00000000
00000000
00000000
00000000
00000000
00000000
00000000
00000000
00000000
;

//--------------- dance-double - forcednature ----------------
#NOTES:
     dance-double:
     forcednature:
     Medium:
     12:
     0,0,0,0,0:
00000000
00000000
00000000
00000000
,
00000000
00000000
00000000
00000000
,
00000000
00000000
00000000
00000000
,
00000000
00000000
00000000
00000000
,
00000000
00000000
00000000
00000000
,
00010100
00000000
00000000
00000000
01001000
00000000
00000000
00000000
00001000
00000000
00000000
00010000
00000000
00000000
00100000
00000000
,
01000000
00000000
00010000
00000000
10000000
00000000
00000000
00000000
01000000
00000000
00000000
01000000
00000000
00000000
00000000
00000000
,
00100000
00000000
00001000
00000000
00010000
00000000
00000000
00000000
00000010
00000000
00000000
00000010
00000000
00000000
00000000
00000000
,
00000100
00000000
00000001
00000000
00000010
00000000
00000001
00000000
00000000
00000100
00000000
00000100
00000000
00000000
00001000
00000000
,
00022000
00000000
00033000
00000000
01000000
00010000
00100000
00000000
,
01000000
10000000
01000000
00010000
00002000
00000000
00003020
00000000
,
00000230
00000000
00001300
00000001
00000200
00000000
00001300
00010000
,
00001000
01000000
00010000
01000000
00200000
00000000
10300000
10000000
,
20020000
00000000
30030000
00000000
10000000
01000000
00010000
00000000
,
00001000
00100000
00010000
01000000
00002000
00000000
00000000
00000000
,
00023000
00000000
00030100
00001000
00000010
00000000
00010000
00001000
,
00000010
00000000
00000100
00000000
00001000
00000000
00000000
00001000
00000002
00000000
00000000
00000000
00000203
00000000
00000000
00000000
,
00000310
00000000
00010000
00000000
00010010
00000000
00000000
00000000
00001000
00000000
00000000
01000000
00000000
00000000
00010000
00000000
,
00100000
00000000
00001000
00000000
00101000
00000000
00000000
00000000
00010000
00000000
00000000
00000100
00000000
00000000
00001000
00000000
,
00000001
00000100
00000000
00000000
00001000
00000000
00000000
00010000
00000000
00000000
00100000
00000000
00000000
00000000
01000000
00000000
,
00000000
00010000
00000000
00000000
10000000
00000000
00000000
00010000
00000000
00000000
00100000
00000000
01000000
00000000
10000000
00000000
,
01000000
00000000
00100000
00000000
00101000
00000000
00000000
00000000
00001000
00000000
00000000
00010000
00000000
00000000
00000010
00000000
,
00000100
00000000
00000010
00000000
00010010
00000000
00000000
00000000
00010000
00000000
00000000
00001000
00000000
00000000
00100000
00000000
,
02000000
00000000
00000000
10000000
00000000
00000000
00100000
00000000
00000000
00010000
00000000
00000000
03100000
00000000
00000000
00000000
,
20020000
00000000
00000000
30030000
00000000
00000000
00000000
00000000
00000000
00000000
00000000
00000000
00010000
00000000
00000000
00000000
00000000
00000000
00000000
00000000
00000000
00000000
00000000
00000000
00010000
00000000
00000000
00000000
00000000
00000000
00000000
00000000
00000000
00000000
00000000
00000000
01000000
00000000
00000000
00000000
00001000
00000000
00000000
00000000
00010000
00000000
00000000
00000000
,
00000010
00010000
00001000
00200000
00000000
00000000
00000000
00000000
00000000
00320000
00000000
00000000
,
01030000
00010000
01000000
00001000
00000000
00000000
00001000
00000000
00000000
00010000
00000100
00001000
,
00000100
00000010
00000001
00002000
00000000
00000000
00000000
00000000
00000000
00003010
00010000
00000010
,
00010000
00000010
00010000
00002000
00000000
00000000
00000000
00000000
00103000
00010000
00100000
00010000
,
00100000
00000000
02000000
00000000
13000000
00010000
01000000
01000000
,
00002000
00000000
00000000
00023000
00000000
00000000
00000000
00000000
00030100
00001000
00000100
00001000
,
00000100
00000000
00000020
00000000
00000031
00001000
00000020
00000000
,
00010030
00000000
00000000
00011000
00000000
00000000
01001000
00000000
00000000
00100000
10000000
00100000
,
10000000
00000000
00000000
00010000
00100000
00010000
00100000
00000000
00000000
00001000
00010000
00000100
,
00001000
00000000
00000000
00000110
00000000
00000000
00000110
00000000
00000000
00000001
00000010
00000100
,
00001000
00000000
00000000
00000010
00010000
00001000
01000000
00000000
00000000
00010000
00100000
00010000
,
01000000
00000000
00000000
00000000
00100000
00000000
01000000
00000000
01100000
00000000
00000000
00000000
01000000
00000000
00000000
00010000
,
00000000
00000000
00100000
00000000
00001000
00000000
00010000
00000000
00011000
00000000
00000000
00000000
00001000
00000000
00000000
00010000
,
00000000
00000000
00000000
00000100
00000000
00000000
00002000
00000000
00000000
00000000
00000000
00000000
00000000
00000000
00000000
00003000
00000001
00000000
00000100
00000000
00000001
00000000
00000100
00000000
,
00000001
00000000
00000000
00001000
00000100
00001000
00000100
00000000
00000000
00020000
00000000
00000000
,
00031000
00000000
00000000
01000000
00000000
00000000
00020000
00000000
00000000
00000000
00000000
00000000
00000000
00000000
00000000
00000000
00130000
00000000
01000000
00000000
00100000
00000000
01000000
00000000
,
00100000
00000000
00002000
00000000
00013000
00000010
00002000
00000000
,
00003100
00000000
00000010
00000000
00000001
00000000
00000100
00000000
00000101
00000000
00000000
00000000
00001000
00000000
00000000
00000010
,
00000000
00000000
00010000
00000000
00001000
00000000
00100000
00000000
00101000
00000000
00000000
00000000
00100000
00000000
00000000
00001000
,
00000000
00000000
00000000
00010000
00000000
00000000
00000020
00000000
00000000
00000000
00000000
00000000
00000000
00000000
00000000
00000000
00000130
00000000
00000001
00000000
00000100
00000000
00000001
00000000
,
00000100
00000000
00001000
00020000
00000000
00031000
00020000
00000000
,
00130000
00000000
00000000
00100000
00000000
00000000
02000000
00000000
00000000
00000000
00000000
00000000
00000000
00000000
00000000
00000000
03010000
00000000
10000000
00000000
00010000
00000000
10000000
00000000
,
00010000
00000000
00100000
00100000
00100000
00100000
00002000
00000000
,
00023000
00000000
00000000
00000000
00030010
00000000
00010000
00000000
00000010
00000000
00001000
00000000
00000100
00000000
00000000
00000010
,
00000000
00000000
00000001
00000000
00000100
00000000
00000010
00000000
00000100
00000000
00001000
00000000
00010000
00001000
00000000
01000000
,
00000000
00000000
00010000
00000000
10000000
01000000
00000000
01000000
00100000
00000000
00100000
00001000
00000000
00001000
00010000
00000000
,
00000010
00000000
00000010
00000000
00001000
00000100
00000000
00000100
00010000
00000000
00010000
00001000
00000000
00001000
01000000
00000000
,
00010000
00000000
10000000
00000000
01000000
00000000
00010000
00001000
00010000
00000000
01000000
00000000
00010000
00001000
00010000
00000000
,
00000010
00000000
00000010
00000000
00000100
00000000
00001000
00010000
00001000
00000000
00000100
00000000
00001000
00010000
00001000
00000000
,
00100000
00000000
00100000
00000000
01000000
00010000
00000000
00010000
00001000
00000000
00001000
00000100
00000000
00000100
00000001
00000000
,
00000001
00000010
00000000
00000010
00000200
00000300
00000000
00000000
00000000
00000000
00000000
00000000
00000000
00000000
00000000
00000000
;

//--------------- dance-double - forcednature ----------------
#NOTES:
     dance-double:
     forcednature:
     Hard:
     15:
     0,0,0,0,0:
00000000
00000000
00000000
00000000
,
00000000
00000000
00000000
00000000
,
00000000
00000000
00000000
00000000
,
00000000
00000000
00000000
00000000
,
00000000
00000000
00000000
00000000
,
00011000
00000000
00000000
00000000
00011000
00000000
00000000
00000000
00001000
00000000
00000000
00001000
00000010
00000000
00000001
00000000
,
00001000
00000100
00001000
00000000
00000100
00001000
00000100
00000000
00010000
00000000
00000000
00001000
00000000
00000000
00100000
00000000
,
00010000
01000000
00010000
00000000
00100000
00000000
00001000
00000000
00010000
00000000
00000000
00100000
00000000
00000000
10000000
00000000
,
00010000
01000000
00010000
00000000
10000000
01000000
10000000
00000000
00100000
01000000
00000000
01000000
00000000
01000000
00010000
00000000
,
10010000
00000000
00000000
10000000
01000000
00000000
00100000
00000000
00001000
00000000
00000000
00001000
00010000
00000000
00000010
00000000
,
00000100
00001000
00000100
00000001
00000020
00000000
00000230
00000000
,
00020300
00001000
00030010
00010000
00002000
00010000
00103000
00001000
,
01000000
00000000
01000000
00000000
01000000
00000000
01000000
00000000
00020000
00000000
00000000
00000000
00130000
01000000
00100000
01000000
,
10000000
00000000
00000000
10000000
00100000
00000000
01000000
00000000
00010000
00000000
00000000
00010000
00100000
00000000
00001000
00010000
,
00001000
00000000
00000000
00000100
00000000
00000000
00000010
00000000
00000000
00001000
00000000
00000000
00000001
00000000
00000010
00000000
00000100
00000000
00001000
00000000
00010000
00000000
00100000
00000000
,
01000000
00000000
00000000
01000000
10000000
00000000
00010000
00000000
00100000
00000000
00000000
00100000
00001000
00000000
00010000
00000010
,
00020000
00000000
00001000
00000000
00030100
00010000
00000000
00000010
00002000
00000000
00000000
00000000
00003001
00000010
00000001
00000010
,
00000100
00000000
00010000
00001000
01000000
00000000
00010000
00100000
01000000
00100000
00000000
00010000
00000000
10000000
00100000
00000000
,
01000000
00000000
00001000
00010000
00000100
00000000
00001000
00000100
00000010
00000100
00000000
00001000
00000000
00000001
00000100
00000000
,
00000010
00001000
00000000
00000010
00010000
00000000
00001000
01000000
00000000
00010000
01000000
00000000
00010000
00000000
00010000
00000000
,
00100000
00010000
00000000
00100000
00001000
00000000
00010000
00000100
00000000
00001000
00000100
00000000
00001000
00000001
00001000
00000000
,
00000010
00000000
00000100
00000001
00001000
00000000
00000100
00001000
00000100
00010000
00000000
00001000
00000000
01000000
00010000
00000000
,
00100000
00000000
01000000
10000000
00100000
00000000
01000000
00010000
01000000
00001000
00000000
00010000
00000000
00000100
00001000
00000000
,
00000001
00000100
00000000
00000010
00001000
00000000
00010000
01000000
00000000
00100000
10000000
00000000
01000000
10000000
01000000
00100000
,
00020000
00000000
00000000
00030000
00000000
00000000
00000000
00000000
00000000
00000000
00000000
00000000
02000000
00000000
00000000
00000000
00000000
00000000
00000000
00000000
03000000
00000000
00000000
00000000
02000000
00000000
00000000
00000000
00000000
00000000
00000000
00000000
03000000
00000000
00000000
00000000
00010000
00000000
00000000
00000000
00100000
00000000
00000000
00000000
01000000
00000000
00000000
00000000
,
00100000
00000000
00000000
00000000
00010000
00000000
00000000
00000000
00001000
00000000
00000000
00000000
00000200
00000000
00000000
00000000
00000000
00000000
00000000
00000000
00000000
00000000
00000000
00000000
00000000
00000000
00000000
00000000
00000000
00000000
00000310
00000000
00000000
00000001
00000000
00000000
00002000
00000000
00000000
00000000
00000000
00000000
00000000
00000000
00000000
00000000
00000000
00000000
,
00003010
00000010
00000010
00020000
00000000
00030000
00020000
00000000
00030000
00001000
00010000
01000000
,
00100000
00000000
00000000
00000000
00010000
00000000
00000000
00000000
01000000
00000000
00000000
00000000
00200000
00000000
00000000
00000000
00000000
00000000
00000000
00000000
00000000
00000000
00000000
00000000
00000000
00000000
00000000
00000000
00000000
00000000
10300000
00000000
00000000
00100000
00000000
00000000
10000000
00000000
00000000
00000000
01000000
00000000
00000000
00000000
00010000
00000000
00000000
00000000
,
00001000
00010000
01000000
00200000
00000000
00000000
00000000
00000000
00310000
00100000
00010000
00001000
,
00000100
00000000
00000000
00000000
00000020
00000000
00000030
00000000
00000010
00000000
00000010
00000001
00001000
00000000
00000100
00000000
,
00020000
00000000
00000000
00030020
00000000
00000000
00000000
00000000
00001030
00000010
00001000
00010000
,
01000000
00000000
00000000
00000000
00200000
00000000
00300000
00000000
00100000
00000000
00100000
10000000
02000000
00000000
00000000
00000000
,
03020000
00000000
00000000
00031000
00000000
00000000
00011000
00000000
00000000
00001000
00000100
00001000
,
00010000
01000000
00010000
00001000
00000010
00000100
00001000
00000010
00000100
00001000
00010000
01000000
,
00010000
00001000
00010000
00100000
00000000
00000000
00011000
00000000
00000000
00001000
00010000
00100000
,
00010000
00001000
00000010
00001000
00010000
01000000
00100000
00001000
00010000
00100000
10000000
00010000
,
00100000
00000000
00000000
00000000
01100000
00000000
01000000
10000000
00010000
00000000
00100000
00010000
00100000
00001000
00000000
00010000
,
00000000
00000010
00001000
00000000
00000100
00000000
00000010
00000001
00001000
00000000
00000010
00001000
00000010
00010000
00000000
00001000
,
00000000
00000000
00000000
00100000
00000000
00000000
00010000
00000000
00000000
00000000
00000000
00000000
02000000
00000000
00000000
00000000
00000000
00000000
00000000
00000000
00000000
00000000
00000000
00000000
00000000
00000000
00000000
00000000
00000000
00000000
00000000
00000000
13000000
00000000
00000000
00000000
01000000
00000000
00000000
00000000
00010000
00000000
00000000
00000000
00100000
00000000
00000000
00000000
,
00001000
00000000
00000000
00000000
00000000
00000000
00000000
00000000
00000000
00000000
00000000
00000000
00010000
00000000
00000000
00000000
00000010
00000000
00000000
00000000
00001000
00000000
00000000
00000000
00000100
00000000
00000000
00000000
00000000
00000000
00000010
00000000
00000000
00000001
00000000
00000000
00000200
00000000
00000000
00000000
00000000
00000000
00000300
00000000
00000000
00000000
00000000
00000000
,
00000010
00000000
00000000
00001000
00000000
00000000
00000200
00000000
00000000
00000000
00000000
00000000
00000000
00000000
00000000
00000000
00000301
00000000
00000100
00000000
00001000
00000000
00000010
00000000
,
00010000
00000000
00000000
00000000
00002000
00000000
00003000
00000000
00001000
00000000
00100000
00010000
02000000
00000000
03000000
00000000
,
00100000
00000000
00100000
00000000
10010000
00000000
10000000
00010000
00100000
00000000
00010000
01000000
00001000
00010000
00000000
00000100
,
00000000
00001000
00000010
00000000
00010000
00000000
00001000
00010000
00000100
00000000
00001000
00000010
00000100
00000010
00000000
00001000
,
00000000
00000000
00000000
00000001
00000000
00000000
00000010
00000000
00000000
00000000
00000000
00000000
00002000
00000000
00000000
00000000
00000000
00000000
00000000
00000000
00000000
00000000
00000000
00000000
00000000
00000000
00000000
00000000
00000000
00000000
00000000
00000000
00013000
00000000
00000000
00000000
00001000
00000000
00000000
00000000
00000100
00000000
00000000
00000000
00000001
00000000
00000000
00000000
,
00000010
00000000
00000000
00000000
00000200
00000000
00020300
00000000
00000000
00000000
00031000
00100000
00020000
00000000
00000000
00000000
,
01030000
00000000
00000000
00100000
00000000
00000000
00020000
00000000
00000000
00000000
00000000
00000000
00000000
00000000
00000000
00000000
00031000
00000000
00010000
00000000
01000000
00000000
10000000
00000000
,
00100000
00000000
00000000
00000000
01000000
00000000
01000000
00000000
01000000
00000000
01000000
00001000
00020000
00000000
00000000
00000000
,
00030200
00000000
00000000
00000000
00000310
00000000
00000100
00001000
00000001
00000000
00000100
00000010
00001000
00000100
00000000
00010000
,
00000000
00001000
01000000
00000000
00010000
00000000
00100000
01000000
10000000
00000000
00100000
10000000
01000000
00100000
00010000
00100000
,
00000000
00001000
00010000
00000000
00000010
00000100
00000000
00001000
00000100
00000000
00001000
00010000
00000000
00100000
00010000
00000000
,
00100000
01000000
00010000
00000000
10000000
01000000
00000000
00010000
01000000
00000000
00010000
00001000
00000000
00000010
00001000
00000000
,
00000010
00000001
00001000
00000000
00000010
00010000
00000100
00010000
00001000
00000000
00100000
00001000
01000000
00001000
00010000
00000000
,
00000100
00001000
00000010
00000000
00000100
00001000
00010000
00001000
00100000
00000000
01000000
00010000
00001000
00010000
00000010
00000000
,
00001000
00000100
00010000
00000000
00001000
01000000
00010000
00100000
00001000
00010000
00000100
00001000
00000000
00001000
00000010
00010000
,
00001000
00100000
00010000
01000000
00200000
00300000
00000000
00000000
00000000
00000000
00000000
00000000
00000000
00000000
00000000
00000000
;
