#VERSION:0.83;
#TITLE:ABC;
#SUBTITLE:feat. Sophia Black;
#ARTIST:Polyphia;
#TITLETRANSLIT:;
#SUBTITLETRANSLIT:;
#ARTISTTRANSLIT:;
#GENRE:;
#ORIGIN:;
#TAGS:;
#CREDIT:;
#BANNER:ABC.png;
#BACKGROUND:ABC-bg.png;
#PREVIEWVID:;
#JACKET:ABC-jacket.png;
#CDIMAGE:;
#DISCIMAGE:;
#LYRICSPATH:;
#CDTITLE:;
#MUSIC:ABC.ogg;
#OFFSET:1.709000;
#SAMPLESTART:34.291000;
#SAMPLELENGTH:13.715000;
#SELECTABLE:YES;
#BPMS:0.000000=140.000000
;
#STOPS:;
#DELAYS:;
#WARPS:;
#TIMESIGNATURES:0.000000=4=4
;
#TICKCOUNTS:0.000000=4
;
#COMBOS:0.000000=1
;
#SPEEDS:0.000000=1.000000=0.000000=0
;
#SCROLLS:0.000000=1.000000
;
#LABELS:0.000000=Song Start
;
#BGCHANGES:0.650=ABC.mp4=1.000=0=0=0=StretchNoLoop====,
99999.000=-nosongbg-=1.000=0=0=0 // don't automatically add -songbackground-;
#KEYSOUNDS:;
#ATTACKS:
;

//---------------dance-single - ----------------
#NOTEDATA:;
#CHARTNAME:;
#CHARTHASH:4167041024;
#STEPSTYPE:dance-single;
#BANNER:;
#DESCRIPTION:;
#CHARTSTYLE:;
#DIFFICULTY:Beginner;
#METER:3;
#METERF:3.000000;
#LASTSECONDHINT:117.005287;
#RADARVALUES:0.151857,0.294450,0.195592,0.501735,0.000000,125.000000,102.000000,23.000000,59.000000,0.000000,0.000000,0.000000,0.000000,0.000000,0.151857,0.294450,0.195592,0.501735,0.000000,125.000000,102.000000,23.000000,59.000000,0.000000,0.000000,0.000000,0.000000,0.000000;
#CREDIT:DJEmbrace;
#NOTES:
0000
0000
0000
0000
,
0000
0000
0000
0000
,
0000
0000
0000
0000
,
0000
0000
0000
0000
,
0000
0000
0000
0000
,
0001
0000
0000
0000
,
1000
0000
1000
0000
,
0002
0000
0003
0000
,
0020
0000
0030
0000
,
0110
0000
1000
1000
,
0000
0001
0002
0003
,
0000
0100
0200
0300
,
0000
0020
0030
0000
,
1001
0000
1000
0000
,
1001
0000
0001
0000
,
0010
0000
0100
0000
,
0010
0000
0100
0000
,
2002
0000
3003
0000
,
0001
0000
0100
0000
,
0020
0000
0030
0000
,
2000
0000
3000
0000
,
0001
0001
0000
0000
,
1000
0000
0100
0000
,
0010
0010
0000
0000
,
0100
0000
1000
0000
,
0010
0000
1000
0000
,
0002
0003
0001
0000
,
2000
0000
3000
0000
,
0200
0000
0300
0000
,
0020
0030
0000
0002
,
0003
0000
0200
0300
,
0000
0020
0030
0000
,
0200
0300
0100
0000
,
2002
3003
0000
0220
,
0330
0000
2002
3003
,
0000
0220
0330
0000
,
2002
3003
0000
0001
,
0002
0000
0003
0000
,
2000
0000
3000
0000
,
0200
0000
0300
0000
,
0020
0000
0030
0000
,
0002
0000
0003
0000
,
0200
0000
0300
0000
,
0010
0000
0010
0000
,
0020
0000
0030
0000
,
0110
0000
0002
0003
,
0002
0003
0001
0000
,
1001
0000
0010
0000
,
1001
0000
0100
0000
,
2002
0000
3003
0000
,
1000
1000
1000
0000
,
0002
0000
0003
0000
,
0020
0000
0030
0000
,
1001
0000
0100
0000
,
0010
0010
0000
0000
,
0110
0000
1000
0000
,
0002
0000
0003
0000
,
2000
0000
3000
0000
,
0100
0000
0010
0000
,
0200
0000
0300
0000
,
2000
0000
3000
0000
,
0002
0003
0000
0200
,
0300
0000
0010
0000
,
2000
3000
2000
3000
,
2000
3000
1000
0000
,
2002
3003
0000
0220
,
0330
0000
2002
3003
,
0000
0220
0330
0000
,
2002
3003
1001
0000
,
1001
1001
0000
0000
;

//---------------dance-single - ----------------
#NOTEDATA:;
#CHARTNAME:;
#CHARTHASH:110;
#STEPSTYPE:dance-single;
#BANNER:;
#DESCRIPTION:;
#CHARTSTYLE:;
#DIFFICULTY:Easy;
#METER:6;
#METERF:6.000000;
#LASTSECONDHINT:117.005287;
#RADARVALUES:0.291565,0.353340,0.170080,0.255119,0.000000,240.000000,220.000000,20.000000,30.000000,0.000000,0.000000,0.000000,0.000000,0.000000,0.291565,0.353340,0.170080,0.255119,0.000000,240.000000,220.000000,20.000000,30.000000,0.000000,0.000000,0.000000,0.000000,0.000000;
#CREDIT:DJEmbrace;
#NOTES:
0000
0000
0000
0000
,
0000
0000
0000
0000
,
0000
0000
0000
0000
,
0000
0000
0000
0000
,
0000
0000
0000
0001
,
0001
0000
0000
0100
0000
0000
0001
0000
,
1000
0000
0100
0000
,
0010
0010
0001
0001
,
1000
0010
0200
0300
,
2002
3003
0001
0001
,
0010
0100
1000
1000
,
0010
0100
0001
0001
,
1000
0001
0001
1000
,
1100
0100
0010
0001
,
1001
1000
0010
0100
,
0101
0001
1000
0010
,
1010
1000
1001
0000
,
0002
0000
1003
0000
,
2000
0000
3100
0000
,
0020
0000
0032
0000
,
0203
0000
0300
0010
,
1000
0010
1000
0000
0000
0000
0000
0000
,
0001
0100
0001
0000
1000
0000
0100
0000
,
0010
0001
0010
0000
0000
0000
0100
0000
,
1000
0100
1000
0000
0001
0000
0100
0000
,
0010
0000
0000
1000
0000
0000
0001
0000
,
1000
0000
0100
0000
,
0010
0010
0001
0001
,
0100
0010
1000
0000
,
1001
1001
0001
1000
,
1000
0100
0010
0010
,
0001
0100
0100
0010
,
1000
0100
0010
0110
,
1001
1001
1000
0001
,
0001
0100
0010
0010
,
1000
0100
0100
0010
,
0001
0100
0010
1001
,
2100
0000
0001
0000
,
3002
0000
1000
0000
,
0203
0000
0010
0000
,
0320
0000
1000
0000
,
2030
0000
0000
3001
0000
0000
1000
0000
,
0100
0000
0010
0001
,
0100
0100
0010
0010
,
1000
0100
0020
0030
,
0022
0000
0033
0000
1000
0000
0010
0100
,
0020
0000
0100
0000
,
2030
0000
0100
0000
,
3002
0000
0010
0000
,
2003
0000
0000
3001
0000
0000
0000
0000
,
1000
0010
0100
0001
,
0010
0010
0001
0001
,
0100
0010
2000
3100
,
2200
0300
3001
0000
,
2000
0000
0000
3010
0000
0000
1000
0000
,
0002
0000
0000
0103
0000
0001
0100
0000
,
0010
0000
1000
0000
0001
0010
0000
0000
,
0021
0000
0000
0031
0000
0000
1000
0000
,
0001
0100
0010
1000
,
0001
0001
0010
0010
,
0100
1000
0010
0100
,
1001
1001
1000
0001
,
0001
0010
0100
0100
,
2000
3010
0200
0310
,
2000
3100
0020
0031
,
1001
1001
0001
1000
,
1000
0010
0100
0100
,
0010
1000
1000
0100
,
0010
0001
0100
0010
,
0100
0001
1000
0000
0000
0000
0000
0000
;

//---------------dance-single - ----------------
#NOTEDATA:;
#CHARTNAME:;
#CHARTHASH:4232052736;
#STEPSTYPE:dance-single;
#BANNER:;
#DESCRIPTION:;
#CHARTSTYLE:;
#DIFFICULTY:Medium;
#METER:10;
#METERF:10.000000;
#LASTSECONDHINT:117.005287;
#RADARVALUES:0.485942,0.530011,0.238111,0.357167,0.063780,400.000000,372.000000,28.000000,42.000000,0.000000,0.000000,0.000000,0.000000,0.000000,0.485942,0.530011,0.238111,0.357167,0.063780,400.000000,372.000000,28.000000,42.000000,0.000000,0.000000,0.000000,0.000000,0.000000;
#CREDIT:DJEmbrace;
#NOTES:
0000
0000
0000
0000
,
0000
0000
0000
0000
,
0000
0000
0000
0000
,
0000
0000
0000
0000
,
0000
0000
0000
0000
0000
0000
0001
1000
,
0001
0000
0000
0100
0000
0000
0010
0000
,
1000
0000
0000
1000
0000
0000
0000
0000
0001
0000
0010
0000
0001
0000
0000
0000
,
1000
0001
0100
0010
1000
0001
0010
0100
,
1000
0001
0100
0001
1000
0000
0100
0000
,
0010
0001
0010
0000
0011
0000
1001
0000
,
0101
0000
1001
0000
1000
0100
0001
0100
,
1000
0000
1001
0000
0001
0100
1000
0100
,
0001
0000
1000
0010
0001
0010
1000
0000
,
0002
0010
1003
1001
,
2000
0010
3001
1001
,
0002
0000
0100
0000
1003
0000
1000
0100
,
2000
0100
3001
0100
,
0010
1000
0010
0100
0001
0000
0010
0001
,
0010
0100
1000
0000
0001
0100
0010
1000
,
0002
0000
0023
0000
,
0230
0000
0000
0000
0000
0000
0000
0000
0300
0000
0000
0000
2000
3000
0000
0000
,
1001
1001
1001
0000
0001
0100
0010
0100
,
0002
1000
1003
0000
0002
0000
0013
0100
,
2000
0001
3001
0000
1000
0000
0010
1000
,
0020
0100
0130
0000
0001
1000
0100
0010
,
0001
0000
0000
1001
0000
0000
1000
0010
,
1000
0000
0000
0001
0000
0100
0000
0000
0010
0000
1000
0000
0100
0000
0000
0000
,
0010
0100
1000
0010
0100
0010
1000
0001
,
0010
0100
1000
0001
0100
0000
0110
0000
,
0001
1000
0100
1000
0001
0000
0010
0100
,
1000
0001
1000
0000
0010
0100
0001
1000
,
0001
0000
1000
0100
0010
0001
1000
0000
,
0010
0100
0010
1000
0001
0000
1001
0000
,
1000
0100
0001
0100
1000
0000
0001
0010
,
1000
0010
0001
0000
1000
0010
0001
0010
,
1000
0000
0001
0100
1000
0100
0001
0000
,
0010
0100
1000
0010
0100
0000
0220
0330
,
2001
0000
0000
3100
0020
0000
0031
0100
,
0020
0000
1030
0000
0200
0000
1300
0001
,
2000
3010
0100
0001
,
0020
0000
0130
0000
0100
0010
0001
1000
,
0010
0000
0000
0100
0000
0000
0001
0000
0000
0000
0000
0000
1000
0000
1000
0000
,
0001
0000
0000
1000
0000
0000
0000
0000
0001
0000
0010
0000
0100
0000
0000
0000
,
1000
0001
0100
0010
0100
0001
1000
0100
,
0010
0001
1000
0010
0200
0000
0300
0000
,
0220
0000
0030
0000
0301
1000
0100
0010
,
2000
0000
3010
0001
2000
0000
3010
0100
,
0002
0000
1000
0000
0013
0000
0100
0010
,
0002
0000
1003
0000
0001
1000
0010
0100
,
0001
0000
0000
0101
0000
0000
1001
0000
0000
0000
0000
0000
1000
0000
0100
0000
,
0020
0032
2003
3200
,
0310
0001
1000
0010
0100
0001
1000
0100
,
1000
0001
0100
0010
2000
0000
3001
0000
,
1002
0000
0000
0000
0013
0001
0100
0001
,
0010
0000
0000
0100
0000
0000
1100
0000
0000
0000
1000
0000
0001
0000
0100
0000
,
0020
0000
0000
1030
0000
0000
1010
0000
0000
0000
0010
0000
1000
0000
0001
0000
,
2000
0000
0200
0000
0000
0000
0000
0000
3300
0000
0010
0001
0000
0000
0000
0000
,
1001
0000
0000
0110
0000
0000
1001
0000
0000
0000
0001
0000
0010
0000
0100
0000
,
0002
0203
2300
3010
,
1000
0010
0100
0010
1000
0100
0010
0001
,
0100
0001
0010
0100
2000
0000
3001
0000
,
1000
0010
0100
0010
1000
0000
0001
0010
,
0100
0010
0001
0000
1000
0100
0001
0100
,
1000
0000
0000
0001
0000
0000
1000
0000
0010
0000
0000
0100
0000
0000
0010
0000
,
1000
0000
0000
0100
0000
0000
0010
0000
0001
0000
0000
0100
0000
0000
0001
0000
,
1000
0010
0001
0010
1000
0000
0001
0100
,
1000
0100
0001
0000
1000
0100
0001
0100
,
1000
0000
0001
0010
1000
0010
0001
0000
,
1000
0010
0001
0010
0100
0000
0220
0330
,
1001
1001
1001
0000
0000
0000
0000
0000
;

//---------------dance-single - ----------------
#NOTEDATA:;
#CHARTNAME:;
#CHARTHASH:4270850048;
#STEPSTYPE:dance-single;
#BANNER:;
#DESCRIPTION:;
#CHARTSTYLE:;
#DIFFICULTY:Hard;
#METER:13;
#METERF:13.000000;
#LASTSECONDHINT:117.005287;
#RADARVALUES:0.615931,0.677236,0.374175,0.331655,0.314647,507.000000,463.000000,44.000000,39.000000,0.000000,0.000000,0.000000,0.000000,0.000000,0.615931,0.677236,0.374175,0.331655,0.314647,507.000000,463.000000,44.000000,39.000000,0.000000,0.000000,0.000000,0.000000,0.000000;
#CREDIT:DJEmbrace;
#NOTES:
0000
0000
0000
0000
,
0000
0000
0000
0000
,
0000
0000
0000
0000
,
0000
0000
0000
0000
,
0000
0000
0000
0000
0000
0000
0001
0010
,
0001
0000
0000
0000
0000
0000
0100
0000
0000
0000
0000
0000
0001
1000
0001
0000
,
1000
0000
0000
0100
0000
1000
0000
0000
0001
0000
0100
0000
0010
0000
0100
0000
,
0001
0001
1000
1000
0100
0100
0010
0010
,
0001
0001
0010
0001
0100
0000
0001
0000
,
1001
0000
1000
0000
0100
0000
0000
0100
0010
0000
0000
0010
0001
0000
0000
1000
,
0001
1000
0000
0000
1010
0000
0000
0000
0001
0100
0001
0100
0010
0000
1000
0000
,
0100
0000
0000
0000
1100
0000
0000
1000
0001
1000
0001
0000
0100
0000
0010
1000
,
0001
0000
0000
0000
1000
0001
0010
0000
0100
0000
0010
0000
0001
0000
0000
0000
,
1000
0000
0001
0100
0000
0100
0001
0000
1000
0000
0000
0000
0011
0000
0000
0000
,
0001
0000
0010
0100
0000
0100
0010
0000
0001
0000
0000
0000
1000
0000
0010
0000
,
0100
0000
0001
1000
0010
1000
0001
0000
0100
0000
0010
0000
1000
0000
0001
0000
,
0010
0000
0100
1000
0000
1000
0100
0000
0010
0000
0001
0000
1001
0000
1000
0000
,
0001
0100
0010
0000
1000
0000
0001
0000
0010
0000
0000
0000
0100
1000
0001
0000
,
1000
0000
0010
0000
0100
0000
0000
0000
0001
1000
0100
0000
0010
0000
0001
0000
,
0200
0000
0320
0000
,
2030
0000
0000
0000
0000
0000
0000
0000
3001
0000
0000
0000
0200
0300
0000
0000
,
0110
1010
1001
0000
0001
1000
0100
0010
,
0110
0011
1001
0000
2010
0000
3001
0010
,
0011
1001
1010
0000
0010
1000
0200
0300
,
1100
0110
0011
0000
0010
0100
1000
0001
,
1001
0000
1000
0000
0010
0000
0100
0000
0000
0000
0010
0000
1000
0001
1000
0000
,
0001
0000
0100
0010
0000
0100
0001
0000
1000
0001
1000
0001
0020
0000
0130
0000
,
1000
1000
0001
0001
0100
0100
0010
0010
,
1000
0000
0001
0000
1000
0100
1000
0100
1000
0000
0000
0000
1001
0000
0000
0000
,
0001
0010
0100
0100
1000
0000
0001
0100
,
0010
0010
1000
0000
1000
0100
0010
0010
,
0100
0100
1000
0010
0100
0100
0010
0000
,
0010
1000
0100
0010
0001
0000
0011
0000
,
1000
0010
0100
0001
0101
0000
1000
0100
,
0010
0001
1001
0000
1000
0100
1000
0010
,
1010
0000
0100
0001
0010
0001
0011
0000
,
1001
0001
0100
0010
0110
0000
2002
3003
,
2100
0000
0000
0000
0000
0000
0000
0000
3001
0000
0100
0001
0100
0000
0010
0000
,
2000
0000
0000
0000
3100
0000
0000
0010
0002
0000
0000
0000
1003
0000
0100
0000
,
0020
0000
0000
0000
0031
0000
0000
0000
0100
0000
0010
0000
1000
0000
0000
0001
,
2000
0000
3100
1000
0001
0010
0001
1000
,
0010
0000
0000
0100
0000
0000
0001
0000
0000
0000
0001
0000
1000
0001
1000
0000
,
0001
0000
0000
0010
0000
0100
0000
0010
0001
1000
0001
1000
0100
0000
0010
0000
,
0001
0100
0010
1000
0100
0010
0100
1000
,
0010
0100
0001
0010
0200
0000
0300
0000
,
2002
0000
0000
0000
3003
0000
0000
0000
1000
0010
0100
0000
0010
0000
1000
0000
,
1002
0000
0000
0000
0013
0000
0100
0000
1000
0000
1200
0000
0000
0000
1300
0001
,
0200
0000
0000
0310
1000
0010
1000
0000
0001
0000
0000
0000
1000
0000
0001
0000
,
0011
0000
0010
0001
0010
0001
1000
0000
0100
0000
1000
0000
0001
0100
0001
1000
,
0010
0000
0000
0110
0000
0000
1001
0000
0000
0000
1000
0000
0001
0010
0001
0000
,
0200
0302
0023
0230
,
1300
0000
1000
0000
0001
0000
0001
0000
0100
0000
0010
0000
1000
0001
1000
0000
,
0100
0000
0000
0000
0000
0000
0010
0000
0000
0000
0000
0000
0001
0000
0000
0010
0000
0000
0100
0000
0000
1000
0000
0000
0002
0000
0000
0000
0000
0000
0000
0000
0000
0000
0000
0000
1003
0000
0000
0000
0100
0000
0000
0000
1000
0000
0000
0000
,
0002
0000
0000
0000
1003
0010
0100
0001
,
1000
0000
0100
0010
0000
0100
1000
0000
0000
0000
0001
0100
0010
0000
0100
0010
,
2000
0000
0000
0001
0000
0000
3100
0000
0000
0000
0100
0000
1000
0000
0001
0000
,
0010
0000
0100
0000
2000
0000
0000
0000
3000
0000
0002
0200
0000
0303
0000
0000
,
0010
0000
1000
0100
0000
1000
0010
0000
0000
0000
0100
0000
0010
0100
0010
0100
,
0002
2003
3200
2300
,
3010
0010
0100
0100
0001
0001
0010
0010
,
0100
0000
0000
0100
0000
0000
1000
0000
0000
0001
0000
0000
0100
0000
0000
0000
0000
0000
0010
0000
1000
0000
0010
0000
,
0100
0001
1000
1000
0100
0000
0010
0100
,
1000
1000
0010
0000
0100
0001
0010
0010
,
0200
0000
0000
1300
0000
0000
0010
0000
2000
0000
0000
3100
0000
0000
0010
0000
,
0002
0000
0000
0103
0000
0000
0010
0000
1001
0000
0000
1000
0100
0000
1000
0000
,
0001
1000
0010
1000
1001
0000
0001
0010
,
0100
0010
0011
0000
1100
0100
1000
0001
,
0100
0100
0001
1000
0010
0100
0110
0010
,
1000
0001
0010
0100
0010
0000
2002
3003
,
1010
0101
1001
0000
0000
0000
0000
0000
;

//---------------dance-single - ----------------
#NOTEDATA:;
#CHARTNAME:;
#CHARTHASH:4127195136;
#STEPSTYPE:dance-single;
#BANNER:;
#DESCRIPTION:;
#CHARTSTYLE:;
#DIFFICULTY:Challenge;
#METER:17;
#METERF:17.000000;
#LASTSECONDHINT:117.005287;
#RADARVALUES:0.799374,0.942241,0.603783,0.459215,0.884414,658.000000,587.000000,71.000000,54.000000,86.000000,0.000000,0.000000,0.000000,0.000000,0.799374,0.942241,0.603783,0.459215,0.884414,658.000000,587.000000,71.000000,54.000000,86.000000,0.000000,0.000000,0.000000,0.000000;
#CREDIT:DJEmbrace;
#NOTES:
// measure 0
0000
0000
0000
0000
,  // measure 1
0000
0000
0000
0000
,  // measure 2
0000
0000
0000
0000
,  // measure 3
0000
0000
0000
0000
,  // measure 4
0000
0000
0000
0000
0000
0000
0001
0010
,  // measure 5
0002
0000
0003
0000
0000
0000
0200
0000
0300
0000
0000
0000
0010
1000
0010
0000
,  // measure 6
0100
0000
0000
0100
0000
0001
0000
0000
1000
0100
0010
0001
2000
0000
3100
0000
,  // measure 7
1000
0010
0100
0001
1000
0100
0001
0100
0010
0001
1000
0010
0100
1000
0100
0010
,  // measure 8
1000
0001
0010
0100
1000
0001
0100
0010
0002
0000
0003
0000
0020
0000
0030
0000
,  // measure 9
1010
0000
1000
0000
1000
0000
0000
0010
0100
0000
00M0
0100
1000
0000
00MM
1000
,  // measure 10
0010
0001
0000
0000
1100
0000
0000
0000
1000
0010
0100
1000
0001
0000
1000
0000
,  // measure 11
0100
0000
0000
0000
1001
0000
0000
0001
0010
0001
0010
0100
0001
1000
0001
0100
,  // measure 12
0010
0000
0000
0000
0001
0100
1000
00MM
1000
0000
0010
0000
0100
0000
0000
0000
,  // measure 13
0010
0000
1000
0001
0000
0001
0010
0000
0100
1000
0001
1000
0001
0100
0010
0000
,  // measure 14
0100
0000
0001
1000
0000
1000
0010
0000
0100
0001
1000
0001
1000
0100
0010
0000
,  // measure 15
1000
00MM
1000
0100
0010
0100
0001
MM00
0001
0000
0010
0000
0001
0000
0100
0000
,  // measure 16
1000
00MM
1000
0010
0100
0010
0001
MM00
0001
0100
0010
0000
1000
0001
0010
0000
,  // measure 17
0100
1000
0100
00M0
0100
0000
0010
0000
1000
0000
0000
0000
0010
1000
0010
0M00
,  // measure 18
0010
0000
0001
0000
1000
0000
0000
0000
0100
0010
0100
M000
0100
0000
0001
0000
,  // measure 19
0020
0000
0000
0000
0000
0000
0000
0000
0000
0000
0000
0000
0230
0000
0000
0000
0000
0000
0000
0000
0000
0000
1300
0001
,  // measure 20
0200
0000
0310
MMMM
,  // measure 21
1001
0000
0101
0000
0110
0000
0000
0000
0010
0000
1000
0000
0100
0010
0100
0000
,  // measure 22
0110
1100
1001
0000
0201
0000
0310
1000
,  // measure 23
M011
0110
1100
0001
0100
0010
1000
1000
,  // measure 24
1010
0110
0101
0000
0021
0130
0012
1003
,  // measure 25
1010
0000
0010
0000
0100
0000
0110
0000
0000
0000
1000
0000
0001
0010
0001
0000
,  // measure 26
1000
0000
0001
0010
0M00
0010
1000
0000
0001
0010
0100
0001
2000
0000
3010
0000
,  // measure 27
0001
1000
0001
0100
1000
0100
0010
1000
0001
0010
0100
0001
0100
1000
0001
0100
,  // measure 28
0010
0000
0001
0000
0010
0000
1000
0000
0001
0000
1000
0000
0100
0000
0010
0000
2000
0000
0000
0000
3010
0000
0001
0000
1000
0000
0000
0000
0001
0000
1000
0001
,  // measure 29
1000
0001
0010
0001
0100
0000
0001
1000
,  // measure 30
1010
1001
1100
0000
0011
1000
1001
0001
,  // measure 31
0101
1001
0011
0010
0001
1000
0100
0000
,  // measure 32
0110
1100
1001
0001
0101
0000
0022
0033
,  // measure 33
1002
0100
1000
0100
0013
0000
2000
3100
,  // measure 34
1001
1100
1010
0000
1002
0013
0210
0001
,  // measure 35
1300
1000
0001
0200
0010
1000
0301
0100
,  // measure 36
0110
1010
1001
0001
0011
0000
2200
3300
,  // measure 37
2001
0000
0000
0000
0000
0000
0000
0000
0000
0000
0000
0000
0000
0000
0000
0000
0000
0000
0000
0000
0000
0000
0000
0000
0000
0000
0000
0000
0000
0000
0000
0000
0000
0000
0000
0000
0000
0000
0000
0000
0000
0000
0000
0000
0000
0000
0000
0000
3000
0000
0000
0000
0000
0000
0000
0000
0000
0000
0000
0000
0000
0000
0000
0000
0000
0000
0000
0000
0000
0000
0000
0000
MMMM
0000
0000
0000
0000
0000
0000
0000
0000
0000
0000
0000
0000
0000
0000
0000
0000
0000
0000
0000
0000
0000
0000
0000
0010
0000
0000
0000
0000
0000
0000
0000
0000
0000
0000
0000
0001
0000
0000
0000
0000
0000
0000
0000
0000
0000
0000
0000
0010
0000
0000
0000
0000
0000
0000
0000
0001
0000
0000
0000
0000
0000
0000
0000
0010
0000
0000
0000
0000
0000
0000
0000
0100
0000
0000
0000
0000
0000
0000
0000
0000
0000
0000
0000
0000
0000
0000
0000
0000
0000
0000
0000
0000
0000
0000
0000
1000
0000
0000
0000
0000
0000
0000
0000
0000
0000
0000
0000
0000
0000
0000
0000
0000
0000
0100
0000
0000
0000
0000
0000
,  // measure 38
0010
0000
0000
0000
0000
0000
0002
0000
0000
0000
0000
0000
0000
0000
0000
0000
0000
0000
0000
0000
0000
0000
0000
0000
0013
0000
0000
0000
0000
0000
0000
0000
0001
0000
0000
0000
0000
0000
0000
0000
0010
0000
0000
0000
0000
0000
0000
0000
0100
0000
0000
0000
0000
0000
0000
0000
0000
0000
0000
0000
0000
0000
0000
0000
0000
0000
0000
0000
0000
0000
0000
0000
MMMM
0000
0000
0000
0000
0000
0000
0000
0000
0000
0000
0000
0000
0000
0000
0000
0000
0000
0001
0000
0000
0000
0000
0000
2000
0000
0000
0000
0000
0000
0000
0000
0000
0000
0000
0000
0000
0000
0000
0000
0000
0000
0000
0000
0000
0000
0000
0000
0000
0000
0000
0000
0000
0000
0000
0000
0000
0000
0000
0000
0000
0000
0000
0000
0000
0000
0000
0000
0000
0000
0000
0000
3010
0000
0000
0000
0000
0000
0000
0000
0000
0000
0000
0000
0000
0000
0000
0000
0000
0000
0000
0000
0000
0000
0000
0000
0100
0000
0000
0000
0000
0000
0000
0000
0000
0000
0000
0000
0000
0000
0000
0000
0000
0000
0000
0000
0000
0000
0000
0000
,  // measure 39
0102
0000
0000
0000
0000
0000
1003
0010
0100
0000
0000
0000
MMMM
0000
0000
0000
0100
0000
0000
0000
MMMM
0000
0000
0000
1000
0000
0000
0000
0000
0000
0000
0100
,  // measure 40
0010
0002
0000
0000
0000
0000
0013
0100
1000
0000
0000
0000
MMMM
0000
0000
0000
1000
0000
0000
0000
0010
0000
0000
0000
0001
0000
0000
0000
0010
0000
0000
0000
,  // measure 41
0120
0000
0000
0000
0000
1030
0001
0000
0000
0000
0000
0000
0100
0000
0000
0000
0000
0000
0000
0000
MMMM
0000
0000
0000
0100
M000
0100
M000
0100
0000
0000
0000
,  // measure 42
0001
0000
MMMM
0001
0000
0010
0100
1000
0001
0100
0010
0001
0010
0000
MMMM
0000
,  // measure 43
0001
0010
0100
1000
0001
1000
0010
0100
1000
0100
0010
1000
0100
0010
0001
0000
,  // measure 44
MMMM
0000
0000
0000
0000
0000
0000
0000
0000
0000
0000
0000
0100
0000
0000
0000
0000
0000
0000
0000
0000
0000
0000
0000
1000
0000
0000
0000
0000
0000
0000
0000
0000
0000
0000
0000
0100
0000
0000
0000
0000
0000
0000
0000
0000
0000
0000
0000
0010
0000
0000
0000
0000
0000
0000
0000
0001
0000
0000
0000
0000
0000
0000
0000
0010
0000
0000
0000
0000
0000
0000
0000
0100
0000
0000
0000
0000
0000
0000
0000
0000
0000
0000
0000
2000
0000
0000
0000
0000
0000
0000
0000
0000
0000
0000
0000
0200
0000
0000
0000
0000
0000
0000
0000
0000
0000
0000
0000
0000
0000
0000
0000
0000
0000
3000
0000
0000
0000
0000
0000
M300
0000
0000
0000
0000
0000
0M00
0000
0000
0000
0000
0000
00M0
0000
0000
0000
0000
0000
000M
0000
0000
0000
0000
0000
0000
0000
0000
0000
0000
0000
0000
0000
0000
0000
0000
0000
0000
0000
0000
0000
0000
0000
0000
0000
0000
0000
0000
0000
0000
0000
0000
0000
0000
0000
0000
0000
0000
0000
0000
0000
0000
0000
0000
0000
0000
0000
0000
0000
0000
0000
0000
0000
,  // measure 45
2002
0000
0000
0000
0000
0000
0000
0000
3003
0000
0000
0000
0000
0000
0000
0000
0001
1000
0000
0000
0010
0000
0M00
0000
0010
0000
0000
0000
0100
0000
0000
1000
,  // measure 46
0002
0000
0000
0000
0103
00M0
0100
0000
2000
0000
0010
0000
0000
0000
3001
0010
,  // measure 47
0001
0000
0000
0000
1000
0000
0010
0M00
0010
0000
0001
0000
1000
0000
0000
0000
0010
0000
0000
0000
0000
0000
0000
0000
0120
0000
0000
0000
0100
0000
0000
0000
,  // measure 48
1030
0000
0001
0000
0010
0000
0100
0000
1000
0000
0100
00M0
0100
0000
0001
0000
1000
0000
0000
0000
0001
0000
0010
0000
0100
0000
0010
0000
0001
0000
1000
0000
,  // measure 49
0010
0000
0M00
0000
0010
0000
0001
0000
MM00
0000
0001
0000
0100
0000
0010
0000
0001
0000
0000
0000
1000
0000
0000
0000
0100
00M0
0100
00M0
0100
0000
0000
0000
,  // measure 50
2000
3020
0230
0302
,  // measure 51
1003
0000
0010
0000
0001
0000
0010
0000
0100
0000
0010
0000
1000
0000
0001
0000
0100
00M0
0100
0000
1000
0000
0010
0M00
0010
0000
0001
0000
2000
0000
0000
0000
,  // measure 52
3100
0000
0000
0010
0000
0000
0100
0000
0000
0001
0000
0000
0100
0000
0000
1000
0000
0000
0001
0000
0000
1000
0000
0000
0020
0000
0000
0000
0000
0000
0000
0000
0000
0000
0000
0000
0130
0000
0000
0000
0100
0000
0000
0000
0100
0000
0000
0000
,  // measure 53
0002
0000
0000
0000
0000
0000
0000
0000
1003
0000
0100
0010
0001
1000
0010
0100
,  // measure 54
0001
0100
0010
0001
0010
0100
0001
0000
1000
0000
0100
0010
0001
1000
0010
0100
,  // measure 55
0002
1000
0000
0010
0000
0000
1003
0000
0000
0000
1000
0000
0100
0000
1000
0000
,  // measure 56
0001
0010
0100
1000
0010
1000
0001
0100
1000
00MM
2000
0020
0000
3030
0000
0000
,  // measure 57
1000
0001
1000
0000
0100
0000
0010
0001
0010
0000
0100
0000
1000
0000
0001
0000
1000
0000
0000
0000
0010
0000
1000
0000
0001
0000
0100
00M0
0100
00M0
0100
0000
,  // measure 58
0002
0203
0320
2030
,  // measure 59
3001
0010
0100
0010
0001
0100
1000
0100
0010
1000
0100
1000
0001
0010
1000
0010
,  // measure 60
0100
0000
0000
1000
0000
0000
0001
0000
0000
0100
0000
0000
0010
0000
0000
0001
0000
0000
1000
0000
0000
0100
0000
0000
0002
0000
0000
0000
0000
0000
0000
0000
0000
0000
0000
0000
1003
0000
0000
0000
1000
0000
0000
0000
1000
0000
0000
0000
,  // measure 61
0001
0100
0010
0100
0001
0000
1000
0001
,  // measure 62
0011
1001
1010
0000
0101
1000
1100
0100
,  // measure 63
0001
0000
0000
MM00
0000
0000
0001
0000
0010
0000
0000
0000
0100
0000
0000
0000
0001
0000
0000
MM00
0000
0000
0001
0000
0010
0000
0000
0000
0001
0000
0000
0000
,  // measure 64
0100
0000
00M0
0000
0100
0000
1000
0000
0001
0000
0000
0000
0100
0000
0000
0000
1000
0000
0000
00MM
0000
0000
1000
0000
0010
0000
0000
0000
0100
0000
0000
0000
,  // measure 65
0210
1000
0010
1000
0301
0000
0001
0100
,  // measure 66
0110
1100
0110
0000
0110
0010
1010
1000
,  // measure 67
1100
0100
0210
0001
0010
0001
1300
1000
,  // measure 68
1100
0110
0101
0110
1100
0000
0202
0303
,  // measure 69
1010
0110
1001
0000
0000
0000
0000
0000
;
