#VERSION:0.83;
#TITLE:dreamland;
#SUBTITLE:;
#ARTIST:Kenichi Chiba feat. EVO+;
#TITLETRANSLIT:;
#SUBTITLETRANSLIT:;
#ARTISTTRANSLIT:;
#GENRE:;
#CREDIT:;
#MUSIC:dreamland.ogg;
#BANNER:dreamland.png;
#BACKGROUND:dreamland-bg.png;
#CDTITLE:;
#SAMPLESTART:47.702;
#SAMPLELENGTH:15.000;
#SELECTABLE:YES;
#OFFSET:0.282;
#BPMS:0.000=125.041;
#STOPS:98.000=0.480;
#BGCHANGES:;
#FGCHANGES:;

//--------------- dance-single - ----------------
#NOTEDATA:;
#STEPSTYPE:dance-single;
#DESCRIPTION:;
#DIFFICULTY:Hard;
#METER:11;
#RADARVALUES:0,0,0,0,0;
#NOTES:
0000
0000
0000
0000
,
0000
0000
0000
0000
,
0000
0000
0000
0000
,
0000
0000
0000
0000
,
0000
0000
0000
0000
1000
1001
0000
0101
,
0000
0000
0100
0000
0010
1000
0000
0000
1000
0000
0000
1100
0000
0000
0100
0000
,
0000
0000
0010
0000
0010
0001
0000
0000
0100
0000
0000
0110
0000
0000
0010
0000
,
0000
0000
0100
0000
0001
1000
0000
0000
0010
0000
0000
1010
0000
0000
1000
0000
,
0000
0100
0010
0001
0000
1001
0000
0000
,
1000
0100
1000
0100
0010
0001
0100
0101
,
0000
0110
0000
1100
0000
1001
0000
0101
,
0000
0001
0100
0010
1000
0000
0001
0010
,
0100
0000
0010
0000
0000
0001
0000
0000
0100
0000
0000
1000
0000
0000
0100
0000
,
0000
0001
0010
0100
1000
0000
0010
1010
,
0000
1100
0000
1001
0000
0110
0000
0101
,
0000
1000
0001
1000
0010
0000
0100
0010
,
0100
0000
0010
0000
0000
1000
0000
0000
0010
0000
0000
1000
0000
0000
0001
0000
,
0000
1000
0100
1000
0200
0000
0301
0100
,
0010
0001
1000
0100
0001
0010
1000
0101
,
0000
0001
0100
0001
0100
1000
0100
0001
,
0010
0001
0010
1000
0010
0001
0100
0101
,
0000
0001
0010
0001
0020
0000
1030
0010
,
0100
1000
0001
0010
1000
0100
0001
1010
,
0000
1000
0010
1000
0010
0001
0010
1000
,
0100
0110
0000
1001
0000
0000
0110
0000
,
1001
0000
1100
0100
0100
0010
0001
0010
,
0001
0200
0000
0310
0100
0002
0000
0013
,
0100
0010
0001
0100
0001
0100
1000
0100
,
1000
0100
0001
0101
0000
0210
0000
0310
,
1000
0000
0100
1000
0100
0001
0100
0001
,
0100
1100
0000
1000
0010
0110
0000
1001
,
1000
1010
0000
0011
0001
0101
0000
0110
,
0000
1100
0000
0011
0000
2000
0000
0000
,
3001
0000
0011
0010
0010
0100
1000
0100
,
1000
0020
0000
0130
0010
2000
0000
3100
,
0010
0100
1000
0010
1000
0010
0001
0010
,
0001
0010
1000
1010
0000
0120
0000
0130
,
0001
0000
0010
0001
0010
1000
0010
1000
,
0010
0011
0000
0001
0100
0110
0000
1001
,
0001
0101
0000
1100
1000
1010
0000
0110
,
0000
1100
0000
1001
0000
0101
0000
0010
,
0100
0001
0000
0000
0001
0000
0000
0011
0000
0000
0010
0000
0000
0000
0100
0000
,
0100
1000
0000
0000
0010
0000
0000
0110
0000
0000
0100
0000
0000
0000
0010
0000
,
1000
0001
0000
0000
0100
0000
0000
0101
0000
0000
0001
0000
0000
0000
0010
0000
,
0100
1000
0000
1001
0000
1010
0000
0100
,
0010
0100
0000
0000
0010
0000
0000
0110
0000
0000
1000
0000
0000
0000
0001
0000
,
1000
0001
0000
0000
0100
0000
0000
0011
0000
0000
0100
0000
0000
0000
0010
0000
,
1000
0100
0000
0000
1000
0000
0000
1010
0000
0000
0010
0000
0000
0000
1001
0000
,
0000
0100
0000
0110
0000
1010
0000
1000
,
0001
0200
0000
0000
0010
0000
0000
0010
0000
0000
0310
0000
0000
0000
0100
0000
,
0001
2000
0000
0000
0100
0000
0000
0100
0000
0000
3100
0000
0000
0000
0010
0000
,
0001
0020
0000
0000
0001
0000
0000
0001
0000
0000
0031
0000
0000
0000
1000
0000
,
0001
0100
0000
0101
0000
0110
0000
0001
,
1000
0020
0000
0000
0100
0000
0000
0100
0000
0000
0130
0000
0000
0000
0010
0000
,
1000
0002
0000
0000
0010
0000
0000
0010
0000
0000
0013
0000
0000
0000
1001
0000
,
0001
1010
0000
0101
1000
0011
0000
0110
,
0000
1100
0000
1001
0000
2020
0000
0000
,
3030
0000
0000
0000
;
