#VERSION:0.83;
#TITLE:ヤオヨロズランズ;
#SUBTITLE:;
#ARTIST:工藤吉三(ベイシスケイプ);
#TITLETRANSLIT:Yaoyorozu lands;
#SUBTITLETRANSLIT:;
#ARTISTTRANSLIT:Yoshimi Kudo;
#GENRE:;
#CREDIT:;
#MUSIC:Yaoyorozu lands.ogg;
#BANNER:Yaoyorozu lands.png;
#BACKGROUND:;
#CDTITLE:;
#SAMPLESTART:92.400;
#SAMPLELENGTH:15.000;
#SELECTABLE:YES;
#OFFSET:0.000;
#BPMS:0.000=147.987;
#STOPS:;
#SPEEDS:0.000=1.000=0.000=0;
#SCROLLS:0.000=1.000;
#TICKCOUNTS:0.000=4;
#TIMESIGNATURES:0.000=4=4,
68.000=7=4,
71.500=14=4,
75.000=7=4,
78.500=14=4,
82.000=7=4,
85.500=14=4,
89.000=7=4,
92.500=14=4,
96.000=4=4,
277.000=7=4,
280.500=14=4,
284.000=7=4,
287.500=14=4,
291.000=4=4
;
#LABELS:0.000=Song Start;
#COMBOS:0.000=1;
#ORIGIN:;
#PREVIEWVID:;
#JACKET:Yaoyorozu lands-jacket.png;
#CDIMAGE:;
#DISCIMAGE:;
#BGCHANGES:;
#FGCHANGES:;

//--------------- dance-single - ----------------
#NOTEDATA:;
#STEPSTYPE:dance-single;
#DESCRIPTION:;
#DIFFICULTY:Beginner;
#METER:6;
#RADARVALUES:0.166399,0.237712,0.055466,0.174322,0,147,140,7,22,0,0,0,0,0,0.166399,0.237712,0.055466,0.174322,0,147,140,7,22,0,0,0,0,0;
#CHARTNAME:;
#CHARTSTYLE:;
#CREDIT:;
#NOTES:
0000
0000
0000
0000
,
1000
0000
1000
0000
,
2000
0000
3000
0000
,
0100
0000
0100
0000
,
0200
0000
0300
0000
,
0010
0000
0010
0000
,
0020
0000
0030
0000
,
0001
0000
0001
0000
,
0000
0001
0000
0001
0000
0001
0000
0000
,
0001
0000
0100
0000
,
0001
0000
0100
0000
,
0010
0000
1000
0000
,
0200
0000
0300
0000
,
0010
0000
0001
0000
,
0010
0000
0001
0000
,
1000
0000
0001
0000
,
0000
0100
0000
0100
0000
0100
0000
0000
,
0020
0000
0000
0000
0030
0000
0000
2000
,
0000
0000
0000
3000
0000
0000
0002
0000
,
0000
0000
0003
0000
0000
0020
0000
0000
,
0000
0030
0000
0000
0001
0000
0000
0000
,
0000
0010
0000
0010
0000
0000
0000
0000
,
0100
0000
0100
0000
0000
0000
0000
1000
,
0000
1000
0000
0000
0000
0000
0001
0000
,
1001
0000
0000
0000
,
0100
0000
0001
0000
,
0100
0000
0001
0000
,
1000
0000
0010
0000
,
1000
0000
0100
0000
,
1000
0000
0001
0000
,
0010
0000
0001
0000
,
0100
0000
0010
0000
,
0100
0100
0100
0000
,
0001
0000
0010
0000
,
0100
0000
1000
0000
,
1000
0000
0010
0000
,
0100
0000
0001
0000
,
0100
0000
1000
0000
,
0100
0000
0001
0000
,
0010
0000
0100
0000
,
1000
0000
0100
0000
,
0020
0000
0000
0000
,
0030
0000
0000
0000
,
2002
0000
3003
0000
,
0010
0010
0100
0100
,
0000
0220
0000
0000
,
0330
0000
0000
0000
,
0000
0110
0000
0000
,
0001
0001
1000
1000
,
0001
0000
0100
0000
,
0010
0000
1000
0000
,
0100
0000
0010
0000
,
0001
0000
0010
0000
,
1000
0000
0010
0000
,
0001
0000
0100
0000
,
0020
0000
0030
0000
,
0100
0000
0110
0000
,
1000
1000
0100
0000
,
0010
0010
0001
0000
,
0002
0000
1003
0000
,
2000
0000
3001
0000
,
0001
0001
0010
0000
,
0100
0100
1000
0000
,
0020
0000
0130
0000
,
0200
0000
0310
0000
,
2000
0000
3000
0000
,
0001
0000
0100
0000
,
0020
0000
0030
0000
,
0100
0100
0010
0110
,
0000
0000
1000
0000
0000
0000
0000
0100
,
0000
0010
0000
0000
0000
0000
0001
0000
,
1000
0000
0000
0000
0000
0010
0000
0100
,
0000
0000
0001
2002
,
0000
0000
0000
0000
,
0000
0000
0000
0000
,
3003
0000
0000
0000
;

//--------------- dance-single - ----------------
#NOTEDATA:;
#STEPSTYPE:dance-single;
#DESCRIPTION:;
#DIFFICULTY:Easy;
#METER:9;
#RADARVALUES:0.352041,0.44472,0.110932,0.673518,0.007924,311,297,14,85,0,0,0,0,0,0.352041,0.44472,0.110932,0.673518,0.007924,311,297,14,85,0,0,0,0,0;
#CHARTNAME:;
#CHARTSTYLE:;
#CREDIT:;
#NOTES:
0000
0000
0000
0000
,
0001
0000
0100
0000
0001
0000
0100
0020
,
0000
0030
0000
0000
,
1000
0000
0100
0000
1000
0000
0100
0020
,
0000
0030
0000
0000
,
0001
0000
0010
0000
0001
0000
1000
0002
,
0000
0003
0000
0000
,
1000
0000
0010
0000
1000
0000
0001
2000
,
0000
0100
0000
0100
0000
3100
0000
0000
,
0010
0001
0010
0100
,
1000
0000
0010
0000
0100
0100
0010
0010
,
1000
0000
0100
0000
0010
0000
0001
0002
,
0000
0100
0100
0103
,
0010
1000
0010
0100
,
0001
0000
0010
0000
0001
0001
0100
0100
,
0010
0000
1000
0000
0010
0000
1000
0200
,
0000
0010
0000
0010
0000
0310
0000
0000
,
0002
0000
0000
0000
0000
0010
0000
0023
,
0000
0000
0100
0230
,
0000
0000
0000
1000
0000
1300
0000
0010
,
0000
0110
0000
0000
0002
1000
0000
1000
,
1003
0000
0100
0020
0100
0000
0100
0130
,
0000
1000
0010
0200
0000
0010
0310
0000
,
0100
0010
0000
1000
0000
0001
1000
0002
,
2000
0000
0000
3003
,
0002
0100
0023
0100
,
0032
0100
2003
0100
,
3020
0100
2030
0100
,
3002
0010
0100
1003
,
0020
0230
2300
3200
,
0320
0230
0302
0023
,
0130
1000
0001
0000
0100
0001
1000
0000
,
0100
0010
0100
0000
0110
0000
0000
0000
,
0002
1000
0203
0010
,
0302
1000
0023
0130
,
2000
0010
3200
0001
,
2300
0010
3002
0103
,
0020
1000
0230
0001
,
0320
1000
0001
0130
,
0010
1000
0100
0000
0010
0001
0100
0000
,
0010
1000
0100
0010
0010
0000
0110
0000
,
2002
0000
0000
0000
,
3003
0000
0000
0000
0000
0110
0000
0010
,
0200
0000
0300
0000
,
1000
0010
1000
1000
0001
0100
0001
0001
,
0000
0000
1100
0000
0000
0202
0000
0000
,
0303
0000
0000
0000
,
0000
0020
0100
0130
,
0001
0001
0001
0000
1000
1000
1000
0000
,
2000
3200
0320
0230
,
2300
3020
0230
0320
,
0032
0023
0230
0302
,
2003
3200
0310
0110
,
0002
0023
0230
0320
,
0032
0203
2300
3200
,
0301
0010
0200
0000
,
0320
0000
0000
0000
0031
0001
0001
0000
,
1000
0001
0100
0000
0101
0000
0010
0000
,
1000
0001
0010
0000
0011
0000
0100
0000
,
2000
0010
3200
0010
,
2300
0010
0001
3100
,
0010
0001
0100
0000
0010
0000
1010
0000
,
0100
0001
1000
0000
0100
0000
0110
0000
,
0002
0100
0023
0100
,
0032
0100
1000
0013
,
0200
0320
0032
0023
,
0230
2300
3002
0203
,
0310
0000
0000
0110
0000
0000
1000
1000
,
1000
0000
0110
0000
0001
0001
0001
0000
,
0000
0000
1000
0100
0000
1000
0100
0010
,
0010
0001
0100
0000
0001
0100
0010
0010
,
1000
0001
0000
1000
0001
0010
0010
0100
,
0010
0000
0100
0010
0001
1000
0200
0000
,
0000
0000
0000
0010
0000
0000
0001
0000
,
0000
0000
0000
1000
0000
0000
0000
0000
0000
0000
0000
0000
0010
0000
0000
0000
0010
0000
0000
0000
0310
0000
0000
0000
;

//--------------- dance-single - ----------------
#NOTEDATA:;
#STEPSTYPE:dance-single;
#DESCRIPTION:;
#DIFFICULTY:Medium;
#METER:13;
#RADARVALUES:0.584093,0.622608,0.348645,0.245636,0.439768,516,472,44,31,0,0,0,0,0,0.584093,0.622608,0.348645,0.245636,0.439768,516,472,44,31,0,0,0,0,0;
#CHARTNAME:;
#CHARTSTYLE:;
#CREDIT:;
#NOTES:
0000
0000
0000
0000
,
0001
0000
0100
0000
0000
0110
0000
0000
1010
0000
0000
2000
0000
0000
0002
0000
,
0000
3003
0000
0000
,
1000
0000
0100
0000
0000
0110
0000
0000
0011
0000
0000
0002
0000
0000
2000
0000
,
0000
3003
0000
0000
,
0010
0000
1000
0000
0000
1100
0000
0000
1010
0000
0000
0002
0000
0000
0200
0000
,
0000
0303
0000
0000
,
0010
0000
0001
0000
0000
0011
0000
0000
0101
0000
0000
1000
0000
0000
0002
0000
,
0000
0000
0013
0000
0100
0000
0010
0000
0100
0000
0010
0100
0010
0100
0010
0000
,
0001
0000
1000
0000
0000
1100
0000
0000
0110
0000
0000
1100
0000
0000
1000
0000
,
0001
0000
0100
0000
0000
1010
0000
1000
0100
0000
0001
0000
0100
0000
1000
0000
,
0001
0000
0100
0000
0000
0101
0000
0000
0011
0000
0000
0101
0000
0000
0020
0000
,
0000
0000
1000
0000
0000
0001
0000
0000
1000
0000
0000
0001
0000
0000
0100
0000
,
0130
0000
0001
0000
0000
1001
0000
0000
1100
0000
0000
1001
0000
0000
0001
0000
,
0100
0000
0010
0000
0000
0110
0000
0010
1000
0000
0100
0000
0001
0000
0100
0000
,
1000
0000
0010
0000
0000
0110
0000
0000
0101
0000
0000
0110
0000
0000
2000
0000
,
0000
0100
0001
0100
0001
3100
0000
0100
,
0010
0000
0001
0020
0000
0000
0100
0000
0130
0000
1000
0000
0001
0000
0100
0000
,
0010
2000
0000
0000
0100
0000
3100
0000
0010
0000
0001
0000
0100
0000
0001
0020
,
0000
0100
0130
1000
0001
0100
0010
1010
,
0000
0010
0000
0100
0000
0101
0000
0000
0001
0000
1000
0001
0000
1000
0001
0000
,
0010
0000
0100
0000
1000
0000
0010
0000
0100
0010
0000
0100
0010
0000
1000
0000
,
0001
0000
0010
0000
0100
0000
1000
0100
0000
1000
0100
0000
0010
0000
0001
0000
,
1000
0000
0010
0000
0100
0001
0000
0100
0001
0000
0010
0000
0001
0000
0100
0000
,
0020
0000
0000
0030
,
1001
0000
0000
1000
0100
0000
0000
0100
0010
0000
0000
0010
0002
0000
0000
0000
,
0100
0000
1000
0000
0013
0100
0010
0000
,
0110
0000
0000
0100
0001
0000
0000
0001
1000
0000
0000
1000
0200
0000
0000
0000
,
0001
0000
1000
0000
0310
0001
0010
0100
,
1100
0000
0000
1000
0010
0000
0000
0010
0100
0000
0000
0001
0010
0000
0000
0010
,
0100
0000
0000
1000
0001
0000
0000
0001
0200
0000
0000
0000
0320
0000
0000
0000
,
1030
0100
0001
0100
1000
0010
0100
0010
,
0100
0000
0001
0000
1000
0000
0100
0000
0010
0001
0010
0001
0010
0000
0000
0000
,
0001
0000
0000
0001
1000
0000
0000
1000
0100
0000
0000
0100
0010
0000
0001
0000
,
1000
0000
0000
1000
0010
0000
0000
0100
0001
0000
0000
0001
0010
0000
0100
0000
,
1000
0000
0000
1000
0010
0000
0000
0010
0001
0000
0000
0001
0010
0000
0000
0010
,
0100
0000
0000
0100
0010
0000
0000
0010
1000
0000
0100
0000
0010
0000
0001
0000
,
0100
0000
0000
0100
0010
0000
0000
1000
0100
0000
0000
0100
0010
0000
0000
0001
,
0010
0000
0000
0100
1000
0000
0000
1000
0001
0000
0000
0000
1001
0000
0000
0000
,
0100
0001
0010
0001
0100
0010
0001
0010
,
1000
0010
1000
0100
1000
0001
0010
0001
,
0200
0000
0000
0000
,
0300
0000
0000
0000
0000
0000
0000
0000
0000
0000
1001
0000
0000
1000
0010
1000
,
0020
0000
0030
0000
,
0100
0001
0100
0000
0010
0000
1000
0000
0100
1000
0100
0000
0010
0000
0001
0000
,
0000
0000
0000
0000
0000
0000
0110
0000
0000
0000
0000
0000
0000
0000
0000
1001
0000
0000
0000
0000
0001
0000
1000
0000
,
0000
0000
0000
0000
,
0000
0000
0000
1100
0000
0000
1000
0000
0010
0000
0100
0000
,
0001
0010
0001
0010
0100
1000
0100
1000
,
0001
0000
0100
0000
0001
0000
0010
0000
0001
0000
0100
0000
0010
0100
0010
0000
,
1000
0000
0001
0000
1000
0000
0100
0000
1000
0000
0001
0000
1000
0010
1000
0000
,
0100
0000
0010
0000
0100
0000
1000
0000
0100
0000
0010
0000
0001
0010
0001
0000
,
0100
0000
0010
0000
1000
0000
0100
0000
0010
0000
0000
0010
0000
0000
0010
0000
,
0100
0000
1000
0000
0001
0000
0010
0000
0001
0000
0100
0000
0010
1000
0010
0000
,
0100
0000
0001
0000
1000
0000
0100
0000
0010
0000
0001
0000
0100
0001
0100
0000
,
0020
0000
0000
0000
2030
0000
0000
0000
3100
0000
0000
0110
0000
0000
1002
0000
,
0000
0000
0000
0100
0000
0000
0000
0000
0000
0103
0000
0000
0010
0000
1000
0000
0001
0000
0010
0000
0000
0000
0000
0000
,
1100
1000
0001
1000
0010
1000
0100
0010
,
0011
0100
1000
0001
0010
0001
1000
0010
,
0100
0000
0000
0100
0001
0000
0000
0001
0010
0000
0000
0100
1000
0000
0000
1000
,
0020
0100
0001
1030
,
1001
1000
0100
0010
0100
1000
0001
0100
,
1010
0010
0100
0001
1000
0100
1000
0010
,
2000
0100
0001
3010
,
0110
0000
0000
0110
0000
0000
1000
0001
1000
0001
1000
0001
,
0200
0000
0320
0000
,
0230
0000
0302
0000
2003
0000
3100
0010
,
0110
0000
0000
0000
0000
0000
0000
0000
0000
1001
0000
0000
0000
0000
0010
0000
0001
0000
0010
0000
0001
0000
1000
0000
,
0010
0000
0000
0110
0000
0000
0001
0100
0010
2000
0000
0000
,
3000
0000
0000
0000
0001
0000
0010
0100
0000
0010
0100
0000
1000
0000
0001
0000
,
0001
0000
0100
0000
0010
1000
0000
0010
1000
0000
0100
0000
0100
0000
0010
0000
,
0001
0000
1000
0100
0000
1000
0100
0000
1000
0000
0010
0000
0100
0000
0001
0000
,
0010
0100
0000
0010
0100
0000
1000
0000
0001
0000
0100
0000
0120
0000
0000
0000
,
0000
0000
0000
0100
0000
0000
0001
0000
,
0000
0000
0000
1000
0000
0000
0000
0000
0000
0000
0000
0000
0100
0000
0000
0000
0100
0000
0000
0000
0130
0000
0000
0000
;

//--------------- dance-single - ----------------
#NOTEDATA:;
#STEPSTYPE:dance-single;
#DESCRIPTION:;
#DIFFICULTY:Hard;
#METER:15;
#RADARVALUES:0.762943,0.897364,0.324873,0.213941,1.069705,674,633,41,27,0,0,0,0,0,0.762943,0.897364,0.324873,0.213941,1.069705,674,633,41,27,0,0,0,0,0;
#CHARTNAME:;
#CHARTSTYLE:;
#CREDIT:;
#NOTES:
0000
0000
0000
0000
,
0001
0010
0001
0000
0100
0001
0000
0010
0001
0000
0100
0001
0000
1000
0020
0000
,
0000
0030
0000
0000
,
1000
0100
1000
0000
0010
1000
0000
0100
1000
0000
0010
1000
0000
0001
0200
0000
,
0000
0300
0000
0000
,
0010
1000
0010
0000
1000
0100
0000
0010
0001
0000
0100
0001
0000
0010
0200
0000
,
0000
0300
0000
0000
,
1000
0001
1000
0000
0010
1000
0000
0001
1000
0000
0100
0010
0000
0001
0020
0000
,
0000
0130
1000
0100
0001
0100
1000
0100
,
0010
0001
0010
0000
0001
0100
0000
0010
0100
0000
0001
0100
0000
0100
0010
0000
,
1000
0100
1000
0000
0001
0100
0000
0010
1000
0010
0100
0001
0100
0010
1000
0000
,
0100
1000
0100
0000
1000
0010
0000
1000
0100
0000
1000
0010
0000
0010
0100
0000
,
0000
0000
1001
0000
0000
1100
0000
0000
1001
0000
0000
0011
0000
0000
1001
0000
,
0100
0001
0100
0000
0010
1000
0000
0001
1000
0000
0010
1000
0000
1000
0100
0000
,
0010
0001
0010
0000
0100
1000
0000
0001
0010
0100
1000
0100
0010
0001
0100
0000
,
0010
1000
0010
0000
0100
0001
0000
1000
0001
0000
0100
0010
0000
0010
2000
0000
,
0000
0000
3100
0010
0001
0000
0001
1000
0100
0000
0100
0010
0001
0000
0011
0000
,
1001
0000
2000
0100
0000
0100
0000
0001
0000
3010
0000
0000
0101
0000
1001
0000
,
0002
0010
0000
0010
0000
1000
0000
0103
0000
0000
0011
0000
1001
0000
2000
0100
,
0000
0100
0000
0001
0000
3010
0000
0000
0101
0000
1001
0000
0100
0000
0010
0001
,
0010
0100
0000
1001
0000
0100
0010
0001
0010
0000
0100
0000
1000
0010
0000
1000
,
0100
0000
1000
0001
0000
1000
0010
0000
0100
0000
0001
1000
0000
0001
0010
0000
,
0001
0100
0000
0010
1000
0000
0100
0000
0010
0001
0000
0010
0100
0000
0010
0001
,
0000
1000
0010
0000
0100
0000
0001
1000
0000
0001
0100
0001
0010
0100
1000
0010
,
0200
0000
0000
0300
,
0001
0000
0000
0001
1000
0000
0000
1000
0100
0000
0000
0100
0001
0000
0000
0001
,
1000
0000
0000
1000
0010
0000
0000
0010
0100
0000
0000
0100
0010
0001
1000
0001
,
0100
0000
0000
0100
0010
0000
0000
0010
0001
0000
0000
0001
0010
0000
0000
0010
,
1000
0000
0000
1000
0100
0000
0000
0100
0010
0001
1000
0010
1000
0010
0100
0001
,
1000
0000
0000
1000
0100
0000
0000
0100
0001
0000
0000
0001
0010
0000
0000
0010
,
0001
0000
0000
0001
0100
0000
0000
0100
1000
0000
0000
1000
0010
0000
0000
0010
,
0100
0001
1000
0100
0010
0001
0010
1000
,
0001
0100
0010
0100
1000
0010
1000
0100
,
0010
0000
0000
0010
0001
0000
0000
0001
0100
0000
0000
0100
1000
0000
0000
1000
,
0001
0000
0000
0001
0010
0000
0000
0010
1000
0000
0000
1000
0100
0010
0001
0010
,
0100
0000
0000
0100
1000
0000
0000
1000
0010
0000
0000
0010
0001
0000
0000
0001
,
1000
0000
0000
1000
0100
0000
0000
0100
0001
0000
0000
0001
0010
0100
1000
0100
,
0010
0000
0000
0010
0001
0000
0000
0001
0100
0000
0000
0100
1000
0000
0000
1000
,
0100
0000
0000
0100
0001
0000
0000
0001
0010
0000
0000
0010
0100
0000
0000
0100
,
0010
0001
0010
0000
0100
0000
1000
0000
0010
0001
0010
0000
0100
0000
0001
0000
,
0010
1000
0010
0000
0100
0000
1000
0000
0010
0100
0001
0010
0001
0100
0010
1000
,
0200
0000
0000
0000
,
0300
0000
0000
0000
0000
0000
0000
0000
0000
0000
0011
0000
0000
1000
0100
1000
,
0020
0000
0030
0000
,
0100
0001
0010
0000
0010
0001
0100
0000
0010
1000
0100
0000
0100
1000
0010
0000
,
0000
0000
0000
0000
0000
0000
1100
0000
0000
0000
0000
0000
0000
0000
0000
0101
0000
0000
0000
0000
0002
0000
2000
0000
,
0000
0000
3003
0000
,
0000
0000
0000
0110
0000
0000
1001
0000
0011
0000
1100
0000
,
0100
0000
0000
1000
0000
0000
0100
0000
0000
0000
0000
0000
1000
0000
0000
0001
0000
0000
1000
0000
0000
0000
0000
0000
0001
0000
0000
0100
0000
0000
0001
0000
0000
0000
0000
0000
0100
0000
0000
0000
0010
0000
0000
0000
1000
0000
0000
0000
,
0001
0010
0001
0000
0001
1000
0001
0000
0001
0100
0001
0000
1000
0010
1000
0000
,
1000
0001
1000
0000
1000
0100
1000
0000
0100
0010
0100
0000
0100
0001
0100
0000
,
0100
1000
0100
0000
0010
0100
0010
0000
0010
1000
0010
0000
0010
0001
0010
0000
,
0100
1000
0010
0000
0100
0001
0010
0000
0110
0000
0000
0110
0000
0000
0110
0000
,
0001
0100
0010
0000
0010
1000
0100
0000
0100
0010
0001
0000
0001
1000
0010
0000
,
0010
0100
0001
0000
0001
1000
0100
0000
0100
1000
0010
0000
0010
0100
0001
0000
,
0001
0000
0000
0000
1000
0000
0000
0000
1010
0000
0000
0011
0000
0000
2010
0000
,
0000
0000
0000
0000
0000
0000
3100
0000
0000
0010
0000
0000
0001
0000
1000
0000
0001
0000
0110
0000
0000
0000
0000
0000
,
1000
0000
0100
0000
0010
0000
0001
0100
0000
0001
0010
0001
0100
0010
1000
0000
,
0001
0000
0100
0000
0010
0000
1000
0100
0000
1000
0000
0010
0000
1000
0001
0100
,
0010
0000
0000
0010
1000
0000
0000
1000
0100
0000
0000
0100
0001
0000
0000
0001
,
1000
0000
0000
1000
0010
0000
0000
0010
0100
0000
0000
0100
0010
0000
0000
0010
,
0001
0000
0100
0000
0010
0000
1000
0001
0000
1000
0010
1000
0100
0010
0001
0000
,
1000
0000
0100
0000
0010
0000
0001
0100
0000
0010
0000
0100
0000
0001
1000
0001
,
0010
0000
0000
0010
0100
0000
0000
0100
1000
0000
0000
1000
0001
0000
0000
0001
,
0100
0000
0000
0000
0000
0000
0000
0000
0000
0100
0000
0000
0010
0000
0000
0000
0000
0000
0000
0000
0000
0010
0000
0000
1000
0000
0000
0000
0100
0000
0000
0000
0001
0000
0000
0000
0100
0000
0000
0000
1000
0000
0000
0000
0100
0000
0000
0000
,
0010
0001
0010
0001
0010
0000
0100
0000
1000
0010
1000
0010
1000
0000
0001
0000
,
0100
0010
1000
0010
0100
0001
0010
0000
0100
0000
1000
0010
1000
0100
0010
0001
,
0200
0000
0000
0000
0000
0000
0300
0000
0000
1001
0000
0000
0000
0000
1000
0000
0010
0000
1000
0000
0100
0000
1000
0000
,
0020
0000
0000
0230
0000
0000
0301
1000
0001
1000
0000
0000
,
0000
0000
0000
0000
0001
0000
0001
0010
0000
0110
0000
1100
0000
0001
1000
0100
,
0010
0001
0100
0000
0100
0010
0000
1010
0000
0101
0000
1000
0010
0100
0001
1000
,
0100
0000
0100
0010
0000
0110
0000
1001
0000
0010
0100
1000
0010
1000
0100
0010
,
0001
0000
0100
0010
1000
0100
0010
0001
0000
0100
0010
2000
0200
0000
0000
0000
,
0000
0000
3300
0022
0000
0033
0202
0000
,
0303
0000
0000
2020
0000
0000
0000
0000
0000
3030
0000
0000
0110
0000
0000
0000
1001
0000
0000
0000
0220
0000
0000
0000
,
0000
0000
0330
0000
;
