#TITLE:Xi Ignition;
#SUBTITLE:[The Raver's Blaster];
#ARTIST:MN XenX;
#TITLETRANSLIT:;
#SUBTITLETRANSLIT:;
#ARTISTTRANSLIT:;
#GENRE:Rave;
#CREDIT:tikal.+;
#MUSIC:xiignition.ogg;
#BANNER:xiignition.png;
#BACKGROUND:xiignition-bg.png;
#CDTITLE:cdtitle.png;
#SAMPLESTART:71.255;
#SAMPLELENGTH:15.484;
#SELECTABLE:YES;
#OFFSET:-0.029;
#BPMS:0.000=155.000;
#STOPS:;
#BGCHANGES:;
#FGCHANGES:;

//--------------- dance-single - tikal. ----------------
#NOTES:
     dance-single:
     tikal.:
     Hard:
     15:
     0,0,0,0,0:
0000
0000
0000
0000
,
0000
0000
0000
0000
,
0000
0000
0000
0000
,
0000
0000
0000
0000
,
0001
0000
0100
0000
0010
0000
1000
0100
0000
1000
0100
0000
0010
0000
0001
0000
,
1000
0000
0100
0000
0010
0000
0001
0100
0000
0001
0100
0000
0010
0000
0010
0100
,
0001
0000
0010
0000
0100
0000
1000
0010
0000
1000
0010
0000
0100
0000
0001
0000
,
1000
0000
0010
0000
0100
0000
0001
0010
0000
0001
0010
0100
1000
0000
0001
0000
,
1000
0000
0010
0000
0100
0000
0001
0010
0000
0001
0010
0000
0100
0000
1000
0000
,
0001
0000
0010
0000
0100
0000
1000
0010
0000
1000
0010
0000
0100
0000
0100
0010
,
1000
0000
0100
0000
0010
0000
0001
0100
0000
0001
0100
0000
0010
0000
1000
0000
,
1010
0000
0000
0000
0011
0000
0000
0000
0010
0000
0010
0000
0100
0010
0100
0010
,
0100
0000
0000
0000
,
1000
0000
0001
0000
0001
0000
0100
0010
0000
0100
0010
0000
4000
0000
0000
0000
,
3010
1000
0001
1000
0000
1100
0000
1001
,
0000
0000
1001
0000
0101
0000
0000
0000
0100
0000
0010
0000
0010
1000
0001
0000
,
0010
0001
1000
0001
0000
0101
0000
1001
,
0000
0000
1001
0000
1100
0000
0000
0000
0100
0000
0010
0000
0010
0000
0100
1000
,
0001
1000
0100
0110
0000
1000
0100
0110
,
0000
1000
0100
0010
0001
0001
0100
0010
,
1000
0001
0100
0110
0000
0001
0100
0110
,
0000
0000
0001
0000
0100
0000
0010
0000
1000
0001
0000
1000
0001
0000
0010
0100
,
1000
0000
0010
0000
0100
0000
0001
0100
0000
0001
0100
0000
0010
0000
0000
0010
,
1000
0000
0100
0000
0010
0000
0001
0010
0000
0001
0010
0000
0100
0000
1000
0000
,
0001
0000
0100
0000
0010
0000
1000
0010
0000
1000
0010
0000
0100
0000
0000
0100
,
0001
0000
0010
0000
0100
0000
1000
0100
0000
1000
0100
0000
0010
0000
0001
1000
,
0001
0000
0001
0000
0100
0000
0010
1000
0000
0010
1000
0000
0100
0000
0000
0010
,
0001
0000
0001
0000
0010
0000
0100
1000
0000
0100
1000
0000
0010
0000
0100
0001
,
1000
0000
1000
0000
0100
0000
0010
0001
0000
0010
0001
0000
0100
0000
0001
1000
,
0400
0000
0000
0000
0000
0000
0000
0300
,
2001
0010
0000
0010
0000
0010
3000
0010
,
0200
0000
0001
0000
0000
0000
0001
0000
0300
0000
0001
0000
0010
0000
0001
1000
,
0020
0100
0000
0100
0000
0100
0030
0100
,
0001
0000
0001
0000
1000
0000
0000
0100
0000
0000
0010
0000
0100
0000
1000
0000
,
0002
0100
0000
0100
0000
0100
0003
0100
,
0020
0000
1000
0000
0000
0000
1000
0000
0030
0000
1000
0000
0100
0000
1000
0001
,
0100
0000
0000
0000
0010
0000
0010
0000
0000
0000
0010
0000
1000
0000
0001
1000
,
0001
0001
0010
1000
0010
0001
0400
0000
,
0320
0001
1000
0001
,
0230
0000
0000
0000
1000
0000
0000
0000
0010
0000
0000
0000
0301
0000
1000
0001
,
2000
0100
0001
0010
,
3001
0000
0001
0000
1000
0000
0000
0010
0000
0100
0001
0000
1000
0000
0100
1000
,
0200
0001
1000
0001
,
0320
0000
0000
0000
1000
0000
0000
0000
0100
0000
0000
0000
0031
0000
1000
0001
,
1000
0000
0000
0000
0010
0000
0010
0000
0000
0000
0010
0000
0100
0000
0001
1000
,
0004
0000
0000
0000
0000
0000
0000
0003
,
1000
0000
0001
0000
0010
0000
0100
1000
0000
0100
1000
0000
0010
0000
0100
0001
,
1000
0000
0001
0000
0010
0000
0100
1000
0000
0100
1000
0000
0010
0000
0010
0100
,
0001
0000
1000
0000
0010
0000
0100
0001
0000
0100
0001
0000
0010
0000
0100
1000
,
0001
0000
1000
0000
0010
0000
0100
0001
0000
0100
0001
1000
0001
0000
1000
0001
,
0100
0000
0010
0000
1000
0000
0001
0010
0000
0001
0010
0000
0100
0000
1000
0001
,
0100
0000
0010
0000
1000
0000
0001
0010
0000
0001
0010
0000
0100
0000
0100
1000
,
0010
0000
0100
0000
0001
0000
1000
0100
0000
1000
0100
0000
0010
0000
0001
0000
,
0011
0000
0000
0000
1010
0000
0000
0000
0010
0000
0010
0000
0100
0010
0100
0010
,
0100
0000
0000
0000
,
0001
0000
1000
0000
1000
0000
0100
0010
0000
0100
0010
0000
0004
0000
0000
0000
,
0013
0000
0001
0000
1000
0000
0001
0100
0000
0001
0100
0000
0010
0000
1000
0001
,
1000
0000
0100
0000
0010
0000
0001
0100
0000
0001
0100
0000
0010
0000
0010
1000
,
0100
0000
1000
0000
0001
0000
1000
0010
0000
1000
0010
0000
0100
0000
0001
1000
,
0001
0000
0010
0000
0100
0000
1000
0010
0100
0001
0000
1000
0001
0000
0010
0001
,
1000
0000
1000
0000
0010
0000
0100
0001
0000
0100
0001
0000
0010
0000
0100
1000
,
0001
0000
0001
0000
0010
0000
0100
1000
0000
0100
1000
0000
0010
0000
0100
0001
,
1000
0000
1000
0000
0100
0000
0010
0001
0000
0010
0001
0000
0100
0000
0010
1000
,
0001
0000
0001
0000
0100
0000
0010
1000
0001
1000
0000
0100
1000
0000
0001
0100
,
0010
1000
0001
1000
0100
0010
0100
0001
,
0100
0000
1000
0000
0010
0000
0100
0000
0001
0000
0010
0000
0010
0100
1000
0000
,
0010
0001
1000
0001
0010
0100
0010
1000
,
0010
0000
0100
0000
0001
0000
0010
0000
0100
1000
0000
0001
1000
0000
0010
1000
,
0001
0000
0010
0000
0100
0000
0010
0000
1000
0000
0001
0000
0100
0000
0010
0001
,
1000
0001
0100
0001
1000
1000
0100
0010
,
0001
0000
0100
0000
0010
0000
0100
0000
1000
0000
0001
0000
0010
0000
0100
0001
,
4000
0000
0000
0000
0000
0000
0000
3000
,
0001
0000
1000
0000
0100
0000
0010
0001
0000
0010
0001
0000
0100
0000
0010
1000
,
0001
0000
1000
0000
0100
0000
0010
0001
0000
0010
0001
0000
1000
0010
0100
0001
,
1000
0000
0001
0000
0100
0000
0010
1000
0000
0010
1000
0000
0100
0000
0010
0001
,
1000
0000
0001
0000
0100
0000
0010
1000
0000
0010
1000
0001
1000
0100
0010
0001
,
0100
0000
0010
0000
1000
0000
0001
0010
0000
0001
0010
0000
0100
0000
1000
0001
,
0100
0000
0010
0000
1000
0000
0001
0010
0000
0001
0010
0000
0100
1000
0001
0100
,
0010
0000
0100
0000
0001
0000
1000
0100
0010
0100
1000
0000
0001
0000
0100
0010
,
1000
0000
0100
0000
0001
0000
0100
0010
0001
0000
0001
0000
1000
0001
1000
0001
,
1000
0000
0000
0000
;

//--------------- dance-single - tikal. ----------------
#NOTES:
     dance-single:
     tikal.:
     Challenge:
     17:
     0,0,0,0,0:
0000
0000
0000
0000
,
0000
0000
0000
0000
,
0000
0000
0000
0000
,
0000
0000
0000
0000
,
1000
0000
0001
0000
0100
0000
0010
1000
0000
0010
1000
0000
0100
0000
0010
0001
,
1000
0000
0001
0000
0100
0000
0010
1000
0000
0010
1000
0000
0001
0010
0100
1000
,
0001
0000
1000
0000
0100
0000
0010
0001
0000
0010
0001
0000
0100
0000
0010
1000
,
0001
0000
1000
0000
0100
0000
0010
0001
0000
0010
0001
1000
0001
0100
0010
1000
,
0100
0000
0010
0000
0001
0000
1000
0010
0000
1000
0010
0000
0100
0000
0001
1000
,
0100
0000
0010
0000
0001
0000
1000
0010
0000
1000
0010
0000
0100
0001
1000
0100
,
0010
0000
0100
0000
1000
0000
0001
0100
0010
0100
0001
0000
1000
0000
0100
0010
,
0001
0000
0100
0000
1000
0000
0100
0010
1000
0001
1000
0001
0010
0100
0010
0100
,
0010
0000
0000
0000
,
0001
0000
0100
0000
0100
0000
0010
1000
0000
0010
1000
0000
0400
0000
0000
0000
,
0310
0001
1000
0001
0100
0010
0100
1000
,
0100
0000
0001
0000
0010
0000
0100
0000
1000
0000
0010
0000
0010
0100
0001
1000
,
0100
0001
1000
0001
0100
0010
0100
1000
,
0100
0000
0010
0000
0001
0000
0100
0000
0010
1000
0001
1000
0100
0000
0010
0001
,
1000
0000
0010
0000
0100
0000
0010
0000
0001
0000
1000
0000
0100
0000
0010
1000
,
0001
0000
1000
0000
0100
0000
1000
0000
0001
0000
0001
0000
0100
0000
0010
1000
,
0001
0000
0010
0000
0100
0000
0010
0000
1000
0000
0001
0000
0100
0000
0010
0001
,
1000
0000
0001
0000
0100
0000
0001
0000
1000
0010
0100
0001
1000
0000
0001
1000
,
0001
0000
0010
0000
0100
0000
1000
0010
0000
1000
0010
0000
0100
0000
0001
1000
,
0001
0000
0010
0000
0100
0000
1000
0010
0000
1000
0010
0000
0100
0001
0010
0100
,
1000
0000
0010
0000
0100
0000
0001
0010
0000
0001
0010
0000
0100
0000
1000
0001
,
1000
0000
0010
0000
0100
0000
0001
0010
0100
1000
0001
1000
0010
0000
0100
0001
,
1000
0000
1000
0000
0100
0000
0010
0001
0000
0010
0001
0000
0100
0000
0010
1000
,
0001
0000
0001
0000
0100
0000
0010
1000
0000
0010
1000
0000
0100
0000
0010
0001
,
1000
0010
1000
0010
0100
0001
0100
0001
1000
0100
1000
0100
0010
0001
0010
0001
,
0400
0000
0000
0000
0000
0000
0000
0300
,
1002
0010
0000
0010
0000
0010
0003
0010
,
0200
0000
1000
0000
0000
0000
1000
0000
0300
0000
1000
0000
0010
0000
1000
0001
,
0020
0100
0000
0100
0000
0100
0030
0100
,
1000
0000
1000
0000
0001
0000
0100
0010
0000
0100
0010
0000
1000
0010
0100
0001
,
2000
0100
0000
0100
0000
0100
3000
0100
,
0020
0000
0001
0000
0000
0000
0001
0000
0030
0000
0001
0000
0100
0000
0001
1000
,
0100
0000
0100
0000
0010
0000
0001
1000
0000
0001
1000
0000
0010
0000
0100
0001
,
1000
0000
1000
0000
0100
0000
0001
0100
0000
1000
0100
0000
0040
0000
0000
0000
,
0031
0100
0010
0100
1000
0100
0010
1000
,
0001
0000
0010
0000
0100
0000
0010
0000
1000
0000
0010
0000
0100
0000
1000
0001
,
1000
0010
0100
0010
0001
0010
0100
0001
,
1000
0000
1000
0000
0001
0000
0010
0100
0000
0010
0100
1000
0001
0000
0100
0010
,
1000
0100
0010
0100
0001
0100
0010
0001
,
1000
0010
0100
0010
0001
0010
0100
0001
,
1000
0100
1000
0100
0010
0001
0010
0001
1000
0010
1000
0010
0100
0001
0100
0001
,
0040
0000
0000
0000
0000
0000
0000
0030
,
1001
0000
1000
0000
0010
0000
0100
1000
0000
0100
0001
0000
0010
0000
0100
1000
,
0001
0000
1000
0000
0010
0000
0100
1000
0000
0100
0001
0000
1000
0010
0100
0001
,
0010
0000
1000
0000
0001
0000
0100
0010
0000
0100
1000
0000
0001
0000
0100
0001
,
0010
0000
1000
0000
0001
0000
0100
0010
0000
0100
1000
0001
0100
0010
0100
0001
,
1000
0000
0001
0000
0010
0000
0100
0001
0000
0100
1000
0000
0010
0000
0100
0001
,
1000
0000
0001
0000
0010
0000
0100
0001
0000
0100
1000
0000
0001
0010
0100
1000
,
0010
0000
0100
0000
0001
0000
1000
0100
0010
0100
1000
0000
0001
0000
0100
0010
,
1000
0000
0100
0000
0001
0000
0100
0010
0001
1000
0001
1000
0010
0100
0010
0100
,
0010
0000
0000
0000
,
1000
0000
0100
0000
0100
0000
0010
0001
0000
0010
0001
0000
0400
0000
0000
0000
,
0301
0000
0100
0000
0010
0000
1000
0100
0000
1000
0100
0000
0010
0000
0001
1000
,
0001
0000
0100
0000
0010
0000
1000
0100
0010
0100
1000
0000
0010
0000
0100
0001
,
1000
0000
0100
0000
0010
0000
0001
0100
0000
0001
0100
0000
0010
0000
1000
0001
,
1000
0000
0100
0000
0010
0000
0001
0100
0010
1000
0001
1000
0100
0000
0010
0001
,
1000
0000
1000
0000
0010
0000
0100
0001
0000
0100
0001
0000
0010
0000
0100
1000
,
0001
0000
0001
0000
0010
0000
0100
1000
0010
1000
0100
0000
0010
0000
0100
1000
,
0001
0000
0001
0000
0100
0000
0010
1000
0000
0010
1000
0000
0100
0000
0010
0001
,
1000
0000
1000
0000
0010
0000
0100
0001
0010
0100
1000
0010
0100
0000
0001
1000
,
0001
0011
0010
0011
0000
1001
0000
1100
,
0000
0000
1100
0000
1001
0000
0001
1000
0001
0100
0010
0000
0100
0001
0010
0100
,
1000
1010
0010
1010
0000
1001
0000
0101
,
0000
0000
0101
0000
1001
0000
1000
0001
0100
0010
1000
0100
0010
0000
0001
1000
,
0001
0000
0100
0000
0110
0000
0101
0000
0000
1000
0100
0000
0110
0000
1100
0000
,
0000
0000
0110
0000
0011
0000
0001
0000
1001
0000
1000
0000
0010
0000
0100
0001
,
1000
0010
1000
0010
0100
0001
0100
0001
1000
0100
1000
0100
0010
0001
0010
0001
,
0400
0000
0000
0000
0000
0000
0000
0300
,
0010
0000
1010
0000
1001
0000
0001
0010
0000
1000
0010
0000
0110
0000
0100
1000
,
0001
0000
0101
0000
0110
0000
0010
0001
0000
0010
1000
0000
0001
0100
0010
1000
,
0100
0000
1100
0000
1001
0000
0001
0100
0000
1000
0100
0000
0110
0000
0010
1000
,
0001
0000
0011
0000
0110
0000
0100
0001
0000
0100
1000
0001
0100
0010
1000
0100
,
0010
0000
0011
0000
1001
0000
1000
0010
0000
0001
0010
0000
0110
0000
0100
0001
,
1000
0000
1100
0000
0110
0000
0010
1000
0000
0010
0001
0000
1000
0100
0010
0001
,
0100
0000
0101
0000
1001
0000
1000
0100
0010
0100
1000
0000
0010
0000
0100
0001
,
1000
0000
1010
0000
0110
0000
0100
0010
1000
0001
0010
0100
1000
0001
1000
0001
,
1000
0000
0000
0000
;
