#TITLE:WE ARE THE DREAMERS;
#SUBTITLE:;
#ARTIST:500 MASTER;
#TITLETRANSLIT:;
#SUBTITLETRANSLIT:;
#ARTISTTRANSLIT:;
#GENRE:;
#CREDIT:;
#BANNER:We Are The Dreamers-bn.png;
#BACKGROUND:We Are The Dreamers-bg.png;
#LYRICSPATH:;
#CDTITLE:;
#MUSIC:We Are The Dreamers.ogg;
#OFFSET:-0.000000;
#SAMPLESTART:46.158821;
#SAMPLELENGTH:12.000000;
#SELECTABLE:YES;
#BPMS:0.000000=129.985992
,52.000000=64.992996
,68.000000=259.971985
,196.000000=64.992996
,212.000000=259.971985
,340.000000=129.985992
;
#STOPS:
;
#BGCHANGES:0.000=We Are The Dreamers.avi=1.000=0=0=0=StretchNoLoop====,
99999=-nosongbg-=1.000=0=0=0 // don't automatically add -songbackground-
;
#KEYSOUNDS:;
#ATTACKS:;

//---------------dance-single - ----------------
#NOTES:
     dance-single:
     :
     Hard:
     17:
     0.808579,1.107282,0.157006,0.039251,0.262984,721.000000,701.000000,20.000000,5.000000,0.000000,0.000000,0.808579,1.107282,0.157006,0.039251,0.262984,721.000000,701.000000,20.000000,5.000000,0.000000,0.000000:
0000
0000
0000
0000
,
0000
0000
0000
0000
,
0000
0000
0000
0000
,
0000
0000
0000
0000
,
0000
0000
0000
0000
,
1000
0010
0100
0001
0010
0100
1000
0001
,
0100
0010
0001
0010
0100
0001
0010
0100
,
1000
0001
0100
0010
1000
0010
0100
0001
,
0010
0100
0001
0100
1000
0010
0100
0000
,
0001
0100
0010
1000
0100
0010
0001
1000
,
0010
0100
1000
0100
0010
1000
0100
0010
,
0001
1000
0010
0100
0001
0100
0010
1000
,
0100
0010
1000
0010
0001
0100
0010
1000
,
0200
0000
0000
0000
0000
0000
0310
0000
0001
0000
0000
0001
0000
0000
0001
0000
0100
0001
0000
0010
0000
0000
0001
0000
1000
0000
0000
0000
0000
0000
1000
0000
,
0020
0000
0000
0000
0000
0000
0130
0000
0001
0000
0000
0001
0000
0000
0001
0000
0010
0001
0000
0100
0000
0000
0100
0000
1000
0000
0010
0000
0100
0000
0001
0000
,
1001
0000
0000
0000
0000
0000
1000
0000
0100
0000
0000
0100
0000
0000
0100
0000
0110
0000
0000
0000
0000
0000
0010
0000
0001
0000
0000
0001
0000
0000
0001
0000
,
0101
0000
0000
0100
0110
0000
0000
0010
1010
0000
1100
0000
0110
0011
0101
0110
,
0010
1000
0100
0010
0100
1000
0010
0100
,
0001
0010
0001
1000
0010
0100
0001
0010
,
0100
0010
1000
0010
0001
0100
0010
1000
,
0100
0010
0001
1000
0010
0100
0001
1000
,
0010
0100
1000
0100
0001
0010
0100
0010
,
0001
1000
0100
0010
0001
0100
0010
1000
,
0100
0010
1000
0010
0001
0100
0010
1000
,
0100
1000
0010
0100
0001
0010
0100
1000
,
0010
1000
0100
0010
0100
1000
0010
0100
,
0001
0010
0001
1000
0010
0100
0001
0010
,
0100
0010
1000
0010
0001
0100
0010
1000
,
0100
0010
0001
1000
0010
0100
0001
1000
,
0010
0100
1000
0100
0001
0010
0100
0010
,
0001
1000
0100
0010
0001
0100
0010
1000
,
0100
0010
1000
0010
0001
0100
0010
1000
,
0100
1000
0010
0100
0001
0010
0100
1000
,
0100
1000
0010
0100
0010
1000
0100
0010
,
0001
0100
0001
1000
0100
0010
0001
0100
,
0010
0100
1000
0100
0001
0010
0100
1000
,
0010
0100
0001
1000
0100
0010
0001
1000
,
0100
0010
1000
0010
0001
0100
0010
0100
,
0001
1000
0010
0100
0001
0010
0100
1000
,
0010
0100
1000
0100
0001
0010
0100
1000
,
0010
1000
0100
0010
0001
0100
0010
1000
,
0100
1000
0010
0100
0010
1000
0100
0010
,
0001
0100
0001
1000
0100
0010
0001
0100
,
0010
0100
1000
0100
0001
0010
0100
1000
,
0010
0100
0001
1000
0100
0010
0001
1000
,
0100
0010
1000
0010
0001
0100
0010
0100
,
0001
1000
0010
0100
0001
0010
0100
1000
,
0010
0100
1000
0100
0001
0010
0100
1000
,
0010
1000
0100
0010
0001
0100
0010
1000
,
0200
0000
0000
0000
0000
0000
0310
0000
0001
0000
0000
0001
0000
0000
0001
0000
0100
0001
0000
0010
0000
0000
0001
0000
1000
0000
0000
1000
0000
0000
1000
0000
,
0020
0000
0000
0000
0000
0000
0130
0000
0001
0000
0000
0001
0000
0000
0001
0000
0010
0001
0000
0100
0000
0000
0100
0000
0010
0000
0000
0010
0000
0000
0010
0000
,
0110
0000
0000
0000
0000
0000
0010
0000
1000
0000
0000
1000
0000
0000
1000
0000
1001
0000
0000
0000
0000
0000
0001
0000
0100
0000
0000
0100
0000
0000
0100
0000
,
0101
0000
0000
0001
0011
0000
0000
0010
0110
0000
1100
0000
1001
0101
0110
1010
,
0001
0000
1000
0000
0010
0000
1000
0000
0010
0000
1000
0000
0001
1000
0001
0000
,
0010
0001
1000
0001
0010
0001
1000
0001
,
0010
0000
0001
0000
0010
0000
0001
0000
0010
0001
1000
0000
0100
0000
1000
0000
,
0100
1000
0001
1000
0100
1000
0001
1000
,
0001
0000
0100
0000
0010
0000
0100
0000
0010
1000
0001
0000
0100
0000
0001
0000
,
1000
0001
0100
0001
0100
0001
1000
0001
,
0100
0000
0010
0000
0100
0000
0010
0000
1000
0001
0010
0000
0100
0000
0010
0000
,
0100
0010
0001
0010
0100
0010
0100
0010
,
0001
0000
1000
0000
0100
0000
1000
0000
0100
0000
1000
0000
0001
1000
0001
0000
,
0100
0001
1000
0001
0100
0001
1000
0001
,
0100
0000
0001
0000
0100
0000
0001
0000
0100
0001
1000
0000
0010
0000
1000
0000
,
0010
1000
0001
1000
0010
1000
0001
1000
,
0001
0000
0010
0000
0100
0000
0010
0000
0100
1000
0001
0000
0010
0000
0001
0000
,
1000
0001
0010
0001
0010
0001
1000
0001
,
0010
0000
0100
0000
0010
0000
0100
0000
1000
0001
0100
0000
0010
0000
0100
0000
,
0010
0100
0001
0100
0010
0100
0010
0100
,
0001
0000
1000
0000
0010
0000
1000
0000
0010
0000
1000
0000
0001
1000
0001
0000
,
0010
0001
1000
0001
0010
0001
1000
0001
,
0010
0000
0001
0000
0010
0000
0001
0000
0010
0001
1000
0000
0100
0000
1000
0000
,
0100
1000
0001
1000
0100
1000
0001
1000
,
0001
0000
0100
0000
0010
0000
0100
0000
0010
1000
0001
0000
0100
0000
0001
0000
,
1000
0001
0100
0001
0100
0001
1000
0001
,
0100
0000
0010
0000
0100
0000
0010
0000
1000
0001
0010
0000
0100
0000
0010
0000
,
0100
0010
0001
0010
0100
0010
0100
0010
,
0001
0000
1000
0000
0100
0000
1000
0000
0100
0000
1000
0000
0001
1000
0001
0000
,
0100
0001
1000
0001
0100
0001
1000
0001
,
0100
0000
0001
0000
0100
0000
0001
0000
0100
0001
1000
0000
0010
0000
1000
0000
,
0010
1000
0001
1000
0010
1000
0001
1000
,
0001
0000
0010
0000
0100
0000
0010
0000
0100
1000
0001
0000
0010
0000
0001
0000
,
1000
0001
0010
0001
0010
0001
1000
0001
,
0010
0000
0100
0000
0010
0000
0100
0000
1000
0001
0100
0000
0010
0000
0100
0000
,
0010
0100
0001
0100
0010
0100
0010
0100
,
0001
0000
1000
0000
0100
0000
0010
0001
,
0010
0000
0100
0000
1000
0001
0000
1000
,
0010
0000
0100
0000
0001
1000
0000
0001
,
0010
0000
0100
0000
1000
0010
1000
0010
,
0200
0000
0000
0000
,
0000
0000
0000
0000
,
0300
0000
0000
0000
;

//---------------dance-single - ----------------
#NOTES:
     dance-single:
     :
     Challenge:
     18:
     0.792878,1.107282,0.157006,0.039251,0.262984,707.000000,687.000000,20.000000,5.000000,56.000000,0.000000,0.792878,1.107282,0.157006,0.039251,0.262984,707.000000,687.000000,20.000000,5.000000,56.000000,0.000000:
// measure 0
0000
0000
0000
0000
,  // measure 1
0000
0000
0000
0000
,  // measure 2
0000
0000
0000
0000
,  // measure 3
0000
0000
0000
0000
,  // measure 4
0000
0000
0000
0000
,  // measure 5
1000
0010
0100
0001
0010
0100
1000
0001
,  // measure 6
0100
0010
0001
0010
0100
0001
0010
0100
,  // measure 7
1000
0001
0100
0010
1000
0010
0100
0001
,  // measure 8
0010
0100
0001
0100
1000
0010
0100
0000
,  // measure 9
0001
0100
0010
1000
0100
0010
0001
1000
,  // measure 10
0010
0100
1000
0100
0010
1000
0100
0010
,  // measure 11
0001
1000
0010
0100
0001
0100
0010
1000
,  // measure 12
0100
0010
1000
0010
0001
0100
0010
1000
,  // measure 13
0200
0000
0000
0000
0000
0000
0310
0000
0001
0000
0000
0001
0000
0000
0001
0000
0100
0001
0000
0010
0000
0000
0001
0000
1000
0000
0000
0000
0000
0000
1000
0000
,  // measure 14
0020
0000
0000
0000
0000
0000
0130
0000
0001
0000
0000
0001
0000
0000
0001
0000
0010
0001
0000
0100
0000
0000
0100
0000
1000
0000
0010
0000
0100
0000
0001
0000
,  // measure 15
1001
0000
0000
0000
0000
0000
1000
0000
0100
0000
0000
0100
0000
0000
0100
0000
0110
0000
0000
0000
0000
0000
0010
0000
0001
0000
0000
0001
0000
0000
0001
0000
,  // measure 16
0101
0000
0000
0100
0110
0000
0000
0010
1010
0000
1100
0000
0110
0011
0101
0110
,  // measure 17
0010
1000
0100
0010
0100
1000
0010
0100
,  // measure 18
0001
0010
0001
1000
0010
0100
0001
0010
,  // measure 19
0100
0010
1000
0010
0001
0100
0010
1000
,  // measure 20
0100
0010
0001
1000
0010
0100
0001
1000
,  // measure 21
0010
0100
1000
0100
0001
0010
0100
0010
,  // measure 22
0001
1000
0100
0010
0001
0100
0010
1000
,  // measure 23
0100
0010
1000
0010
0001
0100
0010
1000
,  // measure 24
0100
1000
0010
0100
0001
0010
0100
1000
,  // measure 25
0010
1000
0100
0010
0100
1000
0010
0100
,  // measure 26
0001
0010
0001
1000
0010
0100
0001
0010
,  // measure 27
0100
0010
1000
0010
0001
0100
0010
1000
,  // measure 28
0100
0010
0001
1000
0010
0100
0001
1000
,  // measure 29
0010
0100
1000
0100
0001
0010
0100
0010
,  // measure 30
0001
1000
0100
0010
0001
0100
0010
1000
,  // measure 31
0100
0010
1000
0010
0001
0100
0010
1000
,  // measure 32
0100
1000
0010
0100
0001
0010
0100
1000
,  // measure 33
0100
1000
0010
0100
0010
1000
0100
0010
,  // measure 34
0001
0100
0001
1000
0100
0010
0001
0100
,  // measure 35
0010
0100
1000
0100
0001
0010
0100
1000
,  // measure 36
0010
0100
0001
1000
0100
0010
0001
1000
,  // measure 37
0100
0010
1000
0010
0001
0100
0010
0100
,  // measure 38
0001
1000
0010
0100
0001
0010
0100
1000
,  // measure 39
0010
0100
1000
0100
0001
0010
0100
1000
,  // measure 40
0010
1000
0100
0010
0001
0100
0010
1000
,  // measure 41
0100
1000
0010
0100
0010
1000
0100
0010
,  // measure 42
0001
0100
0001
1000
0100
0010
0001
0100
,  // measure 43
0010
0100
1000
0100
0001
0010
0100
1000
,  // measure 44
0010
0100
0001
1000
0100
0010
0001
1000
,  // measure 45
0100
0010
1000
0010
0001
0100
0010
0100
,  // measure 46
0001
1000
0010
0100
0001
0010
0100
1000
,  // measure 47
0010
0100
1000
0100
0001
0010
0100
1000
,  // measure 48
0010
1000
0100
0010
0001
0100
0010
1000
,  // measure 49
0200
0000
0000
0000
0000
0000
0310
0000
0001
0000
0000
0001
0000
0000
0001
0000
0100
0001
0000
0010
0000
0000
0001
0000
1000
0000
0000
1000
0000
0000
1000
0000
,  // measure 50
0020
0000
0000
0000
0000
0000
0130
0000
0001
0000
0000
0001
0000
0000
0001
0000
0010
0001
0000
0100
0000
0000
0100
0000
0010
0000
0000
0010
0000
0000
0010
0000
,  // measure 51
0110
0000
0000
0000
0000
0000
0010
0000
1000
0000
0000
1000
0000
0000
1000
0000
1001
0000
0000
0000
0000
0000
0001
0000
0100
0000
0000
0100
0000
0000
0100
0000
,  // measure 52
0101
0000
0000
0001
0011
0000
0000
0010
0110
0000
1100
0000
1001
0101
0110
1010
,  // measure 53
0001
0000
1000
0000
0010
0000
1000
0000
0010
0000
1000
0000
0001
1000
0001
0000
,  // measure 54
0010
0001
1000
0001
0010
0001
1000
0001
,  // measure 55
0010
0000
0001
0000
0010
0000
0001
0000
0010
0001
1000
0000
0100
0000
1000
0000
,  // measure 56
0100
1000
0001
1000
0100
1000
0001
1000
,  // measure 57
0001
0000
0100
0000
0010
0000
0100
0000
0010
1000
0001
0000
0100
0000
0001
0000
,  // measure 58
1000
0001
0100
0001
0100
0001
1000
0001
,  // measure 59
0100
0000
0010
0000
0100
0000
0010
0000
1000
0001
0010
0000
0100
0000
0010
0000
,  // measure 60
0100
0010
0001
0010
0100
0010
0100
0010
,  // measure 61
0001
0000
1000
0000
0100
0000
1000
0000
0100
0000
1000
0000
0001
1000
0001
0000
,  // measure 62
0100
0001
1000
0001
0100
0001
1000
0001
,  // measure 63
0100
0000
0001
0000
0100
0000
0001
0000
0100
0001
1000
0000
0010
0000
1000
0000
,  // measure 64
0010
1000
0001
1000
0010
1000
0001
1000
,  // measure 65
0001
0000
0010
0000
0100
0000
0010
0000
0100
1000
0001
0000
0010
0000
0001
0000
,  // measure 66
1000
0001
0010
0001
0010
0001
1000
0001
,  // measure 67
0010
0000
0100
0000
0010
0000
0100
0000
1000
0001
0100
0000
0010
0000
0100
0000
,  // measure 68
0010
0100
0001
0100
0010
0100
0010
0100
,  // measure 69
0001
0000
1000
0000
0010
0000
1000
0000
MMMM
0000
1000
0000
0001
1000
0001
0000
,  // measure 70
0010
0001
MMMM
0001
0010
0001
1000
0001
,  // measure 71
0010
0000
0001
0000
MMMM
0000
0001
0000
0010
0001
1000
0000
0100
0000
1000
0000
,  // measure 72
0100
1000
MMMM
1000
0100
1000
0001
1000
,  // measure 73
0001
0000
0100
0000
MMMM
0000
0100
0000
0010
1000
0001
0000
0100
0000
0001
0000
,  // measure 74
1000
0001
MMMM
0001
0100
0001
1000
0001
,  // measure 75
0100
0000
0010
0000
1000
0000
MMMM
0000
1000
0001
0010
0000
0100
0000
0010
0000
,  // measure 76
0100
0010
0001
0010
0100
0010
0100
0010
,  // measure 77
0001
0000
1000
0000
0100
0000
1000
0000
MMMM
0000
1000
0000
0001
1000
0001
0000
,  // measure 78
0100
0001
MMMM
0001
0100
0001
1000
0001
,  // measure 79
0100
0000
0001
0000
MMMM
0000
0001
0000
0100
0001
1000
0000
0010
0000
1000
0000
,  // measure 80
0010
1000
MMMM
1000
0010
1000
0001
1000
,  // measure 81
0001
0000
0010
0000
MMMM
0000
0010
0000
0100
1000
0001
0000
0010
0000
0001
0000
,  // measure 82
1000
0001
MMMM
0001
0010
0001
1000
0001
,  // measure 83
0010
0000
0100
0000
1000
0000
MMMM
0000
1000
0001
0100
0000
0010
0000
0100
0000
,  // measure 84
0010
0100
0001
0100
0010
0100
0010
0100
,  // measure 85
0001
0000
1000
0000
0100
0000
0010
0001
,  // measure 86
0010
0000
0100
0000
1000
0001
0000
1000
,  // measure 87
0010
0000
0100
0000
0001
1000
0000
0001
,  // measure 88
0010
0000
0100
0000
1000
0010
1000
0010
,  // measure 89
0200
0000
0000
0000
,  // measure 90
0000
0000
0000
0000
,  // measure 91
0300
0000
0000
0000
;
