#VERSION:0.83;
#TITLE:Volt Switch;
#SUBTITLE:;
#ARTIST:Synthion;
#TITLETRANSLIT:;
#SUBTITLETRANSLIT:;
#ARTISTTRANSLIT:;
#GENRE:Electric HiTECH;
#ORIGIN:;
#CREDIT:;
#BANNER:Volt Switch.png;
#BACKGROUND:Volt Switch-bg.png;
#PREVIEWVID:;
#JACKET:Volt Switch-jacket.png;
#CDIMAGE:;
#DISCIMAGE:;
#LYRICSPATH:;
#CDTITLE:cdtitle.png;
#MUSIC:Volt Switch.ogg;
#OFFSET:0.880000;
#SAMPLESTART:25.442581;
#SAMPLELENGTH:12.367098;
#SELECTABLE:YES;
#BPMS:0.000=155.000;
#STOPS:64.000=1.161,
112.500=0.387,
158.938=0.387,
206.938=0.387,
333.500=0.387;
#DELAYS:;
#WARPS:;
#TIMESIGNATURES:0.000=4=4;
#TICKCOUNTS:0.000=4;
#COMBOS:0.000=1;
#SPEEDS:0.000=1.000=0.000=0;
#SCROLLS:0.000=1.000;
#FAKES:;
#LABELS:0.000=Song Start;
#BGCHANGES:;
#KEYSOUNDS:;
#ATTACKS:
;

//---------------dance-single - ----------------
#NOTEDATA:;
#CHARTNAME:;
#STEPSTYPE:dance-single;
#DESCRIPTION:;
#CHARTSTYLE:;
#DIFFICULTY:Hard;
#METER:13;
#RADARVALUES:0.605694,0.683694,0.331019,0.577522,0.436663,602.000000,555.000000,47.000000,82.000000,22.000000,0.000000,2.000000,0.000000,0.000000,0.605694,0.683694,0.331019,0.577522,0.436663,602.000000,555.000000,47.000000,82.000000,22.000000,0.000000,2.000000,0.000000,0.000000;
#CREDIT:;
#OFFSET:0.880000;
#BPMS:0.000000=155.000000
;
#STOPS:64.000000=1.161290
,112.500000=0.387091
,158.937500=0.387095
,206.937500=0.387103
,333.500000=0.387080
;
#DELAYS:;
#WARPS:;
#TIMESIGNATURES:0.000000=4=4
;
#TICKCOUNTS:0.000000=4
;
#COMBOS:0.000000=1
;
#SPEEDS:0.000000=1.000000=0.000000=0
;
#SCROLLS:0.000000=1.000000
;
#FAKES:;
#LABELS:0.000000=Song Start
;
#NOTES:
// measure 0
0000
0000
0000
0000
,  // measure 1
0000
0000
0000
0000
,  // measure 2
0000
0000
0000
0000
,  // measure 3
0000
0000
0000
0000
,  // measure 4
0000
0000
0000
0000
,  // measure 5
0001
0000
0000
0000
0010
0000
0000
0000
0001
0000
0000
0010
0000
0000
0100
0000
,  // measure 6
1000
0000
0000
0000
0010
0000
0000
0000
1000
0000
0000
0010
0000
0000
0100
0000
,  // measure 7
0001
0000
0000
0000
1000
0000
0000
0000
0100
0000
0000
1000
0000
0000
0001
0000
,  // measure 8
0100
0000
0000
0000
0100
0000
0000
0000
0100
0000
0000
0010
0000
0000
0100
0000
,  // measure 9
1001
0000
0000
0000
0001
0000
0010
0000
0002
0000
0000
0010
0000
0000
1003
0000
,  // measure 10
1000
0000
0000
0000
1000
0000
0010
0000
2000
0000
0000
0010
0000
0000
3001
0000
,  // measure 11
0002
0000
0023
0000
2030
0000
3010
0001
,  // measure 12
0200
0000
0310
1000
0200
0000
0310
0000
,  // measure 13
0011
0000
0000
0000
1001
0000
0000
0000
0101
0000
0000
0100
1000
0000
0010
0000
,  // measure 14
1010
0000
0000
0000
1001
0000
0000
0000
1100
0000
0000
0100
0001
0000
0010
0000
,  // measure 15
0100
1000
0100
1000
0010
0100
0001
1000
,  // measure 16
0100
0000
2002
3003
0001
0100
0001
0010
,  // measure 17
0001
0100
0000
1000
0000
0000
1000
0000
0100
0001
0000
1000
0000
0001
1000
0000
,  // measure 18
0100
0010
0220
0330
0010
0100
1000
0001
,  // measure 19
1000
0010
0000
0001
0000
0000
0001
0000
0010
0000
1000
0000
0001
0010
0000
0110
,  // measure 20
0000
0011
2002
3003
1000
0100
1000
0010
,  // measure 21
1000
0100
0000
0001
0000
0000
0001
0000
0100
1000
0000
0001
0000
1000
0001
0000
,  // measure 22
0100
0010
0220
0330
0010
0100
0001
1000
,  // measure 23
0100
0010
0000
0210
0000
0000
0010
0000
0010
0000
0010
0000
0310
0000
0100
0000
,  // measure 24
4000
0000
3000
0000
0001
0000
0100
0000
0010
1000
0000
0010
1000
0000
0100
0000
,  // measure 25
0010
0001
0000
0010
0001
0000
0000
0000
0011
0000
0000
1000
0100
0000
0010
0000
,  // measure 26
0001
0000
0001
0000
1000
0000
0010
0000
0100
0001
0000
0100
0001
0000
0010
0000
,  // measure 27
0100
1000
0000
1000
0001
0000
0000
0000
1001
0000
0000
1000
0010
1000
0000
0001
,  // measure 28
0000
1000
0010
0000
1020
0000
0000
0000
0230
0000
0000
0000
0302
0000
0000
0000
,  // measure 29
1003
0000
0100
0000
0010
0001
0000
0100
0000
0010
1000
0000
0100
0000
0010
0000
,  // measure 30
0001
0000
0010
0000
1000
0010
0000
0010
0001
0000
0100
0000
1000
0100
0000
0210
,  // measure 31
0000
0010
0010
0010
0310
0100
0001
1000
,  // measure 32
1001
0002
0020
0033
,  // measure 33
2000
3002
0020
0033
,  // measure 34
2000
0000
3200
0000
0302
0000
0013
1000
,  // measure 35
0200
0320
0001
0031
,  // measure 36
2100
3100
2001
3001
,  // measure 37
1010
1010
1001
0011
,  // measure 38
1000
0010
0001
0010
1000
0100
0001
0100
,  // measure 39
2000
0000
0000
0000
0000
0000
0000
0000
0000
0000
0000
0000
0000
0000
0000
0000
0000
0000
0000
0000
0000
0000
0000
0000
0000
0000
0000
0000
0000
0000
0000
0000
0000
0000
0000
0000
0000
0000
0000
0000
0000
0000
0000
0000
0000
0000
0000
3000
0001
0000
0000
0000
0000
0000
0000
0000
0100
0000
0000
0000
0000
0000
0000
0000
,  // measure 40
0001
0100
M00M
0100
2000
0000
0000
0000
3001
0000
0001
0000
1000
0100
M00M
0100
,  // measure 41
0001
1000
0002
0000
0013
0001
0200
0000
,  // measure 42
0301
0010
M00M
0010
1000
0000
0100
0000
0001
0000
0100
0000
1000
0010
M00M
0010
,  // measure 43
0001
0100
0020
0030
1001
0010
1001
0000
,  // measure 44
1000
0100
M00M
0100
0002
0000
0000
0000
1003
0000
1000
0000
0001
0100
M00M
0100
,  // measure 45
1000
0001
2000
0000
3010
1000
0200
0000
,  // measure 46
1300
0010
M00M
0010
0001
0000
1000
0000
0001
0010
M00M
0010
2000
0000
0000
0000
,  // measure 47
3100
0010
0002
0000
2003
0000
3001
0100
,  // measure 48
0001
0100
M00M
0100
1000
0000
0010
0000
0001
0000
0010
1000
0000
1000
0100
0000
,  // measure 49
0010
0001
0000
0010
0000
0001
0100
0000
1000
0000
0100
0000
0001
0000
0010
0000
,  // measure 50
0001
0010
M00M
0010
1000
0000
0100
0000
0010
0000
1000
0010
0000
0001
0010
0000
,  // measure 51
0001
0000
0100
0000
0010
1000
0000
1001
0000
0000
0110
0000
1000
0100
M00M
0100
,  // measure 52
0001
0000
0010
0000
1000
0000
0010
0001
0000
0001
0100
0000
0010
1000
0000
0010
,  // measure 53
0000
1000
0100
0000
0001
0000
0100
0000
1000
0000
0010
0000
0100
0001
0000
0100
,  // measure 54
0001
0000
1000
0000
0100
0010
0000
0210
0000
0000
0010
0000
0010
0000
0010
0000
,  // measure 55
0310
0100
1000
0001
1001
0000
0002
0000
,  // measure 56
0200
0303
2000
3002
,  // measure 57
0200
0303
2000
3020
,  // measure 58
0032
0000
0103
1000
0020
0000
0230
0000
,  // measure 59
0002
0303
1000
1000
,  // measure 60
0010
0000
0000
1000
0000
0000
1000
0000
0001
0000
0000
0000
0001
0000
0000
0000
,  // measure 61
0010
0000
0000
0001
0000
0000
0001
0000
2000
0000
0000
0000
3020
0000
0000
0000
,  // measure 62
0032
0000
0103
1000
0020
0000
0230
0000
,  // measure 63
0302
0000
0000
1000
0003
0000
0001
0000
0020
0000
0000
0000
2030
0000
0000
0000
,  // measure 64
3001
0100
2000
0000
3001
0100
0010
0000
,  // measure 65
0210
0000
0001
0301
2000
0000
3020
0000
,  // measure 66
0032
0000
1003
0100
0002
0000
0013
0000
,  // measure 67
0220
0000
0330
1000
0001
0100
0001
0100
,  // measure 68
0010
1000
0010
1000
0001
0100
0010
1000
,  // measure 69
0001
0100
1000
0100
0001
0010
1000
0001
,  // measure 70
0100
0000
1000
0000
0001
0000
0010
0000
0100
0000
0000
0000
0110
0000
0000
0010
,  // measure 71
0100
1000
0001
0100
0110
0000
0000
0000
,  // measure 72
0000
0000
0010
0000
0000
0010
0000
1001
0000
0000
1000
0000
0100
0010
0000
0001
,  // measure 73
0000
0010
0001
0000
0100
0000
0010
0000
2020
0000
3030
0000
0001
0000
0100
0000
,  // measure 74
1000
0000
0100
0000
0001
0010
0000
1000
0000
0000
1000
0000
0010
0000
0001
0000
,  // measure 75
1000
0010
0000
0110
0000
0000
0101
0000
2002
0000
3003
0000
1000
0000
0100
0000
,  // measure 76
0001
0000
0100
0000
1000
0010
0000
0001
0000
0000
0001
0000
0010
1000
0000
0010
,  // measure 77
0000
1000
0100
0000
0001
0000
0100
0000
0220
0000
0330
0000
0010
0000
0100
0000
,  // measure 78
1000
0000
0001
0000
0100
0010
0000
0210
0000
0000
0010
0000
0010
0000
0010
0000
,  // measure 79
0310
0000
0100
0000
0004
0000
0003
0000
1000
0000
0010
0000
1000
0010
0000
0001
,  // measure 80
0010
0000
1000
0000
0100
1000
0000
0100
0001
0000
0000
0000
0101
0000
0000
0000
,  // measure 81
1100
0000
0000
1000
0010
0000
0100
0000
0001
0000
0010
0000
0001
0010
0000
1000
,  // measure 82
0010
0000
0001
0000
0100
0001
0000
0100
1000
0000
0000
0000
0110
0000
0000
0001
,  // measure 83
0100
0001
0000
1000
0000
0001
0010
0000
0021
0000
0000
0000
0230
0000
0000
0000
,  // measure 84
2300
0000
0000
0000
3001
0000
0100
0000
0010
1000
0000
0010
1000
0000
0100
0000
,  // measure 85
0001
0000
0100
0000
1000
0000
0010
0000
0001
0010
0000
0100
0001
0000
0010
0000
,  // measure 86
1000
0010
0000
0200
0000
0000
0000
0000
0000
0000
0000
0000
0000
0000
0000
0000
,  // measure 87
0000
0000
0000
0000
0000
0000
0000
0000
0000
0000
0310
0100
0010
0000
0000
0000
,  // measure 88
0100
1001
0000
0000
;

//---------------dance-single - ----------------
#NOTEDATA:;
#CHARTNAME:;
#STEPSTYPE:dance-single;
#DESCRIPTION:;
#CHARTSTYLE:;
#DIFFICULTY:Medium;
#METER:9;
#RADARVALUES:0.441693,0.525316,0.443706,0.436663,0.042258,439.000000,376.000000,63.000000,62.000000,0.000000,0.000000,0.000000,0.000000,0.000000,0.441693,0.525316,0.443706,0.436663,0.042258,439.000000,376.000000,63.000000,62.000000,0.000000,0.000000,0.000000,0.000000,0.000000;
#CREDIT:;
#OFFSET:0.880000;
#BPMS:0.000000=155.000000
;
#STOPS:64.000000=1.161290
,112.500000=0.387091
,156.000000=1.161288
,204.500000=0.387103
,331.500000=0.387080
;
#DELAYS:;
#WARPS:;
#TIMESIGNATURES:0.000000=4=4
;
#TICKCOUNTS:0.000000=4
;
#COMBOS:0.000000=1
;
#SPEEDS:0.000000=1.000000=0.000000=0
;
#SCROLLS:0.000000=1.000000
;
#FAKES:;
#LABELS:0.000000=Song Start
;
#NOTES:
// measure 0
0000
0000
0000
0000
,  // measure 1
0000
0000
0000
0000
,  // measure 2
0000
0000
0000
0000
,  // measure 3
0000
0000
0000
0000
,  // measure 4
0000
0000
0000
0000
0000
0000
0000
1000
,  // measure 5
0010
1000
0001
1000
,  // measure 6
0100
0010
0100
0000
0022
0000
0033
0000
,  // measure 7
0001
0000
0010
0000
0001
0000
1000
0001
,  // measure 8
0100
0010
2020
3030
,  // measure 9
1001
0000
0010
1000
0200
0000
0300
0000
,  // measure 10
1001
0000
0010
0001
0200
0000
0300
0000
,  // measure 11
0001
0000
0100
0000
0010
0000
1000
0100
,  // measure 12
0010
0000
0001
0100
0020
0000
0030
0000
,  // measure 13
1000
0010
0001
0010
,  // measure 14
1000
0100
0001
0100
,  // measure 15
2000
3020
0230
0302
,  // measure 16
1003
0000
1002
0000
0013
0001
0100
0001
,  // measure 17
0010
0000
1001
0000
1000
0000
0010
1000
,  // measure 18
0001
0000
1002
0000
0013
0100
1000
0001
,  // measure 19
0010
0000
0000
0000
1100
0000
0000
0000
0001
0000
0000
0000
1000
0000
0000
1000
,  // measure 20
0000
0001
2001
0000
3010
1000
0100
1000
,  // measure 21
0010
0000
1001
0000
0001
0000
0010
0001
,  // measure 22
1000
0000
2001
0000
3010
0100
0001
1000
,  // measure 23
0010
0000
0000
0220
0000
0000
0000
0000
0000
0000
0000
0000
0000
0000
0000
0000
,  // measure 24
0330
0000
0001
0100
1000
0000
1000
0100
,  // measure 25
0001
0000
0101
0000
1010
0000
0100
0001
,  // measure 26
0001
0000
1000
0100
0001
0000
0001
0100
,  // measure 27
1000
0000
0000
0000
1100
0000
0000
0000
0011
0000
0000
0000
1000
0000
0000
0001
,  // measure 28
0000
1000
1020
0000
0230
0000
0302
0000
,  // measure 29
1003
0100
0010
0000
0001
0100
0010
0000
,  // measure 30
1000
0000
0001
0000
0010
0000
0000
0000
0001
0000
1000
0000
0010
0000
0000
2002
,  // measure 31
0000
0000
0000
3003
,  // measure 32
1001
0001
0020
0030
,  // measure 33
1000
1000
0020
0030
,  // measure 34
0001
0000
0100
0000
0010
0000
1000
0001
,  // measure 35
1000
0001
0010
0010
,  // measure 36
2200
3300
0202
0303
,  // measure 37
1010
1010
0011
0011
,  // measure 38
2000
3200
0302
0023
,  // measure 39
2030
3000
0000
0000
0000
0000
0000
0000
0000
0000
0000
0000
0000
0000
0000
0000
0001
0000
0000
0000
0000
0000
0000
0000
0001
0000
0000
0000
0000
0000
0000
0000
0100
0000
0000
0000
0000
0000
0000
0000
0000
0000
0000
0000
0000
0000
0000
0000
1010
0000
0000
0000
0000
0000
0000
0000
0000
0000
0000
0000
0000
0000
0000
0000
,  // measure 40
0011
0000
1000
1000
0100
0000
0010
0001
,  // measure 41
0100
0000
0201
0000
1300
0000
1000
0100
,  // measure 42
0001
0000
0010
0010
0100
0000
0010
0001
,  // measure 43
0100
0010
2002
0000
3003
0000
0011
0000
,  // measure 44
1010
0000
0001
0001
0100
0000
0010
1000
,  // measure 45
0100
0000
1200
0000
0301
0100
1000
0000
,  // measure 46
0001
0100
0220
0000
0330
0000
0010
0000
,  // measure 47
1001
0000
0001
0100
0010
0000
1000
0010
,  // measure 48
0001
0010
1000
0000
0010
1000
0100
0010
,  // measure 49
0001
0000
0110
0000
1001
0000
0001
0100
,  // measure 50
0010
0000
0000
0000
1000
0000
1000
0000
0001
0000
0000
0000
0100
0000
0000
1001
,  // measure 51
0000
1001
0110
0000
0001
0010
1000
0010
,  // measure 52
0001
0000
0010
0001
0100
0010
1000
0000
,  // measure 53
0100
0000
0010
0000
0001
0000
0000
0000
0100
0000
0010
0000
1000
0000
0000
2002
,  // measure 54
0000
0000
0000
3003
,  // measure 55
1001
1000
0020
0030
,  // measure 56
0001
0001
0020
0030
,  // measure 57
1000
0000
0100
0000
0010
0000
0001
1000
,  // measure 58
0001
1000
0020
0030
,  // measure 59
1000
0000
0010
1000
0200
0000
1300
0000
,  // measure 60
0001
0000
0010
0001
0200
0000
0301
0000
,  // measure 61
1010
0011
1100
0101
,  // measure 62
1000
0000
0001
1000
0200
0000
0310
0001
,  // measure 63
1000
0000
0010
0000
0001
0010
1000
0000
,  // measure 64
1000
0100
0001
0000
0220
0000
0330
0000
,  // measure 65
0001
0000
0010
0000
1000
0000
0010
0001
,  // measure 66
0100
0000
1000
0000
0220
0000
0330
1000
,  // measure 67
0001
0010
0100
1000
,  // measure 68
0001
0100
0010
0000
0100
0000
0010
0000
,  // measure 69
0220
0000
0000
0000
,  // measure 70
0330
0000
0000
0000
0000
0000
0100
0010
,  // measure 71
1001
0000
0000
0000
0000
0000
0000
0000
0000
0000
0100
0000
0000
0010
0000
1001
,  // measure 72
0000
0000
0001
0000
0100
0010
0100
0000
,  // measure 73
1002
0000
1003
0100
0001
0100
0010
0000
,  // measure 74
1100
0000
0000
0000
0001
0000
0000
0000
1000
0000
0000
1000
0000
0000
0001
0000
,  // measure 75
2001
0000
3001
0100
1000
0100
0010
0000
,  // measure 76
0101
0000
1000
0000
0001
1000
0001
0000
,  // measure 77
2001
0000
0000
0000
3100
0000
0010
0000
0001
0000
1000
0000
0100
0000
0000
0220
,  // measure 78
0000
0000
0000
0330
,  // measure 79
0001
0010
1000
0000
1000
0010
0001
0000
,  // measure 80
1100
0011
1010
0001
,  // measure 81
1000
0010
0001
0000
0001
0010
1000
0000
,  // measure 82
0101
0000
0000
0000
1010
0000
0000
0000
0001
0000
0000
1000
0000
0000
0001
0000
,  // measure 83
0021
0000
0230
0000
2300
0000
3001
0100
,  // measure 84
1000
0000
0001
0010
1000
0000
1000
0100
,  // measure 85
0001
0000
0000
0000
1000
0000
0010
0000
0001
0000
0000
0200
0000
0000
0000
0000
,  // measure 86
0000
0000
0000
0000
,  // measure 87
0000
0310
0010
0000
0100
0000
1001
0000
;

//---------------dance-single - ----------------
#NOTEDATA:;
#CHARTNAME:;
#STEPSTYPE:dance-single;
#DESCRIPTION:;
#CHARTSTYLE:;
#DIFFICULTY:Easy;
#METER:5;
#RADARVALUES:0.296810,0.377150,0.147902,0.387362,0.000000,295.000000,274.000000,21.000000,55.000000,0.000000,0.000000,0.000000,0.000000,0.000000,0.296810,0.377150,0.147902,0.387362,0.000000,295.000000,274.000000,21.000000,55.000000,0.000000,0.000000,0.000000,0.000000,0.000000;
#CREDIT:;
#OFFSET:0.880000;
#BPMS:0.000000=155.000000
;
#STOPS:64.000000=1.161290
;
#DELAYS:;
#WARPS:;
#TIMESIGNATURES:0.000000=4=4
;
#TICKCOUNTS:0.000000=4
;
#COMBOS:0.000000=1
;
#SPEEDS:0.000000=1.000000=0.000000=0
;
#SCROLLS:0.000000=1.000000
;
#FAKES:;
#LABELS:0.000000=Song Start
;
#NOTES:
// measure 0
0000
0000
0000
0000
,  // measure 1
0000
0000
0000
0000
,  // measure 2
0000
0000
0000
0000
,  // measure 3
0000
0000
0000
0000
,  // measure 4
0000
0000
0000
0000
,  // measure 5
1000
0000
0010
0000
,  // measure 6
1000
0010
2020
3030
,  // measure 7
0001
0000
0010
0000
,  // measure 8
0001
0010
0022
0033
,  // measure 9
0010
0001
0200
0300
,  // measure 10
0010
1000
0200
0300
,  // measure 11
1000
1000
0001
0001
,  // measure 12
0010
0001
0200
0300
,  // measure 13
0010
0010
0100
0100
,  // measure 14
0001
0001
1000
1000
,  // measure 15
0001
1000
0001
1000
,  // measure 16
0001
0001
0010
0100
,  // measure 17
0010
0001
0001
1000
,  // measure 18
1000
0001
0100
0010
,  // measure 19
0100
0001
0010
0200
,  // measure 20
0300
1000
0010
0100
,  // measure 21
0010
1000
1000
0001
,  // measure 22
0001
1000
0100
0010
,  // measure 23
0001
0022
0000
0000
,  // measure 24
0033
0001
0000
1000
,  // measure 25
0000
0001
0001
1000
,  // measure 26
1000
0010
0000
0100
,  // measure 27
0000
0010
0100
0020
,  // measure 28
0000
0030
0000
0000
1001
0000
0110
0000
,  // measure 29
1001
1000
0100
1000
,  // measure 30
0100
0010
0001
0100
,  // measure 31
0010
2002
0000
0000
,  // measure 32
3003
1000
1000
2000
,  // measure 33
3000
0001
0001
0002
,  // measure 34
0003
1000
0100
0010
,  // measure 35
0001
1000
1000
0001
,  // measure 36
0001
2002
3003
0220
,  // measure 37
0330
1000
1000
0001
,  // measure 38
0001
1000
0100
0010
,  // measure 39
0001
0200
0000
0000
,  // measure 40
0300
0001
0001
0200
,  // measure 41
0320
1030
1000
0200
,  // measure 42
0320
0031
1000
0020
,  // measure 43
2030
3001
1000
0200
,  // measure 44
0310
0220
0330
0200
,  // measure 45
0320
0031
0001
0200
,  // measure 46
0320
1030
0001
0020
,  // measure 47
0032
2000
3003
1001
,  // measure 48
0110
1000
1000
0001
,  // measure 49
0001
1000
0100
0001
,  // measure 50
0100
1000
1000
0010
,  // measure 51
0010
0001
0010
2000
,  // measure 52
0000
3000
0000
0000
0001
0000
1000
0000
,  // measure 53
1000
0001
0100
1000
,  // measure 54
0100
0001
0001
0010
,  // measure 55
0010
2002
0000
0000
,  // measure 56
3003
1000
1000
2000
,  // measure 57
3000
0001
0001
0002
,  // measure 58
0003
1000
0100
0010
,  // measure 59
0001
1000
1000
2000
,  // measure 60
3000
0001
0001
0200
,  // measure 61
0300
1000
1000
0200
,  // measure 62
0300
0001
0010
0100
,  // measure 63
1000
0001
0001
0200
,  // measure 64
0300
0001
0001
0100
,  // measure 65
0100
0010
1000
2020
,  // measure 66
3030
1000
1000
0100
,  // measure 67
0100
0010
0001
0022
,  // measure 68
0033
1000
0100
0010
,  // measure 69
0001
0100
0010
1000
,  // measure 70
0100
0020
0000
0000
,  // measure 71
0000
0030
0000
0000
,  // measure 72
0100
1001
0000
0000
,  // measure 73
0000
0001
0001
1000
,  // measure 74
1000
0001
0100
1000
,  // measure 75
0100
0001
0010
0200
,  // measure 76
0300
1000
0100
0001
,  // measure 77
0100
1000
1000
0010
,  // measure 78
0010
1000
0100
0010
,  // measure 79
0100
2002
0000
0000
,  // measure 80
3003
1000
1000
0010
,  // measure 81
0010
0001
0010
1000
,  // measure 82
1000
0001
0001
0010
,  // measure 83
0010
1000
0010
0002
,  // measure 84
0000
0003
0000
0000
1001
0000
0110
0000
,  // measure 85
1001
0001
0100
0010
,  // measure 86
1000
0100
0001
0100
,  // measure 87
1000
0020
0000
0000
,  // measure 88
0000
0000
0000
0130
,  // measure 89
0010
1001
0000
0000
;

//---------------dance-single - ----------------
#NOTEDATA:;
#CHARTNAME:;
#STEPSTYPE:dance-single;
#DESCRIPTION:;
#CHARTSTYLE:;
#DIFFICULTY:Beginner;
#METER:3;
#RADARVALUES:0.204245,0.253546,0.105644,0.112687,0.000000,203.000000,188.000000,15.000000,16.000000,0.000000,0.000000,0.000000,0.000000,0.000000,0.204245,0.253546,0.105644,0.112687,0.000000,203.000000,188.000000,15.000000,16.000000,0.000000,0.000000,0.000000,0.000000,0.000000;
#CREDIT:;
#OFFSET:0.880000;
#BPMS:0.000000=155.000000
;
#STOPS:;
#DELAYS:;
#WARPS:;
#TIMESIGNATURES:0.000000=4=4
;
#TICKCOUNTS:0.000000=4
;
#COMBOS:0.000000=1
;
#SPEEDS:0.000000=1.000000=0.000000=0
;
#SCROLLS:0.000000=1.000000
;
#FAKES:;
#LABELS:0.000000=Song Start
;
#NOTES:
// measure 0
0000
0000
0000
0000
,  // measure 1
0000
0000
0000
0000
,  // measure 2
0000
0000
0000
0000
,  // measure 3
0000
0000
0000
0000
,  // measure 4
0000
0000
0000
0000
,  // measure 5
1000
0000
0010
0000
,  // measure 6
1000
1000
1000
0000
,  // measure 7
0001
0000
0010
0000
,  // measure 8
0001
0001
0001
0000
,  // measure 9
0100
0000
0010
0000
,  // measure 10
0100
0000
0010
0000
,  // measure 11
1000
0000
0001
0000
,  // measure 12
1000
1000
1000
0000
,  // measure 13
0100
0000
0100
0000
,  // measure 14
0010
0000
0010
0000
,  // measure 15
0200
0000
0000
0000
,  // measure 16
0300
0000
0000
0000
,  // measure 17
0010
0010
0010
0000
,  // measure 18
0001
0000
1000
0000
,  // measure 19
0010
0010
0010
0000
,  // measure 20
1000
0000
0001
0000
,  // measure 21
1001
0000
0100
0100
,  // measure 22
0100
0000
0100
0000
,  // measure 23
1001
0000
0010
0000
,  // measure 24
2002
0000
3003
0000
,  // measure 25
0001
0000
0001
0000
,  // measure 26
0001
0001
0001
0000
,  // measure 27
1000
0000
1000
0000
,  // measure 28
1000
1000
1000
0000
,  // measure 29
0000
2002
0000
3003
,  // measure 30
0001
0000
0100
0000
,  // measure 31
0010
0000
1000
0000
,  // measure 32
0200
0000
0000
0300
,  // measure 33
0010
0010
0010
0000
,  // measure 34
0010
0010
0010
0000
,  // measure 35
0100
0000
0100
0000
,  // measure 36
0010
0010
0010
0000
,  // measure 37
1001
0000
0110
0000
,  // measure 38
1000
1000
1000
0000
,  // measure 39
0001
0001
0001
0000
,  // measure 40
0200
0000
0000
0000
0000
0000
0000
0000
0000
0000
0000
0000
0000
0000
0000
0000
0000
0000
0000
0000
0000
0000
0000
0000
0000
0000
0000
0000
0000
0000
0000
0000
0000
0000
0000
0000
0000
0000
0000
0000
0000
0000
0000
0000
0000
0000
0000
0300
0000
0000
0000
0000
0000
0000
0000
0000
0000
0000
0000
0000
0000
0000
0000
0000
,  // measure 41
0000
0000
0001
0001
,  // measure 42
0000
0000
0010
0010
,  // measure 43
0000
0000
1000
1000
,  // measure 44
0000
0000
0100
0100
,  // measure 45
0100
0000
1000
1000
,  // measure 46
1000
0000
0010
0010
,  // measure 47
0010
0000
0001
0001
,  // measure 48
0002
0000
0003
0000
,  // measure 49
1000
1000
1000
0000
,  // measure 50
0001
1000
0001
0000
,  // measure 51
0001
0001
0001
0000
,  // measure 52
1000
0001
1000
0000
,  // measure 53
0000
0000
1001
0000
,  // measure 54
1000
0001
1000
0000
,  // measure 55
0010
0010
0010
0000
,  // measure 56
2002
0000
3003
0000
,  // measure 57
0100
0100
0100
0000
,  // measure 58
0100
0100
0100
0000
,  // measure 59
0010
0000
0010
0000
,  // measure 60
0100
0100
0100
0000
,  // measure 61
1000
1000
1000
0000
,  // measure 62
0001
0001
0001
0000
,  // measure 63
1000
0000
0001
0000
,  // measure 64
1000
1000
1000
0000
,  // measure 65
0010
0000
1000
0000
,  // measure 66
0001
0001
0001
0000
,  // measure 67
0010
0000
0001
0000
,  // measure 68
1000
1000
1000
0000
,  // measure 69
0001
0000
0100
0000
,  // measure 70
0010
0000
1000
0000
,  // measure 71
0200
0000
0000
0000
,  // measure 72
0300
0000
0000
0000
,  // measure 73
1001
0000
0000
0000
,  // measure 74
1001
0000
0110
0000
,  // measure 75
1000
0001
1000
0000
,  // measure 76
0100
0000
0010
0000
,  // measure 77
1001
0000
0001
1000
,  // measure 78
0001
0000
0100
0000
,  // measure 79
1001
0000
0010
0000
,  // measure 80
2002
0000
3003
0000
,  // measure 81
1000
0000
0010
0000
,  // measure 82
0001
0001
0001
0000
,  // measure 83
0001
0000
0010
0000
,  // measure 84
1000
1000
1000
0000
,  // measure 85
0000
2002
0000
3003
,  // measure 86
1000
0000
0100
0000
,  // measure 87
0010
0000
0001
0000
,  // measure 88
0200
0000
0000
0000
,  // measure 89
0300
0000
0100
0010
,  // measure 90
0100
0000
0000
0000
;

//---------------dance-single - ----------------
#NOTEDATA:;
#CHARTNAME:;
#STEPSTYPE:dance-single;
#DESCRIPTION:;
#CHARTSTYLE:;
#DIFFICULTY:Challenge;
#METER:16;
#RADARVALUES:0.749571,1.025541,0.464835,0.633865,0.795853,745.000000,679.000000,66.000000,90.000000,91.000000,0.000000,4.000000,0.000000,0.000000,0.749571,1.025541,0.464835,0.633865,0.795853,745.000000,679.000000,66.000000,90.000000,91.000000,0.000000,4.000000,0.000000,0.000000;
#CREDIT:;
#OFFSET:0.880000;
#BPMS:0.000000=155.000000
;
#STOPS:64.000000=1.161290
,112.500000=0.387091
,158.937500=0.387095
,206.937500=0.387103
,333.500000=0.387080
;
#DELAYS:;
#WARPS:;
#TIMESIGNATURES:0.000000=4=4
;
#TICKCOUNTS:0.000000=4
;
#COMBOS:0.000000=1
;
#SPEEDS:0.000000=1.000000=0.000000=0
;
#SCROLLS:0.000000=1.000000
;
#FAKES:;
#LABELS:0.000000=Song Start
;
#NOTES:
// measure 0
0000
0000
0000
0000
,  // measure 1
0000
0000
0000
0000
,  // measure 2
0000
0000
0000
0000
,  // measure 3
0000
0000
0000
0000
,  // measure 4
0000
0000
0000
0000
,  // measure 5
0001
0000
0000
0000
0010
0000
0000
0000
0001
0000
0000
0001
0010
0000
0100
0000
,  // measure 6
1000
0000
0000
0000
0010
0000
0000
0000
1000
0000
0000
1000
0010
0000
0100
0000
,  // measure 7
0001
0000
0000
0000
0010
0000
0000
0000
0100
0000
0000
1000
0001
0000
1000
0000
,  // measure 8
1010
0000
0000
0000
1001
0000
0000
0000
0011
0000
0000
1001
0000
0000
1010
0000
,  // measure 9
1001
0000
0000
0000
0001
0000
0010
0000
0002
0000
0000
0100
0000
0000
1003
0000
,  // measure 10
1000
0000
0000
0000
1000
0000
0010
0000
2000
0000
0000
0100
0000
0000
3001
0010
,  // measure 11
0002
0000
0023
0000
2030
0000
3100
0001
,  // measure 12
0020
0000
0000
0000
0031
0000
1000
0000
0002
0000
0000
0100
0000
0000
1003
0000
,  // measure 13
1001
0000
0000
0000
0101
0000
0000
0000
1010
0000
0000
0010
0001
0000
1000
0000
,  // measure 14
1001
0000
0000
0000
1100
0000
0000
0000
0011
0000
0000
0010
1000
0000
0100
0010
,  // measure 15
0001
1000
0001
1000
0010
0100
0010
0100
0001
1000
0100
0010
0001
0100
0010
1000
,  // measure 16
0001
0000
0000
0000
2002
0000
3003
0000
0001
0100
0001
1000
0100
0000
0010
0000
,  // measure 17
0001
0010
MM0M
0010
1000
0000
0100
0000
1000
0010
0000
0010
MM0M
0010
0001
0000
,  // measure 18
0100
0000
0010
0000
0220
0000
0330
0000
1000
0010
1000
0100
0010
0000
0001
0000
,  // measure 19
0100
0000
1000
0000
0MMM
0000
1000
0000
0010
0000
0000
0000
1000
0000
0001
0000
0020
0000
0000
0000
0031
0000
M100
00M0
010M
0000
1000
0000
0000
0000
1001
0000
,  // measure 20
0000
1000
0010
0000
2002
0000
3003
0000
1000
0100
1000
0001
0100
0000
0010
0000
,  // measure 21
1000
0010
MM0M
0010
0001
0000
0100
0000
0001
0010
0000
0010
MM0M
0010
1000
0000
,  // measure 22
0100
0000
0010
0000
0220
0000
0330
0000
0001
0010
0001
0100
0010
0000
1000
0000
,  // measure 23
0100
0001
0000
MM12
0000
0000
0010
0000
0010
0000
0010
0000
0013
0000
0001
1000
,  // measure 24
0040
0000
0030
0000
1000
0000
0010
0000
1000
0100
0000
1000
0100
0000
0010
0000
,  // measure 25
0001
0100
0000
0001
0100
0000
0000
0000
1001
0000
0000
0001
0010
0100
1000
0000
,  // measure 26
0010
0000
0100
0000
0001
0000
0010
0000
0001
0100
0000
0001
0100
0000
0010
0000
,  // measure 27
1000
0100
0000
1000
0010
0000
0000
0000
1001
0000
0000
1000
0010
1000
0000
1001
,  // measure 28
0000
0001
0010
0000
0022
0000
0033
0000
0220
0000
0330
0000
2200
0000
3300
0000
,  // measure 29
0001
0000
0100
0000
1000
0100
0010
0100
0000
0100
0001
0000
0010
0000
1000
0000
,  // measure 30
0010
0000
0001
0000
0100
0010
0000
0010
1000
0000
0100
0000
0010
0001
0000
2001
,  // measure 31
0000
0000
0001
0000
0001
0000
0001
0000
3001
0000
0010
0001
1000
0001
0100
0000
,  // measure 32
2010
3002
0200
0303
,  // measure 33
2000
0000
0000
0000
3002
0000
0000
0000
0200
0000
0000
0000
0303
0000
1000
0010
,  // measure 34
2000
0000
3020
0000
0032
0000
0103
1000
,  // measure 35
0020
0230
0001
0301
,  // measure 36
0102
0013
2100
3010
,  // measure 37
1001
1100
0011
1001
,  // measure 38
1000
0010
1000
0010
1000
0001
1000
0001
1000
0100
0010
0001
0100
0010
1000
0100
,  // measure 39
0020
0000
0000
0000
0000
0000
0000
0000
0000
0000
0000
0000
0000
0000
0000
0000
0000
0000
0000
0000
0000
0000
0000
0000
0000
0000
0000
0000
0000
0000
0000
0000
0000
0000
0000
0000
0000
0000
0000
0000
0000
0000
0000
0000
0000
0000
0000
0030
1001
0000
0000
0000
0000
0000
0000
0000
1000
0000
0000
0000
0000
0000
0000
0000
,  // measure 40
0100
1000
0MMM
1000
0020
0000
0000
0000
0031
0000
0010
0001
0100
0001
MMM0
0001
,  // measure 41
0010
0000
0001
0010
2000
0000
0000
3000
1010
0000
0001
1000
0200
0000
0000
0000
,  // measure 42
0310
0001
MMM0
0001
0200
0000
2300
0000
3020
0000
0031
0010
1000
0010
MM0M
0010
,  // measure 43
0001
0000
1000
0100
0002
0000
0203
0000
1300
0000
0010
0000
1001
0000
0000
0000
,  // measure 44
0100
0001
MMM0
0001
0020
0000
0000
0000
1030
0000
0010
1000
0100
1000
0MMM
1000
,  // measure 45
0010
0000
1000
0010
0002
0000
0000
0003
0011
0000
1000
0001
0200
0000
0000
0000
,  // measure 46
0310
1000
0MMM
1000
0200
0000
0302
0000
0013
0100
0010
0001
2000
0000
0000
0000
,  // measure 47
3001
0000
0100
0000
0010
0100
0010
0100
0040
0000
0030
0000
1001
0000
1000
0000
,  // measure 48
0010
0001
MMM0
0001
0100
0000
1000
0000
0001
0000
0010
1000
0100
1000
0100
1000
,  // measure 49
0010
0000
0100
0001
1000
01M0
01M0
01M0
1000
0000
0100
1000
0020
0000
0000
0000
,  // measure 50
1030
0100
M0MM
0100
0001
0000
0010
0000
1000
0000
0010
0001
0000
0100
1000
0100
,  // measure 51
0001
0000
0000
0000
1000
0000
010M
00M0
M100
0000
0001
0000
0000
0000
1001
0000
0000
0000
0001
0000
0010
0000
0000
0000
0010
0000
1000
0000
0MMM
0000
1000
0000
,  // measure 52
0100
0000
0001
0000
1000
0000
0010
0001
0100
0001
0100
0001
0010
0000
0100
1000
,  // measure 53
0001
01M0
01M0
01M0
0001
0000
0100
0001
0010
0000
0010
0000
0100
1000
0000
1000
,  // measure 54
0010
0000
0010
0000
0100
0001
0000
1002
0000
0000
1000
0000
1000
0000
1000
0000
,  // measure 55
1003
0000
0010
1000
0001
1000
0100
0000
1001
0000
0000
0000
2000
0000
0000
0000
,  // measure 56
0200
3300
1001
0011
,  // measure 57
2200
3300
0002
0023
,  // measure 58
2030
0000
3100
0001
0010
0000
0011
0000
,  // measure 59
2200
3300
1000
0010
,  // measure 60
1000
0000
0000
0010
1000
0000
0100
0010
0001
0000
0000
0000
0010
0000
0000
0000
,  // measure 61
0001
0000
0000
0010
0001
0000
0100
0010
2000
0000
0000
0000
3200
0000
0000
0000
,  // measure 62
0302
0000
0013
1000
0100
0000
0011
0000
,  // measure 63
1100
0000
0000
1001
0000
0000
0101
0000
2010
0000
0000
0000
3020
0000
0000
0000
,  // measure 64
0031
0010
2000
0000
3100
0001
0100
0000
,  // measure 65
0210
0000
1300
1000
0002
0000
0023
0000
,  // measure 66
2030
0000
3010
0001
0200
0000
1300
0000
,  // measure 67
0220
0000
0000
0000
0330
0000
0001
0000
1000
0001
1000
0001
1000
0001
1000
0001
,  // measure 68
1000
0001
1000
0001
1000
0001
1000
0001
0010
0100
0010
0100
0010
0100
0010
0100
,  // measure 69
0010
0100
0010
0100
0010
0100
0010
0100
1000
0001
0100
0010
1000
0001
0010
0100
,  // measure 70
1000
0010
1000
0001
0010
0001
1000
0001
0100
0000
0000
0100
0010
0000
1000
0001
,  // measure 71
1000
0001
1000
0000
0001
0010
0100
1000
0001
0000
0000
0000
0000
0000
0000
0000
,  // measure 72
0000
0000
0001
0000
0000
0010
0000
1100
0000
0000
0001
0000
1000
0010
0000
0010
,  // measure 73
MM0M
0010
0001
0000
0100
0010
1000
0000
2002
0000
3003
0000
0001
0100
1000
0100
,  // measure 74
0001
0000
0000
0000
0010
0000
0000
0000
1000
0000
0010
0000
MM0M
0000
0010
0000
0001
0000
0000
0000
0010
0000
0000
0000
1000
0000
0000
0000
0001
0000
M010
0M00
,  // measure 75
001M
1000
0000
1001
0000
1000
0100
0000
0220
0000
0330
0000
1000
0100
0001
0100
,  // measure 76
1000
0000
0010
0000
0001
0010
MM0M
0010
1000
0000
0010
0000
0001
0100
0000
0100
,  // measure 77
M0MM
0100
1000
0000
0001
0000
0100
0000
0220
0000
0330
0000
1000
0010
0100
0001
,  // measure 78
0010
0000
0001
0000
0100
1000
0000
2M1M
0000
0000
0010
0000
0010
0000
0010
0000
,  // measure 79
3010
0000
1000
0001
0040
0000
0130
0000
1000
0000
0010
0000
0001
0010
MM0M
0010
,  // measure 80
1000
0000
0010
0000
0001
0100
M0MM
0100
1000
0000
0000
0000
1100
0000
0000
0000
,  // measure 81
1010
0000
0000
0100
0001
0000
1000
0000
0001
0000
0010
0000
1000
0010
MM0M
0010
,  // measure 82
0001
0000
0010
0000
1000
0100
M0MM
0100
0001
0000
0000
0000
0001
0010
0100
1000
,  // measure 83
0001
0100
0000
0110
0000
0010
1000
0000
0022
0000
0033
0000
0220
0000
0330
0000
,  // measure 84
2200
0000
3300
0000
1000
0000
0010
0000
0001
0010
0000
1000
0010
1000
0100
0000
,  // measure 85
0001
0100
1000
0000
0001
0000
0100
0000
1000
0100
M0MM
0100
0001
0000
0100
0000
,  // measure 86
0010
0100
0000
2100
0000
0000
0004
0000
0000
0000
0000
0000
0000
0000
0000
0000
,  // measure 87
0000
0000
0000
0000
0000
0000
0000
0000
3003
0000
1000
0001
1000
0000
0000
0010
,  // measure 88
1000
0001
0010
0000
0110
0000
0000
0000
0000
0000
0000
0000
0000
0000
0000
0000
;
