#TITLE:UCHU;
#SUBTITLE:;
#ARTIST:Ken Plus Ichiro;
#TITLETRANSLIT:;
#SUBTITLETRANSLIT:;
#ARTISTTRANSLIT:;
#GENRE:;
#CREDIT:;
#BANNER:UCHU-bn.png;
#BACKGROUND:UCHU-bg.png;
#LYRICSPATH:;
#CDTITLE:;
#MUSIC:UCHU.ogg;
#OFFSET:-0.000000;
#SAMPLESTART:57.390999;
#SAMPLELENGTH:15.000000;
#SELECTABLE:YES;
#BPMS:0.000000=138.000000
,68.000000=69.000000
,84.000000=138.000000
,178.000000=69.000000
,179.000000=138.000000
;
#STOPS:
;
#BGCHANGES:;
#KEYSOUNDS:;
#ATTACKS:;

//---------------dance-single - ----------------
#NOTES:
     dance-single:
     :
     Challenge:
     14:
     0.556153,0.696723,0.009426,0.301642,0.919066,413.000000,412.000000,1.000000,32.000000,0.000000,0.000000,0.556153,0.696723,0.009426,0.301642,0.919066,413.000000,412.000000,1.000000,32.000000,0.000000,0.000000:
// measure 0
0000
0000
0000
0000
,  // measure 1
0000
0000
0000
0000
,  // measure 2
0000
0000
0000
0000
,  // measure 3
0000
0000
0000
0000
,  // measure 4
0000
0000
0000
0000
,  // measure 5
2000
0000
0000
0001
0000
0000
3001
0000
0200
0000
0000
0001
0000
0000
0301
0000
,  // measure 6
0020
0000
0000
0001
0000
0000
0031
0000
0100
0010
1000
0001
0000
0000
0001
0000
,  // measure 7
0002
0000
0000
1000
0000
0000
1003
0000
0200
0000
0000
1000
0000
0000
1300
0000
,  // measure 8
0020
0000
0000
1000
0000
0000
1030
0000
0100
0010
0001
0100
0000
0000
0100
0000
,  // measure 9
0200
0000
0301
0010
0000
0000
0010
0000
0002
0000
1003
0010
0000
0000
0010
0000
,  // measure 10
2000
0000
3001
0010
0000
0000
0010
0000
0100
1000
0001
0010
0000
0000
0010
0000
,  // measure 11
0002
0000
1003
0010
0000
0000
0010
0000
2000
0000
3001
0010
0000
0000
0010
0000
,  // measure 12
0002
0000
0103
0010
0000
0000
0010
0000
0100
0001
1000
0010
0000
0000
0010
0000
,  // measure 13
1000
0001
0010
0100
0000
0000
0100
0000
0010
0001
1000
0010
0000
0000
0010
0000
,  // measure 14
1000
0001
0010
0100
0000
0000
0100
0000
0010
0001
0100
0010
0000
0000
0010
0000
,  // measure 15
0100
0001
1000
0100
1000
0001
0100
0010
0100
0001
0010
0100
0010
0001
1000
0010
,  // measure 16
0100
0000
0000
0100
0000
0000
0100
0010
1000
0000
0100
0000
0010
0001
0010
0001
,  // measure 17
2000
0000
3020
0000
,  // measure 18
2030
0000
3020
0230
,  // measure 19
0302
0000
0000
0023
0000
0000
0000
0000
0032
0000
0000
0200
0003
0000
0000
0000
,  // measure 20
2300
0000
0000
3200
0000
0000
0000
0000
0302
0000
0000
1003
0100
0001
0100
0010
,  // measure 21
0001
0100
0010
1000
,  // measure 22
0100
1000
0010
0100
,  // measure 23
0001
0010
0100
1000
,  // measure 24
0010
0100
0001
0010
,  // measure 25
0100
1000
0010
0100
0001
0010
0100
1000
,  // measure 26
0010
1000
0100
0010
0001
0100
0010
1000
,  // measure 27
0100
1000
0010
0100
0001
0010
0100
1000
0010
0100
0001
0010
0100
1000
0100
0010
,  // measure 28
0001
0000
0000
0000
0000
0000
0000
0000
0100
0001
0000
0001
0000
0001
1000
0000
,  // measure 29
0100
1000
0000
1000
0010
0000
0000
0100
0000
0100
0000
0100
0000
0100
0001
0000
,  // measure 30
0001
0010
0000
0010
0100
0000
0000
0010
0000
0010
0000
0010
0000
0010
0001
0000
,  // measure 31
0100
0001
0000
0001
0010
0000
0000
0100
0000
0100
0000
0100
0000
0100
1000
0000
,  // measure 32
1000
0010
0000
0010
0100
0000
0000
0010
0000
0010
0000
0010
0000
0010
1000
0000
,  // measure 33
0010
1000
0000
1000
0100
0000
0000
0010
0000
0010
0000
0010
0000
0010
0001
0000
,  // measure 34
0001
0100
0000
0100
0010
0000
0000
0100
0000
0100
0000
0100
0000
0100
0001
0000
,  // measure 35
0010
0001
0000
0001
0100
0000
0000
0010
0000
0010
0000
0010
0000
0010
1000
0000
,  // measure 36
1000
0000
0100
0000
1000
0000
0001
0100
0010
0000
0000
0000
1000
0000
0020
0000
0000
0000
0100
0000
0000
0000
0230
0000
0000
0000
0000
0000
0310
0000
0000
0000
,  // measure 37
0100
0001
0000
0001
0010
0000
0010
0100
0000
0100
0000
0100
0000
0100
1000
0000
,  // measure 38
1000
0010
0000
0010
0100
0000
0100
0010
0000
0010
0000
0010
0000
0010
1000
0000
,  // measure 39
0100
1000
0000
1000
0010
0000
0010
0100
0000
0100
0000
0100
0000
0100
0001
0000
,  // measure 40
0001
0010
0000
0010
0100
0000
0100
0010
0000
0010
0000
0010
0000
0010
0001
0000
,  // measure 41
0010
0001
0000
0001
0100
0000
0100
0010
0000
0010
0000
0010
0000
0010
1000
0000
,  // measure 42
1000
0100
0000
0100
0010
0000
0010
0100
0000
0100
0000
0100
0000
0100
1000
0000
,  // measure 43
0010
1000
0000
1000
0100
0000
0100
0010
0000
0010
0000
0010
0000
0010
0001
0000
,  // measure 44
1000
0000
0100
0000
1000
0000
0001
0100
0010
0000
0000
0000
0100
0000
0001
0000
2000
0000
3200
0000
0302
0000
0203
0000
0310
0000
0001
0000
0000
0000
0001
0000
,  // measure 45
0100
0000
0100
0010
0000
0010
0000
0010
0000
0010
1000
0000
1000
0100
0000
0100
,  // measure 46
0010
0000
0010
0100
0000
0100
0000
0100
0000
0100
1000
0000
0010
1000
0000
1000
,  // measure 47
0100
0000
0100
0010
0000
0010
0000
0010
0000
0010
0001
0000
0001
0100
0000
0100
,  // measure 48
0010
0000
0010
0100
0000
0100
0000
0100
0000
0100
0001
0000
0100
0001
0000
0001
,  // measure 49
0010
0000
0010
0100
0000
0100
0000
0100
0000
0100
1000
0000
1000
0010
0000
0010
,  // measure 50
0100
0000
0100
0010
0000
0010
0000
0010
0000
0010
1000
0000
0100
1000
0000
1000
,  // measure 51
0010
0000
0010
0100
0000
0100
0000
0100
0000
0100
0010
0000
1002
0000
0000
0000
,  // measure 52
0000
0013
0001
0100
1000
0100
0002
0000
,  // measure 53
0000
0000
0000
0000
,  // measure 54
0000
0000
0000
0003
;
