#VERSION:0.83;
#TITLE:此岸の戯事;
#SUBTITLE:;
#ARTIST:Akhuta;
#TITLETRANSLIT:Shigan no zaregoto;
#SUBTITLETRANSLIT:;
#ARTISTTRANSLIT:;
#GENRE:GOTHIC ROCK;
#ORIGIN:;
#CREDIT:;
#BANNER:Shigan no zaregoto.png;
#BACKGROUND:;
#PREVIEWVID:;
#JACKET:Shigan no zaregoto-jacket.png;
#CDIMAGE:;
#DISCIMAGE:;
#LYRICSPATH:;
#CDTITLE:;
#MUSIC:Shigan no zaregoto.ogg;
#OFFSET:0.738000;
#SAMPLESTART:56.799999;
#SAMPLELENGTH:15.000000;
#SELECTABLE:YES;
#BPMS:0.000=195.000;
#STOPS:;
#DELAYS:;
#WARPS:;
#TIMESIGNATURES:0.000=4=4;
#TICKCOUNTS:0.000=4;
#COMBOS:0.000=1;
#SPEEDS:0.000=1.000=0.000=0;
#SCROLLS:0.000=1.000;
#FAKES:;
#LABELS:0.000=Song Start;
#BGCHANGES:;
#KEYSOUNDS:;
#ATTACKS:
;

//---------------dance-single - ----------------
#NOTEDATA:;
#CHARTNAME:;
#STEPSTYPE:dance-single;
#DESCRIPTION:;
#CHARTSTYLE:;
#DIFFICULTY:Hard;
#METER:12;
#RADARVALUES:0.722198,0.693346,0.674607,0.183226,0.000000,607.000000,526.000000,81.000000,22.000000,0.000000,0.000000,0.000000,0.000000,0.000000,0.722198,0.693346,0.674607,0.183226,0.000000,607.000000,526.000000,81.000000,22.000000,0.000000,0.000000,0.000000,0.000000,0.000000;
#CREDIT:TonyAkita;
#NOTES:
// measure 0
0000
0000
0000
0000
,  // measure 1
0000
0000
0000
0000
,  // measure 2
0000
0000
0000
0000
,  // measure 3
1000
0010
1000
0001
0100
1000
0100
0001
,  // measure 4
1000
0100
0010
0100
0010
0000
0011
0000
,  // measure 5
0001
0010
0001
0100
1000
0100
0001
0100
,  // measure 6
0010
1000
0010
0100
0010
0001
0010
0100
,  // measure 7
0001
0100
0001
1000
0100
0001
0100
1000
,  // measure 8
0001
0100
0010
0100
0010
0000
1010
0000
,  // measure 9
1001
0000
0001
0101
0000
1000
1100
0000
,  // measure 10
0110
1001
0220
0330
,  // measure 11
0101
0000
0001
1000
0000
0010
0100
0001
,  // measure 12
1000
0100
0010
0001
2000
0000
3000
0000
,  // measure 13
1100
0000
1000
0001
0000
0010
0100
1000
,  // measure 14
0100
0010
0100
0001
0100
0010
0100
1000
,  // measure 15
1100
0000
1000
0001
0000
0010
0100
1000
,  // measure 16
0001
0100
0010
1000
0002
0000
0003
0000
,  // measure 17
1000
0100
0001
0100
1000
0100
0001
0100
,  // measure 18
1000
0100
0010
0001
1001
0000
0000
0000
,  // measure 19
1000
1010
0001
0011
,  // measure 20
1000
0100
1000
0000
0001
0100
0001
0000
,  // measure 21
0001
0101
1000
1100
,  // measure 22
0100
0010
0100
0010
0100
0000
0110
0000
,  // measure 23
1000
1010
0001
0011
,  // measure 24
1000
0100
1000
0000
0001
0100
0001
0000
,  // measure 25
0001
0101
1000
1100
,  // measure 26
0110
1001
0220
0330
,  // measure 27
0001
0011
1000
1010
,  // measure 28
0010
0100
0010
0000
1000
0001
1000
0000
,  // measure 29
0001
0101
1000
1100
,  // measure 30
1000
0001
0010
0001
1000
0000
0110
0000
,  // measure 31
0001
0101
1000
1100
,  // measure 32
0100
0010
0100
0000
1000
0001
1000
0000
,  // measure 33
0001
0011
1000
1010
,  // measure 34
0110
1001
0220
0330
,  // measure 35
0001
0100
0001
0010
0001
0000
0100
0010
,  // measure 36
1000
0100
1000
0010
1000
0000
1001
0000
,  // measure 37
1000
0001
1000
0100
1000
0000
0010
0100
,  // measure 38
0001
1000
0001
0100
0001
0010
0100
1000
,  // measure 39
0100
0001
0100
1000
0100
0000
0010
0001
,  // measure 40
0010
1000
0010
0001
0010
0000
0100
0000
,  // measure 41
1000
0100
0001
0100
1000
0100
0001
0100
,  // measure 42
1000
0010
0001
0010
1000
0010
0001
0010
,  // measure 43
1000
0100
0010
0100
0001
0100
0010
0100
,  // measure 44
1000
0010
0100
0010
0001
0010
0100
0010
,  // measure 45
1000
1000
1010
0000
0001
0001
0011
0000
,  // measure 46
1000
0001
1000
0001
1001
0000
0110
0000
,  // measure 47
0002
0000
0013
0100
1000
0000
0010
0000
,  // measure 48
0200
0000
0301
1000
0001
0000
1001
0000
,  // measure 49
1100
0000
0100
0010
0001
0000
0100
0010
,  // measure 50
1000
0001
0010
0001
1000
0000
1001
0000
,  // measure 51
0001
0100
0010
0100
0001
0000
0100
0000
,  // measure 52
0010
1000
0010
0100
0010
0000
1000
0000
,  // measure 53
0001
0001
0011
0000
1000
1000
1010
0000
,  // measure 54
0001
0001
1001
0000
0220
0000
0330
0000
,  // measure 55
2000
0000
3010
0100
0001
0000
0010
0000
,  // measure 56
0200
0000
1300
0001
1000
0000
1001
0000
,  // measure 57
0101
0000
0100
0010
1000
0000
0100
0010
,  // measure 58
0001
1000
0010
1000
0001
0000
1001
0000
,  // measure 59
1000
0100
0010
0100
1000
0000
0100
0000
,  // measure 60
0010
0001
0010
0100
0010
0000
0001
0000
,  // measure 61
1000
1100
0001
0101
,  // measure 62
0110
1001
0220
0330
,  // measure 63
0000
0001
1000
0000
0100
0100
0100
0100
,  // measure 64
1000
0100
0010
0100
1000
0100
0010
0001
,  // measure 65
0010
0100
0010
0001
0010
0000
1001
0000
,  // measure 66
0001
0100
0010
0100
0001
0100
0010
1000
,  // measure 67
0010
0100
0010
1000
0010
0000
1001
0000
,  // measure 68
1000
0001
0010
0001
1000
0001
0100
0001
,  // measure 69
1000
0100
1000
0001
1000
0010
1000
0000
,  // measure 70
0001
0001
0100
0100
1000
1000
0100
0100
,  // measure 71
0010
0010
0100
0100
0001
0001
1000
1000
,  // measure 72
2002
0000
0000
3003
,  // measure 73
0001
0010
0001
1000
0100
0001
0100
1000
,  // measure 74
0001
0100
0010
0100
0010
0000
1010
0000
,  // measure 75
1000
0010
1000
0100
0001
0100
1000
0100
,  // measure 76
0010
0001
0010
0100
0010
1000
0010
0100
,  // measure 77
1000
0100
1000
0001
0100
1000
0100
0001
,  // measure 78
1000
0100
0010
0100
0010
0000
0011
0000
,  // measure 79
1001
0000
1000
1100
0000
0001
0101
0000
,  // measure 80
0110
1001
0220
0330
,  // measure 81
1000
0001
0100
0010
1000
0010
0100
0001
,  // measure 82
1000
0100
0010
0001
0010
0000
0011
0000
,  // measure 83
0001
1000
0100
0010
0001
0010
0100
1000
,  // measure 84
0100
0010
0100
0001
0100
0010
0100
1000
,  // measure 85
0001
1000
0010
0100
0001
0100
0010
1000
,  // measure 86
0001
0010
0100
1000
0100
0000
1100
0000
,  // measure 87
1001
0000
0001
0011
0000
1000
1010
0000
,  // measure 88
0011
1010
0101
1100
,  // measure 89
0002
0000
0000
0000
,  // measure 90
2003
0000
0000
3100
,  // measure 91
0010
0011
1000
1010
,  // measure 92
0110
1001
0110
0000
;
