#TITLE:Sen Olsan Bari;
#SUBTITLE:;
#ARTIST:Aleyna Tilki;
#TITLETRANSLIT:;
#SUBTITLETRANSLIT:;
#ARTISTTRANSLIT:;
#GENRE:Pop;
#CREDIT:tikal.+;
#MUSIC:Sen Olsan Bari.ogg;
#BANNER:Sen Olsan Bari.png;
#BACKGROUND:Sen Olsan Bari-bg.png;
#CDTITLE:cdtitle.png;
#SAMPLESTART:61.234;
#SAMPLELENGTH:19.592;
#SELECTABLE:YES;
#OFFSET:-2.458;
#BPMS:0.000=98.000;
#STOPS:;
#BGCHANGES:;
#FGCHANGES:;

//--------------- dance-single - tikal. ----------------
#NOTES:
     dance-single:
     tikal.:
     Hard:
     8:
     0,0,0,0,0:
0000
0000
0000
0000
,
0000
0000
0000
0000
,
0000
0000
0000
0000
,
0000
0000
0000
0000
,
1000
0002
0023
0032
0000
0000
0003
0000
,
0001
0000
0000
0020
0230
2300
3000
0000
,
0001
2000
3020
2030
0000
0000
3000
0000
,
0002
0003
0200
0300
0020
0030
2000
3000
,
0001
0010
0100
0010
,
0001
1000
1000
0001
,
1000
0000
0010
0001
0010
0000
0100
0000
,
0001
0000
0010
1000
0010
0000
0100
0000
,
1000
0000
0010
0100
1000
0000
0100
0000
,
0001
0000
0010
0100
0001
0000
0100
0000
,
1000
0010
0001
0100
,
2000
0000
0000
0001
3001
0000
1001
0000
,
1000
0100
0010
0100
,
1000
0001
0001
1000
,
0001
0000
0100
1000
0100
0000
0010
0000
,
1000
0000
0100
0001
0100
0000
0010
0000
,
0001
0000
0100
0010
0001
0000
0010
0000
,
1000
0000
0100
0010
1000
0000
0010
0000
,
0001
0100
1000
0010
,
0002
0000
0000
1000
1003
0000
1001
0000
,
0001
0000
0100
0000
0010
0010
1000
0100
,
1000
0000
0100
0010
0001
0100
1000
0100
,
0002
0000
1003
0000
0100
0100
0010
0001
,
1000
0000
0000
0000
0001
0000
1000
0000
0010
0000
1000
0000
0400
0300
0040
0030
,
0001
0000
1000
0010
0001
0010
0100
0010
,
1000
0000
0010
0000
0100
0000
0001
0010
,
0200
0000
0001
1000
,
0320
0000
0000
0000
0030
0000
0010
0000
1000
0000
0010
0000
0400
0300
0040
0030
,
0002
0000
0000
0003
0002
0000
0000
0003
,
0020
0000
0000
0030
0100
0000
1000
0001
,
2000
0000
0000
3000
2000
0000
0000
0000
,
3020
0000
0000
0030
0100
0000
0001
1000
,
0001
0000
0010
1000
0010
0100
0010
0001
,
0100
0000
1000
0000
0100
0000
0001
0010
,
0100
1001
0010
1001
,
2000
3000
0200
0300
0020
0030
0002
0003
,
1000
0000
0100
0000
0010
0010
0001
0100
,
0001
0000
0100
0010
1000
0100
0001
0100
,
2000
0000
3001
0000
0100
0100
0010
1000
,
0001
0000
0000
0000
1000
0000
0001
0000
0010
0000
0001
0000
0400
0300
0040
0030
,
1000
0000
0001
0010
1000
0010
0100
0010
,
0001
0000
0010
0000
0100
0000
1000
0010
,
0200
0000
1000
0001
,
0320
0000
0030
0010
0001
0010
0100
0010
,
2000
3000
0000
0000
;

//--------------- dance-single - tikal. ----------------
#NOTES:
     dance-single:
     tikal.:
     Challenge:
     12:
     0,0,0,0,0:
0000
0000
0000
0000
,
0000
0000
0000
0000
,
0000
0000
0000
0000
,
0000
0000
0000
0000
,
0001
0000
2000
0000
3020
0000
2030
0000
3000
0001
0000
0000
0001
0000
0000
0000
,
0100
0000
0000
0100
0000
0000
0020
0000
2030
0000
3200
0000
0310
0000
0000
0001
,
1000
0000
0002
0000
0023
0000
0032
0000
0003
1000
0000
0000
1000
0000
0000
0000
,
0002
0003
0200
0300
0020
0030
2000
3000
,
0100
0000
0000
0010
0000
1000
0000
0010
0100
0000
1000
0000
2000
0000
3000
1000
,
0001
0000
0000
0100
0010
0001
0010
0100
0001
0000
1000
0000
1000
0000
0000
0100
,
1000
0000
0000
1000
0020
0000
0032
0000
1003
0200
0000
0302
0000
0000
0003
1000
,
0001
0000
0000
0001
0010
1000
0010
0000
0200
0000
0000
2300
0000
0000
0000
3001
,
1000
0000
0000
1000
0010
0000
0100
0010
0001
0000
1000
0100
0002
0000
0000
0000
,
1003
0000
0000
0001
0010
0000
0100
0010
0100
1000
0000
0000
0002
0000
0000
1003
,
0001
0000
0000
0001
0100
0010
0100
0000
1000
0000
0001
0010
2000
0000
0000
0000
,
3001
0100
1000
0000
0001
0010
1000
0100
0001
1000
0010
0000
0001
0000
0101
0000
,
0100
0000
0000
0010
0000
0001
0000
0010
0100
0000
0001
0000
1002
0000
0103
0001
,
1000
0000
0000
0100
0010
1000
0010
0100
1000
0000
0001
0000
1001
0000
1000
0001
,
0100
0000
0000
0100
0002
0000
0023
0000
2030
3002
0000
0203
0000
0000
1300
0001
,
0100
0000
0000
0100
1000
0100
0001
0000
0020
0000
0000
0230
0000
0000
1300
0001
,
1000
0000
0000
1000
0100
0000
0010
0100
0001
0000
1000
0010
0002
0000
1000
0003
,
0001
0000
0000
1000
0010
0000
0100
0010
0100
0001
0000
0000
2001
0000
3001
1000
,
0001
0000
0000
0001
0010
0100
0010
0000
1000
0000
0001
0100
2000
0000
0000
3001
,
1000
0100
0001
0000
1000
0010
0001
0100
1000
0001
0010
0000
1000
0000
1100
0000
,
0100
0000
0010
0100
1000
0000
0100
0010
0001
0000
0001
0000
0100
0000
0010
0000
,
1000
0000
0100
1000
0010
0000
1000
0001
0010
0000
1000
0000
0010
0000
0001
0000
,
0200
0000
0000
0310
0100
0000
0010
1000
0001
0000
0001
0000
0010
0000
0100
0000
,
0001
0000
0100
1000
0001
0000
0100
0010
0001
0000
0010
0000
4000
3000
0040
0030
,
0100
0000
0000
0100
0010
1000
0010
0100
0002
0000
0013
1000
0020
0000
0130
1000
,
0200
0000
0000
1300
0001
0100
0010
0100
0000
0001
0000
0010
1000
0000
0010
0100
,
0020
0000
0030
0010
0001
0000
1000
0010
2000
0000
3000
0000
0001
0000
0100
0000
,
0010
0000
0000
0010
1000
0000
0100
0010
0100
0000
1000
0000
0004
0003
0040
0030
,
0100
0000
0000
0100
0000
0000
1000
0010
0100
0000
0000
0100
0000
0000
0100
0001
,
0010
0000
0000
0001
0000
0000
0001
0100
0010
0000
0001
0010
0000
1000
0010
0100
,
0010
0000
0000
0010
0000
0000
1000
0100
0010
0000
0000
0010
0000
0000
0010
0001
,
0100
0000
0000
0001
0000
0000
0001
0010
0100
0000
0001
0100
1000
0001
0010
0000
,
0110
0000
0000
0000
0000
0000
0000
0000
0010
0000
0001
0000
0010
0000
1000
00M0
1000
0000
0010
0000
1000
0000
0100
M000
0100
0000
1000
0000
0100
0000
0001
0000
,
0002
0000
0003
0000
1000
0010
0100
0100
0000
0001
0000
0010
0010
1000
0010
0001
,
0100
0000
0010
0100
0000
4000
0000
3100
0010
0000
0100
0010
0000
0004
0000
0013
,
2000
3000
0200
0300
0020
0030
0002
0003
,
0100
0000
0010
0100
0001
0000
0100
0010
1000
0000
1000
0000
0100
0000
0010
0000
,
0001
0000
0100
0001
0010
0000
0001
1000
0010
0000
0001
0000
0010
0000
1000
0000
,
0200
0000
0000
0310
0100
0000
0010
0001
1000
0000
1000
0000
0010
0000
0100
0000
,
1000
0000
0100
0001
1000
0000
0100
0010
1000
0000
0010
0000
0004
0003
0040
0030
,
0100
0000
0000
0100
0010
0001
0010
0100
2000
0000
3010
0001
0020
0000
0130
0001
,
0200
0000
0000
0301
1000
0100
0010
0100
0000
1000
0000
0010
0001
0000
0010
0100
,
0020
0000
0030
0010
1000
0000
0001
0010
0002
0000
0003
0000
1000
0000
0100
0000
,
0020
0000
0000
0000
0030
0000
0100
0001
0100
0000
1000
0000
0010
0000
0002
0000
,
0000
0003
0000
0000
;
