#TITLE:Savior;
#SUBTITLE:;
#ARTIST:William Aoyama & Beverly;
#TITLETRANSLIT:;
#SUBTITLETRANSLIT:;
#ARTISTTRANSLIT:;
#GENRE:Synergetic Cyberpunk;
#CREDIT:;
#BANNER:Savior.png;
#BACKGROUND:Savior-bg.png;
#LYRICSPATH:;
#CDTITLE:;
#MUSIC:Savior.ogg;
#OFFSET:-0.035000;
#SAMPLESTART:45.634998;
#SAMPLELENGTH:15.000000;
#SELECTABLE:YES;
#DISPLAYBPM:100.000000:200.000000;
#BPMS:0.000000=200.000000
,136.000000=100.000000
,144.000000=200.000000
;
#STOPS:204.000000=0.900000
;
#BGCHANGES:;
#KEYSOUNDS:;
#ATTACKS:;

//---------------dance-single - ----------------
#NOTES:
     dance-single:
     :
     Challenge:
     12:
     0.601034,0.657093,0.367846,0.183923,0.000000,366.000000,334.000000,32.000000,16.000000,0.000000,0.000000,0.601034,0.657093,0.367846,0.183923,0.000000,366.000000,334.000000,32.000000,16.000000,0.000000,0.000000:
// measure 0
0000
0000
0000
0000
,  // measure 1
0000
0000
0000
0000
,  // measure 2
0000
0000
0000
0000
,  // measure 3
0000
0000
0000
0000
,  // measure 4
0000
0000
0000
0000
,  // measure 5
0000
0000
0000
0000
,  // measure 6
1000
1000
0100
0000
0001
0001
0100
0000
,  // measure 7
1000
1000
0010
0000
0001
0001
0010
0000
,  // measure 8
1000
0000
0001
0101
0000
0110
0000
1001
,  // measure 9
0000
1100
0000
0110
0000
0100
1100
0000
,  // measure 10
1000
1000
0100
0000
0001
0001
0100
0000
,  // measure 11
1000
1000
0010
0000
0001
0001
0010
0000
,  // measure 12
1000
1000
0010
0000
0001
0001
0010
0000
,  // measure 13
1000
1000
0100
0000
0001
0001
0100
0000
,  // measure 14
1000
0001
0100
0000
0001
1000
0100
0000
,  // measure 15
1000
0001
0010
0000
0001
1000
0010
0000
,  // measure 16
1000
0001
0000
0001
1000
0000
0100
0010
,  // measure 17
0000
0010
0100
0000
1000
0010
1000
0010
,  // measure 18
0100
0001
0010
0000
0100
1000
0010
0000
,  // measure 19
0100
0001
0000
0010
0000
0100
0000
1000
,  // measure 20
0000
0010
0000
1000
0000
0100
0000
0010
,  // measure 21
0000
0001
0000
0100
0000
0010
0000
2000
,  // measure 22
0000
3000
0002
0003
,  // measure 23
2000
0000
3000
0000
0010
1000
0000
0100
,  // measure 24
0000
1000
0000
0010
0000
0100
0000
0001
,  // measure 25
0000
0010
0100
0000
1000
0100
0010
0001
,  // measure 26
1000
0010
0100
0000
0001
0010
0100
0000
,  // measure 27
1000
0100
0010
0000
0001
0100
0010
0000
,  // measure 28
1000
0010
0100
0010
0000
0010
0100
0002
,  // measure 29
0000
0013
0200
0000
2300
0000
3010
0000
,  // measure 30
2000
0100
0001
3010
,  // measure 31
0002
0100
1000
0013
,  // measure 32
0100
1000
0010
0000
0100
0001
0010
0000
,  // measure 33
0100
0010
0001
0000
0100
0010
1000
0000
,  // measure 34
0001
0001
0101
0000
1000
1000
1100
0000
,  // measure 35
1000
0001
0011
0000
0200
0000
0302
0000
,  // measure 36
1003
1000
0100
0000
0001
0001
0100
0000
,  // measure 37
1000
1000
0010
0000
0001
0001
0010
0000
,  // measure 38
0001
0001
0010
0000
1000
1000
0010
0000
,  // measure 39
0001
0001
0100
0000
1000
1000
0100
0000
,  // measure 40
0100
0000
1000
1010
0000
0010
1010
0000
,  // measure 41
0100
0000
0001
0011
0000
0010
0011
0000
,  // measure 42
0200
0301
0020
1030
,  // measure 43
0100
1000
0100
0000
0010
0001
0010
0000
,  // measure 44
0001
0001
0010
0100
1000
1000
0010
0100
,  // measure 45
0001
0001
0010
0100
1000
1000
0010
0100
,  // measure 46
0001
0001
0010
0100
1000
1000
0010
0100
,  // measure 47
0001
0001
0010
0100
1000
1000
0010
0100
,  // measure 48
0002
0010
1000
0103
,  // measure 49
2000
0010
0001
3100
,  // measure 50
0001
0100
0001
0010
0100
1000
0010
1000
,  // measure 51
0001
0000
1000
1000
0100
0000
0001
0001
,  // measure 52
0100
0000
1000
1000
0010
0000
0001
0001
,  // measure 53
0010
0000
1000
0000
0001
0101
0000
0110
,  // measure 54
0000
1001
0000
1100
0000
0110
0000
0100
,  // measure 55
1100
0000
1000
1000
0010
0000
0001
0001
,  // measure 56
0010
0000
1000
1000
0100
0000
0001
0001
,  // measure 57
0100
0000
1000
0000
0001
0101
0000
0110
,  // measure 58
0000
1001
0000
1100
0000
0110
0000
0100
,  // measure 59
1100
0000
1000
1000
0100
0000
0001
0001
,  // measure 60
0100
0000
1000
1000
0010
0000
0001
0001
,  // measure 61
0010
0000
1000
0000
0001
0101
0000
0110
,  // measure 62
0000
1001
0000
1100
0000
0110
0000
0100
,  // measure 63
1100
0000
1000
1000
0010
0010
0100
0100
,  // measure 64
0001
0001
1000
1000
0100
0100
0010
0010
,  // measure 65
0001
0001
0100
0100
0100
0100
0000
0220
,  // measure 66
0000
0000
0000
0000
,  // measure 67
0000
0330
0000
0000
;
