#TITLE:彩虹★快遞;
#SUBTITLE:;
#ARTIST:megawolf77;
#TITLETRANSLIT:RAINBOW★EXPRESS;
#SUBTITLETRANSLIT:;
#ARTISTTRANSLIT:;
#GENRE:HAPPY TRANCE;
#CREDIT:Skeleton & Graphics made by TonyAkita;
#MUSIC:RAINBOW EXPRESS.ogg;
#BANNER:RAINBOW EXPRESS.png;
#BACKGROUND:RAINBOW EXPRESS-bg.png;
#CDTITLE:cdtitle.png;
#SAMPLESTART:63.621;
#SAMPLELENGTH:15.000;
#SELECTABLE:YES;
#OFFSET:1.409;
#BPMS:0.000=166.000;
#STOPS:;
#DISPLAYBPM:166.000;
#ORIGIN:;
#PREVIEWVID:;
#JACKET:RAINBOW EXPRESS-jacket.png;
#CDIMAGE:;
#DISCIMAGE:;
#BGCHANGES:;
#FGCHANGES:;

//--------------- dance-single - forcednature ----------------
#NOTES:
     dance-single:
     forcednature:
     Beginner:
     4:
     0,0,0,0,0:
0000
0000
0000
0000
,
0000
0000
0000
0000
,
0000
0000
0000
0000
,
0000
0000
0000
0000
,
0000
0000
0000
0000
,
1000
0000
0001
0000
,
0100
0000
0100
0000
,
1001
0000
0110
0000
,
0100
0100
0100
0000
,
1001
0000
0000
0000
,
0001
0000
0000
0000
,
0100
0000
0000
0000
,
0010
0000
0000
0000
,
1000
0000
0000
0000
,
0100
0000
0000
0000
,
0010
0000
0010
0000
,
0100
0100
0100
0100
,
0100
0000
0000
0000
,
1000
0000
0000
0000
,
0001
0000
0000
0000
,
0100
0000
0000
0000
,
0010
0000
0000
0000
,
1000
0000
0000
0000
,
0001
0000
0000
0000
,
0010
0000
0000
0000
,
1001
0000
0000
0000
,
0100
0000
0000
0000
,
0110
0000
0000
0000
,
0001
0000
0000
0000
,
1001
0000
0000
0000
,
1001
0000
0000
0000
,
0100
0000
0100
0000
,
0010
0010
0010
0010
,
0020
0000
0000
0000
,
0000
0000
0000
0000
,
0130
0000
0100
0000
,
1000
0000
0001
0000
,
0100
0000
0010
0000
,
1000
0000
0001
0000
,
0100
0100
0100
0100
,
0010
0010
0010
0010
,
2002
0000
0000
0000
,
0000
0000
3003
0000
,
0000
0001
0000
0001
,
0000
1000
0000
1000
,
0010
0100
0000
0100
,
0000
0001
0000
1000
,
0000
0100
0000
0010
,
0000
0100
0000
1000
,
0000
0001
0000
0100
,
0000
0001
0000
1000
,
0000
0010
0000
1000
,
0000
0001
0000
0010
,
0100
0010
0000
0001
,
0000
0100
0010
0010
,
1000
0001
0000
1000
,
0000
0100
0000
0010
,
0000
0001
0000
0100
,
0000
0001
0000
1000
,
0010
0000
0100
0000
,
0001
0001
0001
0001
,
1000
0000
0001
0000
,
0100
0000
0000
0000
,
0001
0000
1000
0000
,
0100
0000
0000
0000
,
1001
0000
0100
0000
,
0110
0000
0001
0000
,
0100
0000
0100
0100
,
0010
0000
0000
0000
,
1001
0000
0000
1000
,
0000
0010
0000
0100
,
0001
0010
0000
0010
,
0000
0100
0000
1000
,
0001
1000
0000
0010
,
0000
0100
0000
0010
,
1000
0000
0001
0000
,
0100
0100
0100
0100
,
0010
0000
0010
0000
,
1000
0000
0001
0000
,
0010
0000
0010
0000
,
0001
0000
1000
0000
,
0100
0000
0100
0000
,
1000
0000
0001
0000
,
1001
0000
0110
0000
,
0100
0100
0100
0100
,
2002
0000
0000
0000
,
0000
0000
0000
0000
,
0000
3003
0000
0000
0000
0000
0000
0000
;

//--------------- dance-single - forcednature ----------------
#NOTES:
     dance-single:
     forcednature:
     Easy:
     6:
     0,0,0,0,0:
0000
0000
0000
0000
,
0000
0000
0000
0000
,
0000
0000
0000
0000
,
0000
0000
0000
0000
,
0000
0000
0000
0000
,
1001
0001
0100
0010
,
1000
0100
0010
0000
,
1001
0000
0110
0000
,
1000
0001
0100
0010
,
0100
0000
0000
0000
,
1000
1000
0001
0001
,
0100
0000
0000
0000
,
0001
0001
1000
1000
,
0100
0000
0010
0000
,
0100
0100
0010
0000
,
1001
0000
0110
0000
,
1000
0001
1000
0001
,
1001
0000
0000
0000
,
0200
0000
0300
0000
,
0020
0000
0030
0000
,
2000
0000
3000
0000
,
0002
0000
0003
0000
,
0020
0000
0030
0000
,
0200
0000
0300
0000
,
0020
0000
0030
0000
,
1001
0000
0000
0000
,
0001
0001
0001
0000
,
0110
0000
0000
0000
,
1000
1000
1000
0000
,
1001
0000
0000
0000
,
0110
0000
0000
0000
,
0100
0100
0010
0010
,
0100
0100
0100
0100
,
2002
0000
0000
0000
,
0000
0000
3003
0000
,
1001
0000
0001
0001
,
1000
0100
1000
0000
,
1001
0000
0110
0000
,
1001
0000
0110
0000
,
1000
0100
0001
0100
,
1000
1000
0001
0001
,
2002
0000
0000
0000
,
0000
0000
3003
0000
,
0001
0001
1000
1000
,
0100
0010
0100
0000
,
0110
0000
0001
0100
,
0001
1000
0010
1000
,
0100
0000
0010
0001
,
0010
0100
1000
0100
,
0010
0000
0001
0100
,
0001
1000
0010
1000
,
0001
0000
1000
0000
,
0100
0100
0010
0000
,
1001
0100
0001
0100
,
0010
1000
0010
0000
,
0110
0001
1000
0001
,
0100
0010
0100
0000
,
0001
0100
1000
0100
,
0010
1000
0010
0000
,
0110
0000
1001
0000
,
0100
0100
0010
0010
,
1001
0000
1000
0001
,
0100
0010
1000
0001
,
0100
0100
0010
0010
,
1000
0001
0010
0100
,
1001
0000
0001
0100
,
1001
0000
1000
0100
,
1001
0010
0100
0010
,
1001
0000
0000
0000
,
0010
0010
0100
0100
,
0001
1000
0100
0010
,
0100
0100
0010
0010
,
0001
1000
0010
0100
,
0010
0010
0100
0100
,
0001
1000
0001
1000
,
0100
0100
0010
0010
,
0100
1000
0001
0000
,
1001
0000
0100
0001
,
0100
1000
0100
0010
,
0100
0000
0010
0001
,
0010
1000
0010
0100
,
0010
0000
1000
0100
,
0001
0010
1000
0000
,
1001
0000
0110
0000
,
0001
1000
0001
1000
,
2002
0000
0000
0000
,
0000
0000
0000
0000
,
0000
3003
0000
0000
0000
0000
0000
0000
;

//--------------- dance-single - forcednature ----------------
#NOTES:
     dance-single:
     forcednature:
     Medium:
     10:
     0,0,0,0,0:
0000
0000
0000
0000
,
0000
0000
0000
0000
,
0000
0000
0000
0000
,
0000
0000
0000
0000
,
0000
0000
0000
0000
,
0001
0101
1000
1100
,
0010
0100
0001
0000
1000
0000
0100
0000
,
0110
0001
0110
1000
,
1001
0000
0001
0100
1000
0100
0001
0000
,
0110
0000
1000
1000
,
0010
1000
0100
0010
,
0110
0000
0001
0001
,
0010
0100
1000
0001
,
0101
0000
1000
1000
,
0001
1000
0100
0010
,
1001
0100
1001
0010
,
1001
0110
1001
0110
,
1002
0000
0000
0003
,
0200
0000
0000
0300
,
0020
0000
0000
0030
,
2000
0000
0000
3000
,
0200
0000
0000
0300
,
0020
0000
0000
0030
,
0200
0000
0000
0300
,
2000
0000
0000
3000
,
2002
0000
3003
0000
,
0002
0100
0103
0000
,
0220
0000
0330
0000
,
2000
0001
3001
0000
,
2002
0000
3003
0000
,
0220
0000
0330
0000
,
2000
0000
0000
0001
3000
0000
0000
0000
0002
0000
0000
1000
0003
0000
0001
0000
,
0200
0000
0320
0000
1030
0001
1000
0001
,
0010
0000
0000
0100
0000
0000
0010
0000
0000
0100
0000
0000
0010
0000
0000
0000
,
0001
0000
0000
1000
0000
0000
0001
0000
0000
1000
0000
0000
0001
0000
0000
0000
,
1000
0000
0000
0100
0000
0000
1000
0000
0000
0100
0000
0000
1000
0000
0000
0000
,
0001
0000
0000
0100
0000
0000
0001
0000
0000
0100
0000
0000
0001
0000
0000
0000
,
0110
0010
1010
0010
,
0011
0100
0110
0100
,
0101
1100
0101
1100
,
0001
0100
0010
1000
0001
0010
0100
1000
,
0010
0000
0000
0200
0000
0000
0000
0000
0000
0000
0000
0000
0000
0000
0000
0000
,
0000
0000
0000
0300
,
0010
0000
1000
0000
0000
0001
0000
0001
,
0010
0000
0100
0000
0000
1000
1000
0000
,
0010
1000
0001
0100
0001
0010
0100
0000
,
1000
1100
0001
0011
,
0001
0100
0010
1000
0100
0010
0001
0000
,
0100
1001
0010
1001
,
1000
0100
0001
0100
1000
0100
0010
0000
,
0001
0100
1000
0100
0001
0100
0010
0000
,
1000
1100
0010
0110
,
0001
1000
0001
1000
0200
0000
0320
0000
,
0130
1000
0001
0100
0001
1000
0100
0000
,
0010
0000
0110
0000
0001
0001
1000
1000
,
0010
0100
0001
0100
0010
1000
0001
0000
,
0100
0110
0001
1001
,
1000
0100
0010
0100
1000
0001
0100
0000
,
0010
1000
0001
0010
0001
0100
0010
0000
,
1100
0001
0101
1000
,
0001
0100
0010
1000
0001
1000
0100
0010
,
0001
0001
0000
1000
,
0000
0010
0000
0100
,
0000
0001
0000
1000
,
0000
0100
0010
0010
,
1001
0000
1000
0100
0010
0000
0001
0000
,
0110
0000
0001
1000
0010
0000
0100
0000
,
0001
1000
0001
1000
0100
0100
0010
0010
,
0200
0000
0000
0300
,
1000
0001
0100
0000
1000
0100
0001
0000
,
0100
0010
1000
0001
0010
0100
1000
0000
,
0001
0010
1000
0000
0010
0100
1000
0000
,
0001
0100
0010
1000
0001
1000
0100
0000
,
0010
0001
0100
0000
1000
0100
0001
0000
,
1000
0100
0010
0001
0100
0010
1000
0000
,
1001
0100
0011
1000
,
0001
0100
1000
0100
0010
0100
0001
1000
,
0100
0110
1000
1001
,
0001
0100
0010
0000
1000
0000
0100
0000
,
0010
1100
0001
0110
,
0001
1000
0100
0000
0010
0100
1000
0000
,
0110
0001
0100
0010
,
1000
0100
0010
0000
0001
0000
0100
0000
,
1001
0100
0011
1000
,
0001
0100
0001
0000
1000
0100
0010
0001
,
2000
0000
0000
0000
,
0000
0000
0000
0000
,
0000
3000
0000
0000
0000
0000
0000
0000
;

//--------------- dance-single - forcednature ----------------
#NOTES:
     dance-single:
     forcednature:
     Hard:
     13:
     0,0,0,0,0:
0000
0000
0000
0000
,
0000
0000
0000
0000
,
0000
0000
0000
0000
,
0000
0000
0000
0000
,
0000
0000
0000
0000
,
1000
0100
1000
0010
0100
0001
0100
1000
,
0100
0001
0010
0100
1000
0000
1001
0000
,
1100
1000
0001
0000
0101
0001
1000
0000
,
0001
0010
1000
0010
0001
0001
1000
1000
,
1001
0000
0010
0000
1000
0001
0100
0000
,
0020
1000
1000
0000
0001
0000
0130
0000
,
0010
0000
1000
0000
0100
0010
0001
0000
,
0200
0010
0010
0000
1000
0000
0301
0000
,
1001
0000
1000
0000
0010
0100
0001
0000
,
2000
0100
0100
0000
0001
0000
3010
0000
,
1001
0100
1001
0010
,
0110
0101
1100
0110
,
0002
0000
0000
0000
0000
0000
0000
0003
,
0020
0000
0000
0000
0000
0000
0000
0030
,
0200
0000
0000
0000
0000
0000
0000
0300
,
0002
0000
0000
0000
0000
0000
0000
0003
,
0200
0000
0000
0000
0000
0000
0000
0300
,
2000
0000
0000
0000
0000
0000
0000
3000
,
0020
0000
0000
0000
0000
0000
0000
0030
,
0100
0001
0100
0010
1000
0001
1000
0100
,
0020
1000
0001
0030
,
0100
0100
0010
0010
,
1002
0100
1003
0000
,
0001
0001
0100
0100
,
0210
1000
0301
0000
,
0120
0001
1030
0000
,
0001
0000
0000
0100
0001
0000
0000
0000
1000
0000
0000
0100
1000
0000
0001
0000
,
0100
0010
1000
0001
0010
0100
0010
0100
,
2000
0100
0001
0010
,
0001
0000
0001
0000
0100
0000
0100
3000
,
1002
0100
1000
0010
,
1000
0000
1000
0000
0100
0000
0100
0003
,
0001
0100
0001
0000
1000
0100
1000
0000
,
0010
0100
0010
0000
1000
0001
1000
0000
,
0110
0011
1010
0110
,
1000
0000
0001
0000
1000
0000
0100
0000
0010
0001
0010
0000
0100
1000
0100
0000
,
2002
0000
0000
0000
,
0000
0000
0000
3003
,
0001
0100
1000
0001
0010
1000
0000
0001
,
1000
0100
0001
1000
0010
0001
1000
0000
,
0010
0000
1000
0000
0100
0000
0010
0001
0000
0001
0010
0000
0100
0000
1000
0000
,
0001
0000
0100
0000
0010
0000
1000
0001
0000
0001
1000
0000
0010
0000
0100
0000
,
0001
0000
0100
0000
0010
0000
1000
0100
0000
0100
1000
0000
0001
0000
0010
0000
,
0100
0000
1000
0000
0001
0000
0100
0010
0000
0010
0100
0000
0001
1000
0001
0000
,
0010
0000
0001
0000
0010
0000
0100
1000
0000
1000
0100
0000
1000
0000
0001
0000
,
0100
0000
0010
0000
1000
0000
0001
0100
0000
0100
0001
0000
1000
0000
0100
0000
,
0010
0000
0001
0000
0010
0000
0100
1000
0000
1000
0001
0000
0100
0000
0001
0000
,
0010
0000
0001
0000
0100
0000
0001
0000
1000
0010
1000
0000
0001
0100
0001
0000
,
1000
0000
0100
0000
0010
0000
0100
1000
0000
1000
0100
0000
0010
0000
0001
0000
,
0100
0000
0010
0000
1000
0000
0010
1000
0001
0100
0001
0000
1000
0100
1000
0000
,
0001
0000
0100
0000
0010
0000
1000
0001
0000
0001
1000
0000
0100
0000
0010
0000
,
0001
0000
0100
0000
0010
0000
1000
0100
0000
0100
1000
0000
0010
0100
0010
0000
,
1000
0000
0001
0000
0100
0000
0001
0010
0000
0010
0001
0000
0100
0000
0010
0000
,
1000
0000
0100
0000
1000
0000
0001
0100
0000
0100
0001
0000
1000
0000
0010
0000
,
1000
0100
0010
0001
0100
0010
1000
0001
,
0010
0000
0100
0000
0010
0000
0100
0000
1000
0001
1000
0000
0001
1000
0001
0000
,
2002
0000
0000
3003
0001
0100
1000
0100
,
0010
0100
0001
0010
0100
1000
0010
0100
,
0001
0000
1000
0000
0010
0000
0000
0000
1000
0000
0000
0001
0000
0000
1000
0000
,
0100
0000
0010
0000
0001
0000
0010
0000
0100
0000
0000
1000
0001
0000
0001
0000
,
0100
0000
0001
0100
0000
0000
0010
0000
1000
0010
0000
0000
1000
0000
0001
0000
,
1000
0100
0010
0001
0010
0100
1000
0001
,
1000
0000
1000
0000
0001
0000
0001
0000
0100
0001
0100
0000
0010
1000
0010
0000
,
0220
0000
0000
0330
,
0001
0100
0010
1000
0001
0010
1000
0010
,
0100
1000
0001
1000
0010
0100
0001
0000
,
1000
0100
0001
0100
0010
0100
1000
0100
,
0001
0100
0010
0100
1000
0001
0100
0000
,
0010
1000
0001
1000
0100
0010
0001
0010
,
1000
0010
0001
0100
0010
1000
0001
0000
,
0100
1000
0100
0001
0010
1000
0010
0001
,
1000
0000
0010
0000
0100
0000
0001
0000
1000
0100
1000
0000
0001
0010
0001
0000
,
0100
0001
0100
0010
1000
0001
1000
0100
,
0010
0100
1000
0001
0100
0000
0110
0000
,
0001
0100
0010
1000
0001
1000
0100
0001
,
0100
1000
0010
0100
0001
0000
1001
0000
,
1000
0010
1000
0001
0010
0001
0100
0010
,
1000
0100
0010
0001
0100
0000
0110
0000
,
0101
0100
0010
0000
1100
0100
0010
0000
,
0001
1000
0010
0100
0001
0001
1000
1000
,
2002
0000
0000
0000
,
0000
0000
0000
0000
,
0000
3003
0000
0000
0000
0000
0000
0000
;

//--------------- dance-double - forcednature ----------------
#NOTES:
     dance-double:
     forcednature:
     Easy:
     6:
     0,0,0,0,0:
00000000
00000000
00000000
00000000
,
00000000
00000000
00000000
00000000
,
00000000
00000000
00000000
00000000
,
00000000
00000000
00000000
00000000
,
00000000
00000000
00000000
00000000
,
00011000
00000000
00001000
01000000
,
00010000
10000000
01000000
00000000
,
10010000
00000000
01100000
00000000
,
00010000
00001000
00000010
00000001
,
00000100
00000000
00000001
00000001
,
00001000
00001000
00000100
00000010
,
00000100
00000000
00010000
00010000
,
00001000
01000000
00010000
01000000
,
00100000
00000000
10000000
10000000
,
00010000
10000000
01000000
00000000
,
10010000
00000000
01100000
00000000
,
00001000
00010000
00000100
00001000
,
00000002
00000000
00000003
00000000
,
00000200
00000000
00000300
00000000
,
00000020
00000000
00000030
00000000
,
00002000
00000000
00003000
00000000
,
00000200
00000000
00000300
00000000
,
00020000
00000000
00030000
00000000
,
00002000
00000000
00003000
00000000
,
02000000
00000000
03000000
00000000
,
20020000
00000000
30030000
00000000
,
00020000
00000000
00030000
00000000
,
00022000
00000000
00033000
00000000
,
00000020
00000000
00000030
00000000
,
00002002
00000000
00003003
00000000
,
00000220
00000000
00000330
00000000
,
00011000
00000000
00001000
00000000
,
00010000
00001000
00010000
00001000
,
02000000
00000000
00000000
00000000
,
00000000
00000000
03000000
00000000
,
01100000
00000000
00010000
00000000
,
01000000
00001000
01000000
00000000
,
00011000
00000000
00000100
00000000
,
00001001
00000000
00000010
00000000
,
00000001
00000100
00000001
00000010
,
00001000
00010000
00001000
00000000
,
00022000
00000000
00000000
00000000
,
00000000
00000000
00033000
00000000
,
00001000
00001000
00001000
00000000
,
00010000
00010000
00010000
00000000
,
00100000
01000000
00100000
10000000
,
01000000
00100000
00010000
00000000
,
01000000
00001000
00010000
00000100
,
00010000
00000010
00001000
00000000
,
00000001
00000010
00000100
00001000
,
00000100
00000010
00000100
00000000
,
00010000
00001000
00100000
01000000
,
00100000
00001000
00010000
00000000
,
00001000
01000000
00010000
10000000
,
00100000
00100000
00100000
00000000
,
01000000
00001000
00010000
00000100
,
00001000
00001000
00001000
00000000
,
00000001
00000100
00000001
00000010
,
00000100
00001000
00000010
00000000
,
00010000
00001000
00100000
00010000
,
10000000
01000000
10000000
00010000
,
10000000
00000000
00100000
01000000
,
00010000
01000000
00100000
10000000
,
01000000
01000000
00100000
00100000
,
00001000
00010000
00000010
00001000
,
00000001
00000001
00001000
00000100
,
00000010
00000010
00000100
00001000
,
00000010
00000100
00000001
00001000
,
00000020
00000000
00000000
00000030
,
00001000
00001000
00000100
00010000
,
00001000
01000000
00010000
00000000
,
10000000
10000000
00010000
00010000
,
01000000
00001000
00010000
00000010
,
00000100
00000100
00000001
00000001
,
00001000
00000010
00001000
00000100
,
00000010
00000100
00001000
00000100
,
00000010
00000001
00000100
00000001
,
00001000
00000000
00000010
00010000
,
00001000
00100000
00001000
00010000
,
00000100
00000000
00010000
00001000
,
01000000
00010000
10000000
00100000
,
10000000
00000000
01000000
00100000
,
00010000
00100000
00001000
00010000
,
00000100
00000000
00000110
00000000
,
00000001
00000100
00000001
00001000
,
00000020
00000000
00000000
00000000
,
00000000
00000000
00000000
00000000
,
00000000
00000030
00000000
00000000
00000000
00000000
00000000
00000000
;

//--------------- dance-double - forcednature ----------------
#NOTES:
     dance-double:
     forcednature:
     Medium:
     11:
     0,0,0,0,0:
00000000
00000000
00000000
00000000
,
00000000
00000000
00000000
00000000
,
00000000
00000000
00000000
00000000
,
00000000
00000000
00000000
00000000
,
00000000
00000000
00000000
00000000
,
00001000
00011000
00100000
01100000
,
10000000
01000000
00100000
00000000
00001000
00000000
00010000
00000000
,
00000110
00001000
00000110
00000001
,
00001001
00000000
00000001
00000100
00001000
00010000
00100000
00000000
,
10010000
00000000
01000000
01000000
,
00010000
00001000
00000010
00000100
,
00000110
00000000
00000001
00000001
,
00000010
00001000
00010000
00100000
,
01100000
00000000
10000000
10000000
,
00010000
00100000
00001000
00010000
,
00011000
00000100
00001001
00000010
,
00011000
01100000
11000000
01010000
,
20010000
00000000
00000000
30000000
,
02000000
00000000
00000000
03000000
,
00200000
00000000
00000000
00300000
,
00002000
00000000
00000000
00003000
,
00000200
00000000
00000000
00000300
,
00000002
00000000
00000000
00000003
,
00002000
00000000
00000000
00003000
,
00020000
00000000
00000000
00030000
,
20020000
00000000
30030000
00000000
,
00020000
00001000
00031000
00000000
,
00000220
00000000
00000330
00000000
,
00002000
00010000
00013000
00000000
,
02020000
00000000
03030000
00000000
,
00002200
00000000
00003300
00000000
,
00000002
00000000
00000000
00000100
00000003
00000000
00000000
00000000
00002000
00000000
00000000
00000100
00003000
00000000
00001000
00000000
,
00000020
00000000
00020030
00000000
00031000
00100000
00001000
00100000
,
01000000
00000000
00000000
10000000
00000000
00000000
01000000
00000000
00000000
10000000
00000000
00000000
01000000
00000000
00000000
00000000
,
00100000
00000000
00000000
00001000
00000000
00000000
00100000
00000000
00000000
00001000
00000000
00000000
00100000
00000000
00000000
00000000
,
00000010
00000000
00000000
00001000
00000000
00000000
00000010
00000000
00000000
00001000
00000000
00000000
00000010
00000000
00000000
00000000
,
00000100
00000000
00000000
00000001
00000000
00000000
00000100
00000000
00000000
00000001
00000000
00000000
00000100
00000000
00000000
00000000
,
00001010
00001000
00011000
00001000
,
01001000
00001000
00001100
00001000
,
00011000
01010000
00011000
00110000
,
10000000
01000000
00100000
00001000
00010000
00000010
00000100
00000001
,
00000100
00000000
00000000
00000020
00000000
00000000
00000000
00000000
00000000
00000000
00000000
00000000
00000000
00000000
00000000
00000000
,
00000000
00000000
00000000
00000030
,
00000100
00000000
00001000
00000000
00010000
01000000
00000000
10000000
,
00010000
00000000
01000000
00000000
00001000
00000100
00000000
00000001
,
00000010
00000100
00001000
00000001
00000100
00001000
00010000
00000000
,
00100000
01100000
10000000
10010000
,
00010000
01000000
00001000
00010000
00000100
00000010
00001000
00000000
,
00010000
00010010
00001000
00101000
,
00001000
00010000
01000000
00100000
00010000
01000000
10000000
00000000
,
01000000
00010000
00100000
00001000
00010000
00000100
00000010
00000000
,
00000001
00001001
00000100
00000110
,
00000001
00000100
00000001
00000010
00002000
00000000
00023000
00000000
,
00130000
01000000
00010000
01000000
00001000
00010000
00000010
00000000
,
00001000
00000000
00000011
00000000
00010000
00010000
00001000
00001000
,
00100000
01000000
10000000
00100000
00010000
00001000
00000010
00000000
,
00000100
00000110
00001000
00011000
,
01000000
00010000
01000000
10000000
01000000
00010000
00100000
00000000
,
00001000
00010000
00000100
00000010
00000001
00000100
00001000
00000000
,
00010100
00001000
01001000
00010000
,
00001000
00100000
01000000
00010000
01000000
10000000
00100000
01000000
,
00010000
00010000
00000000
00001000
,
00000000
00000010
00000000
00000100
,
00000000
00000001
00000000
00000010
,
00000000
00000100
00010000
00010000
,
00011000
00000000
01000000
00010000
00100000
00000000
01000000
00000000
,
10010000
00000000
00010000
01000000
00001000
00000000
00010000
00000000
,
00000100
00001000
00000100
00000010
00000001
00000001
00000100
00000100
,
00000020
00000000
00000000
00000030
,
00000100
00001000
00010000
00000000
00100000
10000000
01000000
00000000
,
00100000
00010000
00100000
00001000
00000100
00001000
00010000
00000000
,
00000100
00001000
00000010
00000000
00000100
00000001
00001000
00000000
,
00000010
00010000
00001000
00010000
01000000
10000000
00100000
00000000
,
01000000
00001000
00010000
00000000
00000100
00001000
00000010
00000000
,
00000100
00000001
00000100
00001000
00010000
01000000
10000000
00000000
,
10010000
01000000
00011000
00000100
,
00000010
00000001
00000100
00001000
00000100
00000001
00000010
00001000
,
00010000
01100000
00010000
00001100
,
00000001
00000100
00000010
00000000
00010000
00000000
00000100
00000000
,
00001000
00010010
00000100
00101000
,
00010000
00001000
01000000
00000000
00100000
10000000
01000000
00000000
,
00110000
00001000
00010000
00000010
,
00000100
00000001
00000010
00000000
00000100
00000000
00010000
00000000
,
00001100
00010000
01010000
00001000
,
00010000
00001000
00000100
00000000
00000001
00000010
00000100
00010000
,
00002000
00000000
00000000
00000000
,
00000000
00000000
00000000
00000000
,
00000000
00003000
00000000
00000000
00000000
00000000
00000000
00000000
;

//--------------- dance-double - forcednature ----------------
#NOTES:
     dance-double:
     forcednature:
     Hard:
     13:
     0,0,0,0,0:
00000000
00000000
00000000
00000000
,
00000000
00000000
00000000
00000000
,
00000000
00000000
00000000
00000000
,
00000000
00000000
00000000
00000000
,
00000000
00000000
00000000
00000000
,
00001000
01000000
00100000
00010000
00001000
00100000
01000000
10000000
,
00100000
00010000
00000100
00001000
00000010
00000100
00000001
00000000
,
00000110
00010000
01100000
00001000
,
00010100
00000000
01001000
00000000
00001000
00010000
01000000
10000000
,
00100000
00000000
10000000
00000000
,
00010000
01000000
00001000
00000100
,
00000010
00000000
00001000
00000000
,
00000001
00000010
00000100
00010000
,
00100000
00000000
10000000
00000000
,
00010000
01000000
00001000
00000100
,
00011000
00000000
00010100
00000000
,
00001001
00000110
00001100
00010100
,
01002000
00000000
00000000
00000000
00000000
00000000
00000000
00003000
,
00020000
00000000
00000000
00000000
00000000
00000000
00000000
00030000
,
02000000
00000000
00000000
00000000
00000000
00000000
00000000
03000000
,
20000000
00000000
00000000
00000000
00000000
00000000
00000000
30000000
,
00020000
00000000
00000000
00000000
00000000
00000000
00000000
00030000
,
00002000
00000000
00000000
00000000
00000000
00000000
00000000
00003000
,
00000002
00000000
00000000
00000000
00000000
00000000
00000000
00000003
,
00000100
00000010
00001000
00010000
01000000
00100000
10000000
01000000
,
00020000
00000000
00002000
00000000
00003000
00000000
00000000
00030000
,
00000200
00000000
00000000
00000000
00000000
00000000
00000000
00000300
,
00000020
00000000
00000002
00000000
00000003
00000000
00000000
00000030
,
00020000
00000000
00000000
00000000
00000000
00000000
00000000
00030000
,
02000000
00000000
00200000
00000000
00300000
00000000
00000000
03000000
,
00002000
00000000
00000200
00000000
00000300
00000000
00000000
00003000
,
00010000
00000000
00000000
01000000
00000000
00000000
00000000
00000000
00001000
00000000
00000000
00000100
00000000
00000000
00010000
00000000
,
00001000
00000100
00000001
00000010
00000100
00010000
00001000
00100000
,
00220000
00000000
00000000
00000000
,
00000000
00000000
00000000
00300000
,
02000000
00000000
00000000
00000000
,
00000000
00000000
00000000
03030000
,
11000000
00000000
01010000
00000000
,
00001100
00000000
00000101
00000000
,
00001001
00000110
00010010
01001000
,
00010000
10000000
01000000
00010000
01000000
00100000
00001000
00000010
,
00000200
00000000
00000000
00000000
,
00000000
00000000
00000000
00000000
00000000
00000000
00000000
00000300
,
00001000
00000000
00000001
00000100
00001000
00010000
00000000
01100000
,
00000000
00000000
10000000
01000000
00010000
00001000
00000010
00000000
,
00000001
00000000
00000100
00000000
00000001
00000000
00000000
00000010
00000000
00000000
00001000
00000000
00010000
00000000
00100000
00000000
,
10000000
00000000
01000000
00000000
00001000
00000000
00000000
01000000
00000000
00000000
00100000
00000000
00001000
00000000
00000100
00000000
,
00000010
00000000
00010000
00000000
00001000
00000000
00000000
00000010
00000000
00000000
00000001
00000000
00000100
00000000
00001000
00000000
,
01000000
00000000
00010000
00000000
00100000
00000000
00000000
10000000
00000000
00000000
00010000
00000000
01000000
00000000
00100000
00000000
,
00001000
00000000
00010000
00000000
00000010
00000000
00000000
00001000
00000000
00000000
00000001
00000000
00000100
00000000
00001000
00000000
,
01000000
00000000
00010000
00000000
10000000
00000000
00000000
01000000
00000000
00000000
00100000
00000000
00010000
00000000
00000010
00000000
,
00001000
00000000
00010000
00000000
00100000
00000000
00000000
00010000
00000000
00000000
00001000
00000000
00000100
00000000
00000001
00000000
,
00000010
00000100
00001000
00000001
00000100
00010000
01000000
00100000
,
10000000
00000000
01000000
00000000
00100000
00000000
00000000
00001000
00000000
00000000
00000010
00000000
00000100
00000000
00001000
00000000
,
00000001
00000000
00000100
00000000
00001000
00000000
00000000
00010000
00100000
00000000
00100000
00000000
01000000
00000000
01000000
00000000
,
00010000
00000000
10000000
00000000
01000000
00000000
00000000
00100000
00000000
00000000
00001000
00000000
00010000
00000000
00100000
00000000
,
10000000
00000000
01000000
00000000
00010000
00000000
00000000
01000000
00000000
00000000
00100000
00000000
00001000
00000000
00010000
00000000
,
00000100
00000000
00001000
00000000
00000001
00000000
00000000
00000100
00000000
00000000
00001000
00000000
00010000
00000000
00000010
00000000
,
00001000
00000000
00010000
00000000
01000000
00000000
00000000
00100000
00000000
00000000
10000000
00000000
01000000
00000000
00100000
00000000
,
00010000
00001000
00000100
00000010
00000001
00000100
00000010
00001000
,
00000001
00000010
00001000
00010000
01000000
00100000
01000000
10000000
,
00200000
00000000
00000000
00300000
01000000
10000000
01000000
00010000
,
01000000
00001000
00000100
00001000
00010000
00000100
00000010
00000001
,
00000100
00000000
00001000
00000000
00010000
00000000
00000000
00000000
01000000
00000000
00000000
10000000
00000000
00000000
00100000
00000000
,
10000000
01000000
00010000
00001000
00000100
00000001
00000010
00000100
,
00001000
00000001
00000000
00000100
00001000
00000000
00010000
01000000
,
10000000
00100000
10000000
00010000
01000000
00100000
00010000
00001000
,
00000010
00000100
00010000
00001000
00000100
00000001
00000010
00010000
,
00000020
00000000
00000000
00000030
,
00000001
00000100
00001000
00010000
00000100
00000010
00001000
00100000
,
00010000
01000000
00100000
00010000
00100000
10000000
01000000
00000000
,
00100000
00010000
01000000
00001000
00010000
00100000
00010000
00000010
,
00001000
00000100
00000010
00000001
00000100
00000010
00000001
00000000
,
00001000
00000100
00000001
00001000
00000100
00000010
00010000
00100000
,
00001000
00010000
00100000
10000000
00010000
01000000
00001000
00000000
,
00000100
00000010
00010000
00001000
00000010
00000100
00010000
00100000
,
10000000
00010000
00100000
01000000
00001000
00000010
00000100
00000000
,
00000001
00000010
00000001
00000100
00001000
00010000
01000000
10000000
,
00010000
01000000
00100000
10000000
00001000
00100000
01000000
00000000
,
00010000
00000100
00001000
00000010
00000001
00000010
00000100
00010000
,
01000000
00001000
00100000
01000000
10000000
00010000
00100000
00000000
,
01000000
10000000
00100000
00001000
00100000
00010000
00000100
00001000
,
00010000
00000010
00000001
00000100
00001000
00000100
00000010
00000000
,
00001010
01000000
00110000
00000100
,
01001000
00000000
00010100
00000000
01000000
00010000
00000100
00001000
,
00020000
00000000
00000000
00000000
,
00000000
00000000
00000000
00000000
,
00000000
00030000
00000000
00000000
00000000
00000000
00000000
00000000
;
