#TITLE:Omaga;
#SUBTITLE:;
#ARTIST:Benny Cristo;
#TITLETRANSLIT:;
#SUBTITLETRANSLIT:;
#ARTISTTRANSLIT:;
#GENRE:;
#CREDIT:;
#MUSIC:Omaga.ogg;
#BANNER:Omaga.png;
#BACKGROUND:Omaga-bg.png;
#CDTITLE:;
#SAMPLESTART:80.656;
#SAMPLELENGTH:15.000;
#SELECTABLE:YES;
#OFFSET:-0.000;
#BPMS:0.000=122.000;
#STOPS:;
#BGCHANGES:0.000=Omaga.avi=1.000=0=0=0=StretchNoLoop====,
99999.000=-nosongbg-=1.000=0=0=0=StretchNoLoop====
;
#FGCHANGES:;

//--------------- dance-single - t7r ----------------
#NOTES:
     dance-single:
     t7r:
     Beginner:
     1:
     0,0,0,0,0:
0000
0000
0000
0000
,
0000
0000
0000
0000
,
0000
0000
0000
0000
,
0000
0000
0000
0000
,
0000
0000
0000
0000
,
1000
0000
0000
0000
,
0001
0000
0000
0000
,
0100
0000
0000
0000
,
0010
0000
0000
0000
,
0000
1000
0000
0000
,
0000
0001
0000
0000
,
0000
0100
0000
0000
,
0010
0010
0010
0000
,
0000
1000
0000
0000
,
0000
0001
0000
0000
,
0000
0010
0000
0000
,
0100
0100
0100
0000
,
0010
0000
0000
0000
,
0001
0000
0000
0000
,
0100
0000
0000
0000
,
1000
0000
0000
0000
,
0010
0000
0010
0000
,
0010
0000
0000
0000
,
0100
0000
0100
0000
,
0100
0000
0000
0000
,
0001
0000
0000
0000
,
1000
0000
0000
0000
,
0010
0000
0010
0000
,
0010
0000
0000
0000
,
0100
0000
0000
0000
,
0001
0000
0000
0000
,
1000
0000
1000
0000
,
1000
0000
0000
0000
,
0001
0000
0000
0000
,
0000
0000
0000
0000
,
1000
0000
0000
0000
,
0000
0000
0000
0000
,
0010
0000
0000
0000
,
0010
0000
0000
0000
,
0100
0000
0000
0000
,
0100
0000
0000
0000
,
0001
0000
0000
0000
,
1000
0000
0000
0000
,
0010
0000
0010
0000
,
0010
0000
0010
0000
,
0100
0000
0000
0000
,
0001
0000
0000
0000
,
1000
0000
1000
0000
,
1000
0000
1000
0000
,
0001
0000
0000
0010
,
0010
0000
0010
0010
,
0010
0000
0000
0000
,
0100
0000
0100
0000
,
1000
0000
0000
1000
,
1000
0000
1000
1000
,
1000
0000
0000
0000
,
0001
0000
0001
0000
,
1000
0000
0000
0000
,
0010
0000
0000
0000
,
0100
0000
0000
0000
,
0001
0000
0001
0000
,
0001
0000
0000
0000
,
0010
0000
0000
0000
,
0100
0000
0000
0000
,
1000
0000
1000
0000
;

//--------------- dance-single - t7r ----------------
#NOTES:
     dance-single:
     t7r:
     Easy:
     4:
     0,0,0,0,0:
0000
0000
0000
0000
,
0000
0000
0000
0000
,
0000
0000
0000
0000
,
0000
0000
0000
0000
,
0000
0000
0000
0000
,
0100
0100
0100
0000
,
0010
0000
0000
0000
,
1000
0000
1000
0000
,
0001
0000
0000
0000
,
1000
0001
0001
0000
,
0001
1000
1000
0000
,
0010
0100
0100
0000
,
0100
0010
0010
0000
,
1000
0100
0100
0000
,
0010
0001
0001
0000
,
1000
0010
0010
0000
,
0100
0001
0001
0000
,
2000
0000
3010
0000
,
0100
0000
0001
0001
,
0020
0000
0130
0000
,
1000
0001
1000
0000
,
0001
0000
0100
0000
,
1000
0000
0010
0000
,
0001
0001
0100
0000
,
0010
1000
0001
1001
,
2000
3100
0000
0100
,
0002
0103
0000
0100
,
0010
0001
1000
0000
,
0010
1000
0001
0000
,
2000
3010
0000
0010
,
0002
0013
0000
0010
,
0001
0001
0001
0000
0001
0000
0000
0000
,
1000
1000
1000
0000
1000
0000
0000
0000
,
0020
0000
0000
0030
,
0200
0000
0000
0300
,
0001
0000
0000
0000
,
1000
0000
0000
0000
,
0100
0000
0100
0000
,
0001
0000
0001
0000
,
1000
0000
0010
0000
,
0002
0000
1003
0000
,
2000
3100
1100
0000
,
0002
0103
0101
0000
,
1000
0010
0001
1000
,
0100
0100
0001
1000
,
0002
0013
0011
0000
,
2000
3010
1010
0000
,
0001
0001
0001
0000
0001
0000
0000
0000
,
1000
1000
1000
0000
1000
0000
0000
0000
,
0020
0000
0000
0130
,
0001
0000
0020
0230
,
0301
0000
0000
0000
,
1000
0001
1000
1001
,
0020
0000
0000
0230
,
1300
0000
0020
0230
,
1300
0000
0000
0000
,
0010
0100
0001
1001
,
0020
0000
0000
2030
,
3100
0000
0020
2030
,
3100
0000
0000
0000
,
0001
0000
0001
0000
,
0020
0000
0000
0032
,
0103
0000
0020
0032
,
0103
0000
0000
0000
,
0001
0000
1000
0000
;

//--------------- dance-single - t7r ----------------
#NOTES:
     dance-single:
     t7r:
     Medium:
     7:
     0,0,0,0,0:
0000
0000
0000
0000
,
0000
0000
0000
0000
,
0000
0000
0000
0000
,
0000
0000
0000
0000
,
0000
0000
0000
0000
,
0100
0000
0100
0000
,
0010
0000
0010
0000
,
1000
0000
1000
0000
,
0001
0001
0001
0000
,
1000
0100
1001
0000
,
0001
0100
0110
0000
,
1000
0010
1001
0000
,
0001
0000
0010
0000
0100
0000
1000
0001
,
1000
0000
0100
0010
0100
0020
0000
0000
,
0031
0000
1000
0010
0100
0000
0001
0000
,
0100
0000
1000
0100
0001
0000
0100
0000
,
0010
0000
0010
0000
1000
0000
0001
1000
,
0002
0000
0000
1003
0010
0000
0000
0000
,
2000
0000
0000
3001
0010
0000
0000
0000
,
0200
0000
0000
0310
0001
0000
0000
0000
,
0000
0100
0000
0100
0010
0000
1000
0000
,
0001
0010
0001
0101
,
1000
0010
1000
1100
,
0000
0001
0100
0000
1000
0100
0001
0000
,
0000
1000
0100
0000
0001
0100
0010
0000
,
0002
0000
0000
0013
0000
0000
0200
0000
0000
0301
0000
0000
0100
0000
0000
0000
,
2000
0000
0000
3010
0000
0000
0200
0000
0000
1300
0000
0000
0100
0000
0000
0000
,
0001
0010
0010
0000
0001
0100
1000
0000
,
0100
0001
1000
0000
0010
0000
1000
0001
,
2000
0000
0000
3100
0000
0000
0020
0000
0000
1030
0000
0000
0010
0000
0000
0000
,
0002
0000
0000
0103
0000
0000
0020
0000
0000
0031
0000
0000
0010
0000
0000
0000
,
0100
0100
0001
0100
1000
0100
0000
0010
,
0010
1000
0010
0000
0100
0001
1000
0000
,
2002
0000
0000
3003
,
0020
0000
0000
0030
,
1000
0000
1000
0000
,
0001
0000
0001
0000
,
0100
0000
0100
0001
1000
0000
1000
0000
,
0010
0000
0010
1000
0001
0000
0001
0000
,
1000
1000
1000
0000
0001
0001
0001
0000
,
0210
0000
0000
0301
,
2000
0000
0000
3100
0000
0000
0002
0000
0000
1003
0000
0000
0010
0000
0000
0000
,
0002
0000
0000
0103
0000
0000
2000
0000
0000
3001
0000
0000
0010
0000
0000
0000
,
1000
0100
0010
0000
1000
1000
0010
0000
,
0001
0100
1000
0000
0110
0000
0001
1000
,
0002
0000
0000
0013
0000
0000
2000
0000
0000
3001
0000
0000
0100
0000
0000
0000
,
2000
0000
0000
3010
0000
0000
0002
0000
0000
1003
0000
0000
0100
0000
0010
0000
,
0100
0100
0001
0100
1000
0100
0000
0010
,
1000
0010
0100
0100
0001
0010
0100
0000
,
2100
0001
0000
3010
,
0102
1003
0020
0130
,
0002
0000
1003
0000
0100
0010
0100
0000
,
0110
0000
1001
0000
0001
1000
1000
0000
,
0012
1000
0000
0103
,
2010
3001
0200
0310
,
2000
0000
3001
0000
0010
0100
0010
0100
,
1000
0100
0001
0100
0010
0010
0000
0001
,
2000
0000
0000
3020
,
0230
0000
0302
0023
,
0230
0000
0000
0300
,
1000
0000
1000
0000
,
0002
0000
0000
0203
,
0320
0000
2030
3200
,
0320
0000
0000
0030
,
0001
0000
1000
0000
;

//--------------- dance-single - t7r ----------------
#NOTES:
     dance-single:
     t7r:
     Hard:
     9:
     0,0,0,0,0:
0000
0000
0000
0000
,
0000
0000
0000
0000
,
0000
0000
0000
0000
,
0000
0000
0000
0000
,
0000
0000
0000
0000
,
0100
0100
0100
0000
,
0010
0000
0010
0000
,
1000
1000
1000
0000
,
0001
0000
0001
0000
,
1100
0000
0001
0100
0010
0000
0001
0000
,
1000
0000
0100
0001
1000
0001
0001
0000
,
0011
0000
1000
0010
0001
1000
0001
0010
,
1000
0000
0101
0000
1000
0100
0001
0100
,
1000
0000
0010
0010
0001
0020
0100
0000
,
0031
0000
0000
0000
1000
0000
0100
0000
0010
0000
0000
0100
0000
0000
0100
0000
,
1000
0000
0001
0100
1000
0001
0010
0100
,
0001
0000
0000
0000
0011
0000
0000
0000
1010
0000
0000
1000
0100
0000
1000
0000
,
0002
0000
0013
0001
0100
0000
0001
0000
,
1000
0000
0100
1000
0010
0100
0001
1000
,
0100
1000
1000
0010
0010
0001
0001
0010
,
0000
1000
0200
0000
0301
0100
1000
0000
,
0010
0000
0000
1000
0100
0000
0000
0000
0010
0000
0000
0001
1000
0000
0000
0000
,
0100
0000
0000
1000
0010
0000
0000
0000
0100
0000
0000
0001
1000
0000
0001
0000
,
1000
0100
0100
0010
0010
1000
0010
0001
,
0000
0100
0100
0010
0010
0001
0010
1000
,
0001
0000
0000
0010
0100
0000
0002
0000
0000
0000
0103
0000
0010
0000
0000
0000
,
0002
0000
0000
0103
1000
0000
0200
0000
0000
0000
0310
0000
1000
0000
0001
0000
,
1000
0010
0010
0100
1000
0100
0001
0000
,
1000
0100
0010
0000
0110
0000
1000
0010
,
2000
0000
0000
3100
0010
0000
2000
0000
0000
0000
3010
0000
0100
0000
0000
0000
,
2000
0000
0000
3010
0001
0000
0020
0000
0000
0000
1030
0000
0001
0000
0000
0000
,
1000
0100
0100
0001
1000
0100
0000
0010
,
0001
0100
0100
1000
0001
0100
0110
0000
,
2002
0000
0000
3003
,
0020
0000
0000
0030
,
0100
0000
0100
0000
,
0001
0000
0001
0000
,
1000
0000
1000
0100
0001
0000
0110
0000
,
0001
0000
0001
0100
1000
0000
0110
0000
,
1000
0100
0100
0000
0001
0100
0100
0000
,
2001
0000
0000
0000
0000
0000
0000
0000
0000
0000
0000
0000
3001
1000
0001
0000
,
2000
0000
0000
3100
0001
0000
0200
0000
0000
0310
0001
0000
1000
0000
0000
0000
,
0020
0000
0000
0130
1000
0000
0200
0000
0000
0310
1000
0000
0001
0000
0100
0000
,
0001
0010
0100
0001
0100
1000
1100
0000
,
1000
0010
0001
0000
0011
0000
0010
0100
,
0002
0000
0000
0013
1000
0000
0020
0000
0000
0130
1000
0000
0001
0000
0000
0000
,
0200
0000
0000
1300
0100
0000
0002
0000
0000
1003
0100
0000
0010
0000
0001
0000
,
1000
0100
0100
0001
1000
0010
0000
0110
,
0001
0100
0100
1000
0001
0010
0100
0000
,
2100
0010
0001
3100
,
0102
1003
0210
0301
,
0120
0000
0000
0000
0001
0000
0000
0000
0130
0000
0010
0000
1000
0000
0000
1000
,
0100
0000
0000
0010
0001
0000
0000
0100
0010
0000
1000
0000
0001
0000
0000
0000
,
0102
0010
1000
0103
,
2010
3001
0120
1030
,
0210
0000
0001
0000
0310
0100
0001
0100
,
0010
0000
1000
0000
0010
0000
0001
0000
0100
0000
1000
0000
0100
0010
0100
0000
,
2001
0000
0000
3200
,
0302
0000
2003
3200
,
0320
0000
0000
0000
,
1000
0000
0130
0000
,
0002
0000
0000
0203
,
2300
0000
3002
0203
,
0320
0000
0000
0000
,
0001
0000
0130
0000
;

//--------------- dance-single - t7r ----------------
#NOTES:
     dance-single:
     t7r:
     Challenge:
     14:
     0,0,0,0,0:
0000
0000
0000
0000
,
0000
0000
0000
0000
,
0000
0000
0000
0000
,
0000
0000
0000
0000
,
0000
0000
0000
0000
,
1000
0000
0000
0100
0010
0000
0100
0000
0000
0100
0010
0000
0001
0000
0000
0100
,
0001
0000
0000
0010
0100
0000
0010
0000
0100
0000
0000
0100
1000
0000
0001
0000
,
1000
0000
0000
0100
0001
0000
0100
0000
0001
0000
0000
0100
1000
0000
0001
0000
,
1000
0000
0000
0010
0001
0000
0010
0000
0200
0000
0000
0000
0301
0000
0000
0000
,
1001
0000
0000
0000
1000
0100
1000
0000
0001
0000
0200
0000
0010
0000
0000
0000
,
0301
0000
0000
0000
0010
0001
0010
0000
0001
0000
0100
0000
0100
0000
0000
0000
,
0001
0000
0000
0000
0010
0000
0000
0001
0100
0000
0000
0000
0010
0000
0000
1000
,
0100
0000
0000
0000
1000
0001
0010
0000
0001
0000
0000
0000
1000
0000
1000
0000
,
0001
0000
0010
1000
0010
0200
1000
0000
,
0310
0001
0000
0000
1000
0000
0100
0000
0001
0000
0000
0100
0010
0000
0001
0000
,
0100
0000
0000
0000
0001
0000
0000
1000
0010
0000
0000
0000
1000
0000
0000
0001
,
0100
0000
0000
0000
0001
1000
0010
0000
0100
0000
0000
0100
0010
1000
0001
0000
,
1000
0000
0100
0000
0001
0000
0100
0010
0001
0000
1000
0010
0001
0000
1000
0100
,
0001
0000
1000
0000
0001
0000
0010
0000
0001
0100
1000
0000
0001
0010
1000
0000
,
0001
0010
0011
0001
0100
0010
0110
1010
,
1000
0000
0100
0000
1100
0000
0000
0000
0100
0010
0001
0000
1000
0000
0001
0000
,
0100
0000
0000
0001
1000
0000
0100
0000
0010
0000
1000
0010
0001
0000
0100
0010
,
0001
0000
0010
0000
1000
0000
0001
0010
1000
0000
0010
0100
1000
0000
0001
0000
,
1000
0100
1100
0100
0110
0010
0011
1001
,
0001
0100
0101
0100
0110
1010
1001
0110
,
0002
0000
0000
0103
0010
0000
0002
0000
0000
0013
1000
0000
0001
0000
1000
0000
,
0002
0000
0000
0013
0100
0000
0002
0000
0000
0103
1000
0000
0001
0000
1000
0000
,
0100
0000
0001
0000
0101
0000
0100
0010
0001
0000
1000
0000
1010
0000
0000
0000
,
0010
0000
0001
0000
0011
0000
0001
0010
0100
0000
0001
1000
0100
1000
0010
0000
,
2000
0000
0000
3010
0100
0000
2000
0000
0000
3100
0001
0000
1000
0000
0001
0000
,
2000
0000
0000
3100
0010
0000
2000
0000
0000
3010
0001
0000
1000
0000
0010
0000
,
1010
0000
0010
0100
0001
0000
0010
0000
0001
0000
0011
0000
0000
0000
1001
0000
,
0101
0000
0001
0100
0010
0000
1000
0000
0100
0001
0100
0000
0010
0001
1000
0000
,
0020
0000
0000
0000
0000
0000
0001
0000
0000
0000
0100
0000
0000
0130
0000
0000
,
2000
0000
0000
0000
0000
0000
0100
0000
0000
0000
0001
0000
0000
3001
0000
0000
,
0200
0000
0000
0000
0000
0000
0010
0000
0000
0000
1000
0000
0000
0310
0000
0000
,
0002
0000
0000
0000
0000
0000
0010
0000
0000
0000
1000
0000
0000
0103
0000
0000
,
1001
0000
0000
0000
0000
0000
0000
0000
0000
0001
0000
0000
1000
0000
0000
0000
0000
0000
0001
0000
0000
0100
0010
0100
,
0010
0000
0010
0000
1000
0000
0010
0000
0010
0000
1000
0001
1000
0000
0001
0000
,
1000
0100
0100
0001
0100
0100
1000
0001
,
2001
0000
0000
0000
0000
0000
0000
0000
0000
0000
3001
0010
1000
0001
0100
0010
,
0002
0000
0103
0010
0001
0000
2000
0000
3100
0010
1000
0000
0001
0000
0010
0000
,
2000
0000
3010
0100
1000
0000
0002
0000
0103
0010
0001
0000
1000
0000
0100
0000
,
0001
0000
0010
0001
1000
0000
0100
0000
1100
0000
0110
0000
0011
0000
0000
0000
,
0200
0000
0301
0010
1000
0000
0020
0000
0000
0000
0031
0010
1000
0010
0100
0000
,
2000
0000
3010
0100
1000
0000
0002
0000
0013
0100
0001
0000
1000
0000
0100
0000
,
0002
0000
0103
0010
0001
0000
2000
0000
3010
0100
1000
0000
0100
0000
0001
0000
,
1000
0000
0001
1000
0100
0000
1100
0000
0110
0000
0011
0000
0001
0000
0100
0001
,
1000
0000
1001
0000
0011
0000
0110
0000
1100
0000
1000
0010
0001
0010
0100
0000
,
0010
0000
0000
0010
1000
0000
0000
1000
0100
0000
0000
0100
0010
0001
1000
0000
,
0001
0000
0000
0001
0100
0000
0000
0100
0010
0000
0000
0010
1000
0001
0010
0000
,
0100
0000
0001
0100
1000
0000
0100
0000
0010
0000
0001
0010
1000
0000
0010
0100
,
1000
0000
0000
1000
0100
0000
0000
0100
0001
0000
0100
0000
0010
0000
0001
1000
,
0020
0000
1000
0001
0000
0000
0001
1000
0000
0000
1000
0001
0030
0000
0001
1000
,
0200
0000
1000
0001
0000
0000
0001
1000
0000
0000
1000
0001
0300
0000
0001
1000
,
0010
0000
1000
0100
0001
0000
1000
0000
0010
0000
0001
0100
0010
0000
0100
0000
,
0001
0000
1000
0100
0001
0000
1000
0010
0100
0000
1000
0000
0001
0100
1000
0000
,
0110
0000
1000
0200
0000
0000
1300
0000
0001
0000
0100
0001
0000
0000
1000
0000
,
0001
0000
0010
0002
0000
0000
0103
0000
0010
0000
1000
0010
0000
0000
1000
0000
,
0001
0000
0010
1000
0000
0000
0001
0000
0100
0000
1000
0001
0000
0000
0100
0000
,
0001
0000
0000
0001
0100
0000
0000
0100
1000
0000
0100
0000
0010
0000
0000
0000
,
0210
0000
0000
0302
,
0023
0000
2030
3200
,
0302
0000
0000
0003
,
1000
1000
0001
0001
0000
0000
0000
0000
;
