#TITLE:Never Gonna Wake You Up;
#SUBTITLE:;
#ARTIST:Avicii & Rick Astley (feat. Chumbawamba);
#TITLETRANSLIT:;
#SUBTITLETRANSLIT:;
#ARTISTTRANSLIT:;
#GENRE:;
#CREDIT:;
#BANNER:Never Gonna Wake You Up-bn.png;
#BACKGROUND:Never Gonna Wake You Up-bg.png;
#LYRICSPATH:;
#CDTITLE:;
#MUSIC:Never Gonna Wake You Up.ogg;
#OFFSET:1.913000;
#SAMPLESTART:92.056000;
#SAMPLELENGTH:15.000000;
#LASTBEATHINT:1.888906;
#SELECTABLE:YES;
#DISPLAYBPM:123.000000:128.000000;
#BPMS:0.000000=124.134003
,100.000000=124.000000
,116.000000=128.399994
,117.000000=124.000000
,190.000000=126.999992
,193.000000=125.999992
,195.000000=123.000000
,195.500000=122.750000
,196.000000=124.000000
;
#STOPS:
;
#BGCHANGES:;
#KEYSOUNDS:;
#ATTACKS:;

//---------------dance-single - ----------------
#NOTES:
     dance-single:
     :
     Hard:
     13:
     0.532906,0.572817,0.332642,0.253441,0.364322,471.000000,429.000000,42.000000,32.000000,0.000000,0.000000,0.532906,0.572817,0.332642,0.253441,0.364322,471.000000,429.000000,42.000000,32.000000,0.000000,0.000000:
0000
0000
0000
0000
,
0000
0000
0000
0000
,
0000
0000
0000
0000
,
0000
0000
0000
0000
,
0000
0000
0000
0000
,
1000
0001
0000
0001
0000
0100
0000
0100
,
0000
0010
0000
0010
2000
0000
3002
0000
,
0013
0100
0000
0100
0000
1000
0000
1000
,
0000
0010
0000
0010
0200
0000
0320
0000
,
1030
0000
0010
1000
0100
0010
0001
2000
,
0000
3010
0200
0000
0000
0000
0000
0000
0000
0000
0000
0000
0300
0000
0000
0000
,
0001
1000
0010
1000
0100
0010
0000
0001
,
0200
0000
0010
0020
0000
0000
0330
0000
,
1000
0001
0010
0100
0010
0001
1000
0100
,
0000
1000
0010
0200
0000
0001
0000
0301
,
0000
0100
0001
0010
0100
1000
0001
0000
,
1000
0010
0100
0010
2000
0000
3000
0000
,
0002
0100
0000
0100
0000
0103
0010
1000
,
0001
0010
0001
1000
0100
0010
0100
0000
,
1000
0010
0000
0010
1000
0001
0010
0100
,
0000
1000
0001
0200
0000
0010
0000
0310
,
2000
0001
0000
0001
0000
3001
0010
0100
,
1000
0001
1000
0010
0100
0001
1000
0000
,
0001
0100
0000
0100
0010
0100
0001
1000
,
0000
0000
1000
0000
0100
0000
0020
0000
0000
0000
0000
0000
0031
1000
0001
1000
,
0001
0000
0000
0101
0000
0000
1100
0000
0000
0000
0000
0000
0010
0100
0010
0100
,
0010
0000
0000
1010
0000
0000
0011
0000
0000
0000
0000
0000
0001
0100
0001
0100
,
0001
0010
0100
2000
0000
3002
0000
0103
,
0020
0000
1000
0000
2030
0000
0000
0000
0000
0000
0000
0000
3010
1000
0010
1000
,
0010
0000
0000
0110
0000
0000
1001
0000
0000
0000
0000
0000
1000
0100
1000
0100
,
2000
0000
0000
0000
0001
0000
3002
0000
0000
0000
0000
0000
0013
0001
0010
0001
,
0010
0001
1000
0020
0000
0230
0000
0301
,
2000
0000
0100
0000
3200
0000
0000
0000
0000
0000
0000
0000
1300
0010
1000
0010
,
1000
0000
0000
1010
0000
0000
0101
0000
0001
0000
0000
0000
0100
0010
0100
0010
,
0100
0000
0000
0110
0000
0000
1001
0000
1000
0000
0000
0000
0001
0010
0001
0010
,
0001
0010
0100
1000
0010
0100
0001
1000
,
0200
0000
1000
0000
2300
0000
0000
0000
3001
0000
0000
0000
1000
0001
1000
0001
,
1000
0000
0000
1100
0000
0000
0011
0000
0010
0000
0000
0000
0001
0100
0001
0100
,
0001
0000
0010
0000
0100
0000
1000
0000
0010
0000
0000
0000
0100
0001
0100
0001
,
0100
0001
0010
0100
1000
0010
1000
0001
,
0020
0001
0032
0000
0000
1000
1000
1003
,
1001
0000
0000
0000
0000
1000
0010
1000
0010
1000
0010
0000
0000
0000
0101
0000
,
0000
1010
0000
1100
0000
0001
0001
0001
,
0011
0000
0000
0000
0000
0001
0010
0001
0010
0001
0010
0000
0000
0000
0110
0000
,
0000
1100
0000
1010
0000
0010
0010
0010
,
0110
0000
0000
0000
0000
1000
0100
1000
0100
1000
0100
0000
0000
0000
1010
0000
,
0000
1001
0000
0011
0000
0100
0100
0100
,
0101
0000
0000
0000
0000
0001
0100
0001
0100
0001
0100
0000
0000
0010
1000
0010
,
1000
0000
0000
0000
1001
0000
0000
0001
0100
0001
0100
0000
0010
0000
1000
0000
,
1100
0000
0000
0000
0011
0000
0000
0001
0100
0001
0100
0000
0000
0010
1000
0010
,
1000
0000
0000
0000
1010
0000
0000
0010
0100
0010
0100
0000
0001
0000
1000
0000
,
1001
0000
0000
0000
0011
0000
0000
0010
0001
0010
0001
0000
0000
1000
0100
1000
,
0100
0000
0000
0000
0110
0000
0000
0001
0100
0001
0100
0000
0010
0000
1000
0000
,
1010
0000
0000
0000
0011
0000
0000
0100
0010
0100
0010
0000
0000
1000
0001
1000
,
0001
0000
0000
0000
0101
0000
0000
1000
0001
1000
0001
0000
0010
0000
0100
0000
,
1100
0000
0000
0000
1010
0000
0000
0010
1000
0010
1000
0000
0000
0001
0100
0001
,
0100
0000
0000
0000
1001
0000
0000
0001
0010
0001
0010
0000
0100
0000
1000
0000
,
1010
0000
0000
0000
0001
0000
1000
0100
1000
0100
1000
0000
0000
0000
0001
0100
,
0001
0100
0001
0000
0010
0000
0100
2000
0000
0000
0001
0000
0001
0000
3001
0000
,
0101
0000
0000
0000
1000
0000
0010
0100
0010
0100
0010
0000
0000
0000
1000
0001
,
1000
0001
1000
0000
0010
0000
0100
0002
0000
0000
0010
0000
0010
0000
0013
0000
,
0011
0000
0000
0000
0010
0000
0001
1000
0001
1000
0001
0000
0000
0000
0100
0010
,
0100
0010
0100
0000
0010
0000
1000
0002
0000
0000
0100
0000
0100
0000
0103
0000
,
0110
0000
0000
0000
1000
0000
0001
0010
0001
0010
0001
0000
0000
0000
1000
0100
,
1000
0100
1000
0000
0010
0000
0000
0100
0001
0100
0001
0000
0010
0000
0100
0000
,
2000
0000
0000
3000
;

//---------------dance-single - ----------------
#NOTES:
     dance-single:
     :
     Medium:
     9:
     0.363190,0.416594,0.174241,0.198001,0.023760,321.000000,299.000000,22.000000,25.000000,0.000000,0.000000,0.363190,0.416594,0.174241,0.198001,0.023760,321.000000,299.000000,22.000000,25.000000,0.000000,0.000000:
0000
0000
0000
0000
,
0000
0000
0000
0000
,
0000
0000
0000
0000
,
0000
0000
0000
0000
,
0000
0000
0000
0000
,
1000
0010
0000
0000
0100
0001
0000
0000
,
0010
0100
0000
0000
2000
0000
3002
0000
,
0013
0001
0000
0000
1000
0100
0000
0000
,
1000
0001
0000
0000
0200
0000
0320
0000
,
1030
0010
0000
0100
0000
0001
0000
1000
,
0000
0001
0000
0100
0000
0001
0000
1000
,
0000
0010
0000
0100
0000
0001
0000
1000
,
0200
0000
0010
0020
0000
0000
0330
0000
,
0001
1000
0000
0010
0000
0100
0000
0001
,
0000
0010
0000
0100
0000
1000
0000
0001
,
0000
0100
0001
0000
1000
0100
1000
0000
,
0010
0100
0010
0100
0010
0000
0000
0000
,
2000
0000
0000
0000
0000
3001
0100
0010
,
1000
0100
1000
0000
1100
0000
0101
0000
,
0000
0000
0000
0000
0001
1000
0010
0100
,
0000
0010
1000
0001
0000
0000
0000
0000
,
0002
0000
0000
0000
0000
0013
0100
1000
,
0001
0100
0001
0000
0101
0000
1100
0000
,
0000
0000
0000
0000
1000
0010
0100
0001
,
0000
1000
0001
0100
0000
0000
0001
1000
,
0010
0000
0000
0010
0000
0000
0010
0000
0000
0000
0000
0000
1000
0000
0001
0000
,
0100
0000
0000
0100
0000
0000
0100
0000
0000
0000
0000
0000
0001
0000
0010
0000
,
0001
0000
0100
0020
0000
2030
0000
0001
,
3002
0000
0200
0000
0303
0000
0010
0100
,
0001
0000
0000
0001
0000
0000
0001
0000
0000
0000
0000
0000
0100
0000
0010
0000
,
2000
0000
0001
3001
0000
0000
1000
0100
,
1000
0000
0010
0200
0000
0302
0000
1003
,
0020
0000
0130
0000
0000
0000
0001
0100
,
0001
0000
0000
0010
0000
0000
0100
0000
0000
0000
0000
0000
1000
0000
0010
0000
,
0100
0000
0000
0010
0000
0000
1000
0000
0000
0000
0000
0000
0001
0000
0010
0000
,
0100
0000
1000
0020
0000
0230
0000
0001
,
0302
0000
2000
0000
3003
0000
1000
0010
,
0100
0000
0000
0001
0000
0000
1000
0000
0000
0000
0000
0000
0100
0000
0010
0000
,
0002
0000
0100
0103
0000
0000
0010
1000
,
0100
0000
1000
0002
0000
0023
0000
0031
,
2000
0000
3100
0000
0000
1000
0001
1000
,
1001
0000
0000
0100
0001
1000
0000
0010
,
0000
0010
0000
0010
0000
0100
0010
0100
,
0110
0000
0000
0010
1000
0001
0000
0100
,
0000
0100
0000
0100
0000
0001
0010
0001
,
0011
0000
0000
0001
0100
0010
0000
1000
,
0000
1000
0000
1000
0000
0100
1000
0100
,
1100
0000
0000
1000
0010
0100
0000
0001
,
1000
0000
0001
0000
0100
0010
0100
0010
,
1010
0000
0101
0000
1000
0001
0000
0100
,
0010
0000
1000
0000
0001
1000
0010
0100
,
0110
0000
1010
0000
1000
0100
0000
0010
,
0001
0000
0100
0000
0001
1000
0010
0100
,
0101
0000
1100
0000
1000
0001
0000
1000
,
0100
0000
0010
0000
0100
1000
0001
0100
,
0110
0000
0101
0000
0001
0010
0000
0001
,
1000
0000
0010
0000
1000
0001
0010
0100
,
1100
0000
0010
0100
0001
1000
0100
0000
,
0010
0001
0100
0010
1000
0001
1000
0000
,
1001
0000
0010
1000
0001
0010
0100
0000
,
1000
0001
1000
0010
0100
0001
0010
0000
,
0011
0000
0001
0100
0010
1000
0001
0000
,
0010
0100
1000
0010
0100
0001
1000
0000
,
0110
0000
0010
0100
0010
1000
0001
0000
,
0011
0000
1100
0000
1000
0001
0100
0010
,
2000
0000
0000
3000
;

//---------------dance-single - ----------------
#NOTES:
     dance-single:
     :
     Easy:
     6:
     0.236470,0.312446,0.126721,0.031680,0.000000,209.000000,193.000000,16.000000,4.000000,0.000000,0.000000,0.236470,0.312446,0.126721,0.031680,0.000000,209.000000,193.000000,16.000000,4.000000,0.000000,0.000000:
0000
0000
0000
0000
,
0000
0000
0000
0000
,
0000
0000
0000
0000
,
0000
0000
0000
0000
,
0000
0000
0000
0000
,
1000
0000
0001
0000
,
0100
0000
0001
1000
,
0010
0000
0100
0000
,
0001
0000
0100
0010
,
1000
0100
1000
0001
,
0200
0000
0000
0300
,
0010
1000
0001
0000
,
0010
0001
1000
0000
,
0010
1000
0100
0010
,
0001
1000
0100
0000
,
1000
0010
1000
0001
,
0100
0100
0100
0000
,
0002
0000
0000
0003
,
0001
1000
0010
0100
,
0001
0000
1000
0100
,
1000
0010
0100
0000
,
0020
0000
0000
0030
,
0010
1000
0001
0100
,
0001
0000
0010
0100
,
1000
0010
0100
0000
,
0001
1000
0001
0000
,
1000
0010
0100
0000
,
0010
0010
0100
0100
,
0001
1000
0000
0000
,
0100
1000
0010
0000
,
1000
0001
0100
0000
,
0001
0010
0001
1000
,
0010
0100
0000
0000
,
0001
0001
0100
0010
,
1000
1000
0100
0010
,
0100
1000
0010
0100
,
0001
0001
1000
1000
,
0010
1000
0100
0010
,
0001
0100
0001
1000
,
0010
0010
1000
0001
,
0100
0100
0000
0000
,
1001
0000
0110
0000
,
1000
0001
0100
0000
,
0110
0000
1001
0000
,
1000
0001
0010
0000
,
1001
0000
0110
0000
,
0100
0010
1000
0000
,
0110
0000
1001
0000
,
0010
0010
1000
0001
,
0100
0010
1000
0000
,
0001
0001
1000
0100
,
0010
0001
0100
0000
,
0001
0001
0100
0010
,
1000
0100
1000
0000
,
0010
0100
0010
1000
,
0100
0010
0001
0000
,
0100
0001
1000
0001
,
1001
0100
1001
0100
,
0010
1000
0001
0010
,
0110
0100
0110
0100
,
1000
0010
1000
0001
,
1001
0001
1001
1000
,
0010
1000
0100
0010
,
0110
0010
0110
0100
,
1000
1000
0001
0001
,
2000
0000
0000
3000
;

//---------------dance-single - ----------------
#NOTES:
     dance-single:
     :
     Beginner:
     3:
     0.134641,0.182260,0.031680,0.023760,0.000000,119.000000,115.000000,4.000000,3.000000,0.000000,0.000000,0.134641,0.182260,0.031680,0.023760,0.000000,119.000000,115.000000,4.000000,3.000000,0.000000,0.000000:
// measure 0
0000
0000
0000
0000
,  // measure 1
0000
0000
0000
0000
,  // measure 2
0000
0000
0000
0000
,  // measure 3
0000
0000
0000
0000
,  // measure 4
0000
0000
0000
0000
,  // measure 5
1000
0000
1000
0000
,  // measure 6
1000
0000
0000
0000
,  // measure 7
0001
0000
0001
0000
,  // measure 8
0001
0000
0000
0000
,  // measure 9
0100
0000
0100
0000
,  // measure 10
0100
0000
0000
0000
,  // measure 11
0010
0000
0010
0000
,  // measure 12
0010
0000
0000
0000
,  // measure 13
1000
0000
0001
0000
,  // measure 14
1000
0000
0000
0000
,  // measure 15
0010
0000
0100
0000
,  // measure 16
0010
0000
0000
0000
,  // measure 17
2000
0000
3000
0000
,  // measure 18
0001
0001
0001
0001
,  // measure 19
0000
0000
0100
0000
,  // measure 20
0010
0000
1000
0000
,  // measure 21
0002
0000
0003
0000
,  // measure 22
0010
0010
0010
0010
,  // measure 23
0000
0000
0001
0000
,  // measure 24
1000
0000
0010
0000
,  // measure 25
1000
1000
0000
0000
,  // measure 26
0100
0100
0000
0000
,  // measure 27
0010
0000
0001
0000
,  // measure 28
0100
0000
0000
0000
,  // measure 29
0001
0001
0000
0000
,  // measure 30
0010
0010
0000
0000
,  // measure 31
0001
0000
1000
0000
,  // measure 32
0100
0000
0000
0000
,  // measure 33
1000
1000
0000
0000
,  // measure 34
0001
0001
0000
0000
,  // measure 35
0010
0000
0001
0000
,  // measure 36
1000
0000
0000
0000
,  // measure 37
0010
0010
0000
0000
,  // measure 38
0100
0100
0000
0000
,  // measure 39
0010
0000
1000
0000
,  // measure 40
0001
0000
0000
0000
,  // measure 41
1001
0000
0000
0000
,  // measure 42
0001
0001
0001
0000
,  // measure 43
1001
0000
0000
0000
,  // measure 44
1000
1000
1000
0000
,  // measure 45
1001
0000
0000
0000
,  // measure 46
0010
0010
0010
0000
,  // measure 47
1001
0000
0000
0000
,  // measure 48
0100
0100
0100
0000
,  // measure 49
1000
0000
1000
0000
,  // measure 50
0001
0000
0001
0000
,  // measure 51
0010
0000
0100
0000
,  // measure 52
1000
0000
0010
0000
,  // measure 53
1000
0000
0001
0000
,  // measure 54
0010
0000
0001
0000
,  // measure 55
0100
0000
0010
0000
,  // measure 56
1000
0000
0100
0000
,  // measure 57
1000
0000
0001
0000
,  // measure 58
1000
1000
1000
0000
,  // measure 59
0010
0000
1000
0000
,  // measure 60
0100
0100
0100
0000
,  // measure 61
0010
0000
0001
0000
,  // measure 62
0010
0010
0010
0000
,  // measure 63
0001
0000
0100
0000
,  // measure 64
0001
0001
0001
0000
,  // measure 65
2000
0000
0000
3000
;
