#VERSION:0.83;
#TITLE:Mulch;
#SUBTITLE:;
#ARTIST:Sampling Masters MEGA;
#TITLETRANSLIT:;
#SUBTITLETRANSLIT:;
#ARTISTTRANSLIT:;
#GENRE:GABBER;
#ORIGIN:;
#CREDIT:;
#BANNER:Mulch.png;
#BACKGROUND:Mulch-bg.png;
#PREVIEWVID:;
#JACKET:Mulch-jacket.png;
#CDIMAGE:;
#DISCIMAGE:;
#LYRICSPATH:;
#CDTITLE:;
#MUSIC:Mulch.ogg;
#OFFSET:-0.380000;
#SAMPLESTART:30.379999;
#SAMPLELENGTH:15.000000;
#SELECTABLE:YES;
#BPMS:0.000=200.000;
#STOPS:;
#DELAYS:;
#WARPS:;
#TIMESIGNATURES:0.000=4=4;
#TICKCOUNTS:0.000=4;
#COMBOS:0.000=1;
#SPEEDS:0.000=1.000=0.000=0;
#SCROLLS:0.000=1.000;
#FAKES:;
#LABELS:0.000=Song Start;
#BGCHANGES:0.000=Mulch.avi=1.000=0=0=0=StretchNoLoop==CrossFade_Fastest==,
99999=-nosongbg-=1.000=0=0=0 // don't automatically add -songbackground-
;
#KEYSOUNDS:;
#ATTACKS:
;

//---------------dance-single - Daff_4K----------------
#NOTEDATA:;
#CHARTNAME:Daff_4K;
#STEPSTYPE:dance-single;
#DESCRIPTION:Daff_4K;
#CHARTSTYLE:;
#DIFFICULTY:Beginner;
#METER:4;
#RADARVALUES:0.213764,0.288047,0.018704,0.065465,0.000000,160.000000,158.000000,2.000000,7.000000,0.000000,0.000000,0.000000,0.000000,0.000000,0.213764,0.288047,0.018704,0.065465,0.000000,160.000000,158.000000,2.000000,7.000000,0.000000,0.000000,0.000000,0.000000,0.000000;
#CREDIT:Daff_4K;
#NOTES:
0000
0000
0000
0000
,
0000
0000
0000
0000
,
0000
0000
0000
0000
,
0000
0000
0000
0000
,
0000
0000
0000
0000
,
0001
0000
0000
0000
,
1000
0000
0000
0000
,
0010
0000
0100
0000
,
0010
0000
0000
0000
,
2000
0000
3000
0000
,
0002
0000
0003
0000
,
0010
0000
0100
0000
,
0010
0000
0100
0000
,
2000
0000
3000
0000
,
0002
0000
0003
0000
,
0100
0000
0010
0000
,
0100
0100
0100
0000
,
0001
0000
0000
0000
,
1000
0000
0000
0000
,
0010
0000
0100
0000
,
0010
0000
0100
0000
,
0001
0000
0000
0000
,
1000
0000
0000
0000
,
0100
0000
0010
0000
,
0100
0000
0000
0000
,
1000
0000
0000
0000
,
0010
0000
0000
0000
,
0100
0100
0100
0000
,
0001
0000
1000
0000
,
0001
0000
0000
0000
,
0010
0000
0000
0000
,
0100
0100
0100
0000
,
1000
0000
0001
0000
,
1000
1000
1000
0000
,
0001
0001
0001
0000
,
0100
0100
0100
0000
,
0010
0000
1000
0000
,
0001
0001
0001
0000
,
1000
1000
1000
0000
,
0100
0100
0100
0000
,
0010
0000
0001
0000
,
2000
0000
0000
0000
,
3000
0000
0000
0000
,
0010
0000
0010
0000
,
0100
0000
0100
0000
,
0002
0000
0000
0000
,
0003
0000
0000
0000
,
0010
0000
0010
0000
,
0100
0000
0100
0000
,
1001
0000
0000
0000
,
0000
0000
0000
0000
,
1000
1000
1000
0000
,
0010
0000
0001
0000
,
0010
0010
0010
0000
,
1000
0000
0000
0000
,
0001
0001
0001
0000
,
0010
0000
1000
0000
,
0010
0010
0010
0000
,
0001
0000
0000
0000
,
1000
1000
1000
0000
,
0001
0001
0001
0000
,
0100
0000
0010
0000
,
0100
0100
0100
0000
,
0001
0001
0000
0000
,
0010
0010
0000
0000
,
0100
0000
0010
0000
,
0100
0100
0100
0000
,
1000
1000
0000
0000
,
0010
0010
0000
0000
,
0100
0000
0010
0000
,
0200
0000
0300
0000
,
0001
0000
0000
0000
,
0010
0000
0000
0000
,
0100
0100
0100
0000
,
1000
0000
0001
0000
,
1000
0000
0000
0000
,
0010
0000
0000
0000
,
0100
0100
0100
0000
,
0001
0000
1000
0000
,
0001
0001
0001
0000
,
1000
1000
1000
0000
,
0100
0100
0100
0000
,
0010
0000
0001
0000
,
1000
1000
1000
0000
,
0001
0001
0001
0000
,
0100
0100
0100
0000
,
0010
0000
1000
0000
,
0000
0000
0000
0000
,
1001
0000
0000
0000
;

//---------------dance-single - Daff_4K----------------
#NOTEDATA:;
#CHARTNAME:Daff_4K;
#STEPSTYPE:dance-single;
#DESCRIPTION:Daff_4K;
#CHARTSTYLE:;
#DIFFICULTY:Easy;
#METER:8;
#RADARVALUES:0.415504,0.576094,0.635948,0.093522,0.000000,311.000000,243.000000,68.000000,10.000000,0.000000,0.000000,0.000000,0.000000,0.000000,0.415504,0.576094,0.635948,0.093522,0.000000,311.000000,243.000000,68.000000,10.000000,0.000000,0.000000,0.000000,0.000000,0.000000;
#CREDIT:Daff_4K;
#NOTES:
0000
0000
0000
0000
,
0000
0000
0000
0000
,
0000
0000
0000
0000
,
0000
0000
0000
0000
,
0000
0000
0000
0000
,
1000
0010
1000
0000
,
0001
0010
0001
0000
,
1001
0000
0110
0000
,
1001
0000
0110
0000
,
1000
0100
0001
0000
,
0001
0100
1000
0000
,
1000
0100
0001
0100
,
1000
0100
0010
0000
,
0001
0100
1000
0000
,
1000
0100
0001
0000
,
0001
0100
1000
0100
,
0001
1000
1001
0000
,
0022
0000
0033
0000
,
2200
0000
3300
0000
,
1000
0010
0100
0001
,
0010
0100
1000
0000
,
2020
0000
3030
0000
,
0202
0000
0303
0000
,
0001
0010
0100
1000
,
0010
0100
0001
0000
,
1000
0100
0001
0000
,
0001
0010
1000
0000
,
1001
1001
1001
0000
,
0001
0100
0010
1000
,
0001
0100
1000
0000
,
1000
0010
0001
0000
,
1001
1001
1001
0000
,
1000
0100
0010
0001
,
0101
0101
0101
0000
,
1010
1010
1010
0000
,
1000
0001
0010
0100
,
1000
0001
1001
0000
,
1100
1100
1100
0000
,
0011
0011
0011
0000
,
0001
1000
0010
0100
,
0001
1000
1001
0000
,
0002
0000
0100
0000
,
0100
0000
0103
0000
,
0001
0001
1000
1000
,
0010
0010
0100
0001
,
2000
0000
0100
0000
,
0100
0000
3100
0000
,
1000
1000
0001
0001
,
0010
0010
0100
1000
,
1001
0000
0000
0000
,
0000
0000
0000
0000
,
0001
0100
0101
0000
,
0001
1000
0100
0010
,
0001
1000
1001
0000
,
0001
0100
0010
0010
,
1000
0100
1100
0000
,
1000
0001
0100
0010
,
1000
0001
1001
0000
,
1000
0100
0010
0010
,
0001
0100
1000
0000
,
1000
0100
0001
0000
,
0001
0010
1000
0010
,
0001
1000
1001
0000
,
0101
0000
0101
0000
,
1010
0000
1010
0000
,
0101
0000
0101
0000
,
0001
1000
0001
0000
,
1100
0000
1100
0000
,
0011
0000
0011
0000
,
1100
0000
1100
0000
,
1000
0001
1000
0000
,
0001
0010
1000
0000
,
1000
0100
0001
0000
,
0110
0110
0110
0000
,
1000
0100
0001
0100
,
1000
0010
0001
0000
,
0001
0100
1000
0000
,
0110
0110
0110
0000
,
0001
0100
1000
0100
,
0110
0110
0110
0000
,
1001
1001
1001
0000
,
1000
0100
0001
0010
,
1000
0001
1001
0000
,
0110
0110
0110
0000
,
1001
1001
1001
0000
,
0001
0100
1000
0010
,
0001
1000
1001
0000
,
0000
0000
0000
0000
,
0110
0000
0000
0000
;

//---------------dance-single - Daff_4K----------------
#NOTEDATA:;
#CHARTNAME:Daff_4K;
#STEPSTYPE:dance-single;
#DESCRIPTION:Daff_4K;
#CHARTSTYLE:;
#DIFFICULTY:Medium;
#METER:13;
#RADARVALUES:0.641292,0.658393,1.084852,0.729470,0.009352,480.000000,364.000000,116.000000,78.000000,0.000000,0.000000,0.000000,0.000000,0.000000,0.641292,0.658393,1.084852,0.729470,0.009352,480.000000,364.000000,116.000000,78.000000,0.000000,0.000000,0.000000,0.000000,0.000000;
#CREDIT:Daff_4K;
#NOTES:
0000
0000
0000
0000
,
0000
0000
0000
0000
,
0000
0000
0000
0000
,
0000
0000
0000
0000
,
0000
0000
0000
0000
,
1000
0010
1000
0000
0100
0000
0010
0000
,
0001
0010
0001
0000
0100
0000
0010
0000
,
0220
0330
2002
3003
,
0010
0100
2002
3003
,
1010
0011
2020
3030
,
0101
1100
0202
0303
,
2010
0010
0001
3001
,
1000
0100
0010
0001
1000
0000
1001
0000
,
0011
1010
0022
0033
,
1100
0101
2200
3300
,
0012
0010
1000
1003
,
0101
1010
2002
3003
,
0001
0100
0001
0000
1000
0100
1000
0000
,
0001
0010
0001
0000
1000
0010
1000
0000
,
0100
0010
0001
0000
0100
0010
1000
0000
,
0100
0010
0100
0010
0001
1000
0001
0000
,
1000
0100
1000
0000
0001
0100
0001
0000
,
1000
0010
1000
0000
0001
0010
0001
0000
,
0100
0010
1000
0000
0100
0010
0001
0000
,
0100
0010
0100
0010
1000
0001
1000
0000
,
0001
0100
0010
0100
0002
0000
1003
0000
,
0001
0100
0000
0100
0020
0000
1030
0000
,
1001
0110
2002
3003
,
1000
0100
1000
0001
0100
0000
1001
0000
,
1000
0100
0010
0100
2000
0000
3001
0000
,
1000
0100
0000
0100
0020
0000
0031
0000
,
1001
0110
2002
3003
,
0001
0100
0001
1000
0100
0000
1001
0000
,
1010
0110
0202
0303
,
1001
0011
0220
0330
,
1100
1001
1100
1001
,
1010
0101
2002
3003
,
0011
0110
2200
3300
,
1001
1010
0220
0330
,
0101
1001
0101
1001
,
0011
1100
2002
3003
,
0202
0003
0020
0030
,
2000
3000
0020
0030
,
0302
0023
0230
2300
,
3020
0230
0302
2003
,
3200
0000
0010
0000
0310
0001
0010
0000
,
0001
1000
0001
0000
1000
0010
1000
0010
,
0200
0000
0010
0000
0310
1000
0010
0000
,
1000
0001
1000
0000
0001
0010
0001
0000
,
1001
0000
0000
0000
,
0020
0100
0130
1001
,
1000
0100
1000
0000
0010
0100
0001
0000
,
1000
0010
1000
0000
0100
0010
0001
0000
,
1000
0010
1000
0000
0001
0010
0001
0000
,
1000
0100
0001
0100
1000
0000
1001
0000
,
0001
0100
0001
0000
0010
0100
1000
0000
,
0001
0010
0001
0000
0100
0010
1000
0000
,
0001
0010
0001
0000
1000
0010
1000
0000
,
0001
0100
1000
0100
0001
0000
1001
0000
,
1000
0100
0010
0000
0010
0001
1000
0000
,
0001
0100
0010
0000
0010
1000
0001
0000
,
1000
0100
1000
0000
0001
0100
0001
0000
,
1001
0110
2002
3003
,
1100
0000
0000
0110
0000
0000
0011
0000
,
1001
0000
0000
1010
0000
0000
0110
0000
,
0101
0000
0000
0110
0000
0000
1001
0000
,
1000
0001
0110
1001
,
0101
0000
0000
0110
0000
0000
1010
0000
,
1001
0000
0000
0011
0000
0000
0110
0000
,
1100
0000
0000
0110
0000
0000
1001
0000
,
0001
0000
1000
0000
0020
0000
0200
0000
0000
0330
0000
0000
,
0001
0010
0100
1000
0020
0000
0130
0000
,
0001
1000
0000
0100
0020
0000
0031
0000
,
0101
1010
2002
3003
,
0001
0010
0100
0010
0001
1000
0001
0000
,
1000
0010
0100
0001
0020
0000
0130
0000
,
1000
0001
0000
0100
0020
0000
1030
0000
,
1100
0011
2002
3003
,
1000
0010
0100
0010
1000
0001
1000
0000
,
0011
1010
2002
3003
,
1100
0101
2002
3003
,
1010
0011
0101
1100
,
1001
0110
2002
3003
,
1010
0011
2002
3003
,
0101
1100
2002
3003
,
0011
1010
1100
0101
,
1001
0110
2002
3003
,
0000
0000
0000
0000
,
0110
0000
0000
0000
;

//---------------dance-single - Daff_4K----------------
#NOTEDATA:;
#CHARTNAME:Daff_4K;
#STEPSTYPE:dance-single;
#DESCRIPTION:Daff_4K;
#CHARTSTYLE:;
#DIFFICULTY:Hard;
#METER:15;
#RADARVALUES:0.776230,0.740692,0.664004,0.252509,0.308622,581.000000,510.000000,71.000000,27.000000,0.000000,0.000000,0.000000,0.000000,0.000000,0.776230,0.740692,0.664004,0.252509,0.308622,581.000000,510.000000,71.000000,27.000000,0.000000,0.000000,0.000000,0.000000,0.000000;
#CREDIT:Daff_4K;
#NOTES:
// measure 0
0000
0000
0000
0000
,  // measure 1
0000
0000
0000
0000
,  // measure 2
0000
0000
0000
0000
,  // measure 3
0000
0000
0000
0000
,  // measure 4
0000
0000
0000
0000
,  // measure 5
1000
0100
1000
0000
1000
0010
0100
0000
,  // measure 6
0001
0100
0001
0000
0001
0010
0100
0000
,  // measure 7
2100
3010
0102
0013
,  // measure 8
0001
1000
0010
0100
0002
0000
1003
0000
,  // measure 9
1100
0011
0110
1001
,  // measure 10
0011
1100
0110
1001
,  // measure 11
1000
0010
0001
0000
1000
0100
0001
0000
,  // measure 12
1000
0100
0001
0100
0010
0000
1001
0000
,  // measure 13
0101
1010
0110
1001
,  // measure 14
1010
0101
0110
1001
,  // measure 15
0001
0010
1000
0000
0001
0100
1000
0000
,  // measure 16
1010
0011
0101
1100
,  // measure 17
1000
0010
0100
0000
0001
0100
0010
0000
,  // measure 18
1000
0100
0010
0000
0001
0010
0100
0000
,  // measure 19
1000
0010
0001
0010
1000
0100
0001
0100
,  // measure 20
1000
0010
0100
0010
0001
0010
1000
0000
,  // measure 21
0001
0010
0100
0000
1000
0100
0010
0000
,  // measure 22
0001
0100
0010
0000
1000
0010
0100
0000
,  // measure 23
0001
0010
1000
0010
0001
0100
1000
0100
,  // measure 24
0001
0010
0100
0010
1000
0010
0001
0000
,  // measure 25
1000
0010
0001
0010
1000
0000
1100
0000
,  // measure 26
0001
0100
0010
1000
0001
0000
0110
0000
,  // measure 27
1000
0001
0000
0000
1000
0001
0000
0000
1000
0001
0000
0000
1000
0000
0100
0000
,  // measure 28
0001
0100
1000
0010
0100
0000
1001
0000
,  // measure 29
0001
0010
1000
0010
0001
0000
0101
0000
,  // measure 30
1000
0100
0010
0001
1000
0000
0110
0000
,  // measure 31
0001
1000
0000
0000
0001
1000
0000
0000
0001
1000
0000
0000
0001
0000
0100
0000
,  // measure 32
1000
0100
0001
0010
0100
0000
1001
0000
,  // measure 33
1000
0010
0000
0000
1000
0010
0000
0000
1000
0010
0000
0000
0101
0000
0000
0000
,  // measure 34
0001
1000
0000
0000
0001
1000
0000
0000
0001
1000
0000
0000
0110
0000
0000
0000
,  // measure 35
0001
0100
0000
0000
0001
0100
0000
0000
0010
1000
0000
0000
0010
1000
0000
0000
,  // measure 36
0100
0010
0000
0000
0100
0010
0000
0000
0100
0010
0000
0000
1001
0000
0000
0000
,  // measure 37
0001
0010
0000
0000
0001
0010
0000
0000
0001
0010
0000
0000
1100
0000
0000
0000
,  // measure 38
1000
0001
0000
0000
1000
0001
0000
0000
1000
0001
0000
0000
0110
0000
0000
0000
,  // measure 39
1000
0100
0000
0000
1000
0100
0000
0000
0010
0001
0000
0000
0010
0001
0000
0000
,  // measure 40
0100
0010
0000
0000
0100
0010
0000
0000
0100
0010
0000
0000
1001
0000
0000
0000
,  // measure 41
2100
0001
0010
3001
,  // measure 42
0102
1000
0010
1003
,  // measure 43
0001
0001
0100
0100
0010
0010
1000
1000
,  // measure 44
0100
0100
0010
0010
0001
0001
1000
1000
,  // measure 45
0002
0000
0103
0010
1000
1000
0001
0001
,  // measure 46
0010
0100
0010
1000
0010
0001
0100
0010
,  // measure 47
2000
0000
3100
0010
0001
0001
1000
1000
,  // measure 48
0010
0100
0010
0001
0010
1000
0001
0000
,  // measure 49
2002
0000
0000
3003
,  // measure 50
0200
0010
0310
1001
,  // measure 51
0001
0100
0010
0100
0001
0000
1100
0000
,  // measure 52
1000
0100
0010
0001
0100
0000
1010
0000
,  // measure 53
1000
0001
0010
0100
0010
0000
1001
0000
,  // measure 54
0001
0100
0010
0100
1000
0100
0001
0000
,  // measure 55
1000
0100
0010
0100
1000
0000
0101
0000
,  // measure 56
0001
0100
0010
1000
0100
0000
0011
0000
,  // measure 57
0001
1000
0010
0100
0010
0000
1001
0000
,  // measure 58
1000
0100
0010
0100
0001
0100
1000
0000
,  // measure 59
0001
0010
1000
0010
0100
1000
0001
0000
,  // measure 60
1000
0010
0001
0010
0100
0001
1000
0000
,  // measure 61
0001
0100
0010
1000
0100
0010
0001
1000
,  // measure 62
1001
0110
2002
3003
,  // measure 63
1200
0000
0301
0200
0000
0310
0001
1000
,  // measure 64
0020
0000
0031
0020
0000
1030
0001
0000
,  // measure 65
2001
0000
3100
0020
0000
0031
1000
0000
,  // measure 66
1020
0001
1030
1001
,  // measure 67
0201
0000
1300
0200
0000
0310
1000
0001
,  // measure 68
0020
0000
1030
0020
0000
0031
1000
0000
,  // measure 69
1002
0000
0103
0020
0000
1030
0001
0000
,  // measure 70
0011
0000
0110
0000
1100
0000
2002
0000
0000
3003
0000
0000
,  // measure 71
0001
0100
1000
0100
0010
0000
1001
0000
,  // measure 72
1000
0100
0001
0100
1000
0000
0011
0000
,  // measure 73
0001
0100
0000
0000
0100
0010
0000
0000
0010
1000
0000
0000
1000
0000
0001
0000
,  // measure 74
0010
1000
0001
0100
1000
0001
0101
0000
,  // measure 75
1000
0100
0001
0100
0010
0000
1001
0000
,  // measure 76
0001
0100
1000
0100
0001
0000
1010
0000
,  // measure 77
1000
0100
0000
0000
0100
0010
0000
0000
0010
0001
0000
0000
0001
0000
1000
0000
,  // measure 78
0010
0001
1000
0100
0001
1000
1100
0000
,  // measure 79
1000
0010
0000
0000
0010
0100
0000
0000
0100
0001
0000
0000
0011
0000
0000
0000
,  // measure 80
0010
0100
0000
0000
0100
1000
0000
0000
1000
0001
0000
0000
0101
0000
0000
0000
,  // measure 81
0100
1000
0000
0000
1000
0010
0000
0000
0010
0001
0000
0000
0001
0100
0000
0000
,  // measure 82
0100
0010
0000
0000
0010
1000
0000
0000
1000
0001
0000
0000
1001
0000
0000
0000
,  // measure 83
0001
0010
0000
0000
0010
0100
0000
0000
0100
1000
0000
0000
1010
0000
0000
0000
,  // measure 84
0010
0100
0000
0000
0100
0001
0000
0000
0001
1000
0000
0000
1100
0000
0000
0000
,  // measure 85
0100
0001
0000
0000
0001
0010
0000
0000
0010
1000
0000
0000
1000
0100
0000
0000
,  // measure 86
0100
0010
0000
0000
0010
0001
0000
0000
0001
1000
0000
0000
1001
0000
0000
0000
,  // measure 87
0000
0000
0000
0000
,  // measure 88
0110
0000
0000
0000
;
