#TITLE:ミスターフィクサー;
#SUBTITLE:;
#ARTIST:Sou;
#TITLETRANSLIT:Mr.Fixer;
#SUBTITLETRANSLIT:;
#ARTISTTRANSLIT:;
#GENRE:J-Rock;
#CREDIT:;
#MUSIC:Mr. Fixer.ogg;
#BANNER:Mr. Fixer.png;
#BACKGROUND:Mr. Fixer-bg.png;
#CDTITLE:cdtitle.png;
#SAMPLESTART:59.834;
#SAMPLELENGTH:13.241;
#SELECTABLE:YES;
#OFFSET:1.412;
#BPMS:0.000=145.000;
#STOPS:32.500=0.828;
#LASTBEATHINT:0.992496;
#BGCHANGES:2.750=Mr. Fixer.avi=1.000=0=0=0=StretchNoLoop==CrossFade_Fastest==,
99999.000=-nosongbg-=1.000=0=0=0=StretchNoLoop====
;
#FGCHANGES:;

//--------------- dance-single - ----------------
#NOTES:
     dance-single:
     :
     Beginner:
     2:
     0.187769,0.242094,0.044936,0.112341,0,117,113,4,10,0,0,0.187769,0.242094,0.044936,0.112341,0,117,113,4,10,0,0:
0000
0000
0000
0000
,
0000
0000
0000
0000
,
0000
0000
0000
0000
,
0000
0000
0000
0000
,
0000
0000
0000
0000
,
1000
0000
0001
0000
,
1000
0000
0000
0000
,
0001
0000
1000
0000
,
1001
0000
0001
0001
,
0001
0000
0010
0000
,
0100
0000
1000
1000
,
1000
0000
0010
0000
,
0100
0000
0001
0001
,
0001
0000
0010
0000
,
0001
0000
1000
1000
,
1000
0000
0010
0000
,
1000
0000
0001
0000
,
0001
0000
0010
0000
,
0010
0000
0100
0000
,
0010
0000
0002
0000
,
0003
0000
1000
0000
,
1000
0000
0010
0000
,
0010
0000
0100
0000
,
0010
0000
2000
0000
,
3000
0000
0001
0001
,
0001
0000
0010
0010
,
0010
0000
0100
0000
,
1000
0000
0020
0000
,
0030
0000
1000
1000
,
1000
0000
0010
0010
,
0010
0000
0100
0000
,
0001
0000
0020
0000
,
0030
0000
0001
0001
,
0001
0000
1000
1000
,
1000
0000
0001
0001
,
0001
0000
0000
0000
2002
0000
0000
3003
,
0000
0000
1000
1000
,
1000
0000
0010
0000
,
0001
0000
0100
0100
,
0100
0000
1000
0000
,
0010
0000
1000
1000
,
1000
0000
0001
0001
,
0001
0000
1000
0000
,
0100
0000
0000
0000
0220
0000
0000
0330
,
0000
0000
0001
0001
,
0001
0000
0010
0000
,
1000
0000
0100
0100
,
0100
0000
0001
0000
,
0010
0000
0001
0001
,
0001
0000
1000
1000
,
1000
0000
0010
0010
,
0010
0000
0100
0100
,
0100
0000
0010
0010
,
0010
0000
0000
0000
2002
0000
0000
3003
;

//--------------- dance-single - ----------------
#NOTES:
     dance-single:
     :
     Easy:
     5:
     0.277642,0.332879,0.146043,0.168511,0,173,160,13,15,0,0,0.277642,0.332879,0.146043,0.168511,0,173,160,13,15,0,0:
0000
0000
0000
0000
,
0000
0000
0000
0000
,
0000
0000
0000
0000
,
0000
0000
0000
0000
,
0000
0000
0000
0000
,
0002
0003
0020
0030
,
0200
0300
1000
0001
,
2000
3000
0020
0030
,
0110
1001
1000
0001
,
0010
0000
0001
0001
,
1000
0000
0001
1000
,
0010
0000
1000
0100
,
0220
0330
0001
0100
,
0010
0000
1000
0100
,
0010
0000
0001
0100
,
0010
1000
0001
0100
,
0020
0030
1000
1000
,
1000
0000
0010
1000
,
0100
0000
1000
0100
,
0010
0100
2000
3000
,
0100
1000
0001
0001
,
0001
0000
0010
0001
,
0100
0000
0001
0100
,
0010
1000
0200
0300
,
1001
1001
0001
0100
,
0010
0010
1000
0100
,
0010
0010
0001
0100
,
1000
0100
0002
0003
,
0010
0100
1000
0010
,
1000
1000
0001
0010
,
0001
0001
1000
0100
,
0001
0100
2000
3000
,
0001
0010
0001
0100
,
0101
0000
1000
0100
,
1100
0000
0001
1000
,
1001
0000
0000
0000
0002
0000
0000
2000
,
0000
3003
1000
0010
,
0001
0000
0001
0010
,
1000
0000
0010
1000
,
0100
0001
0100
1000
,
0010
0100
0001
0001
,
0010
0000
1000
1000
,
0100
0000
0001
0010
,
0100
0000
1000
0000
0010
0000
0000
1001
,
0000
1001
0000
0000
0001
0000
0010
0000
,
1000
0000
1000
0010
,
0001
0000
0010
0001
,
0100
0000
1000
0000
0100
0000
0000
0001
,
0000
0001
0000
0001
0000
0000
0001
0000
,
0010
0100
1000
0010
,
0100
0001
0010
0001
,
1100
0000
0010
1000
,
0101
0000
0100
0010
,
1001
0000
0000
0000
2000
0000
0000
3001
;

//--------------- dance-single - ----------------
#NOTES:
     dance-single:
     :
     Medium:
     9:
     0.446153,0.484188,0.247149,0.337022,0.033702,278,256,22,30,0,0,0.446153,0.484188,0.247149,0.337022,0.033702,278,256,22,30,0,0:
0000
0000
0000
0000
,
0000
0000
0000
0000
,
0000
0000
0000
0000
,
0000
0000
0000
0000
,
0000
0000
0000
0000
,
0002
0000
0023
0000
,
0130
0000
0010
0001
0000
0010
0001
0000
,
2000
0000
3020
0000
,
0100
0130
1001
0000
1000
0010
1000
0000
,
0100
0000
0010
0001
0000
0010
0001
0000
,
0100
0010
1000
0000
0001
0010
0001
0000
,
0100
0000
0010
1000
0000
1000
0100
0000
,
0010
0001
0100
0000
0001
1000
0001
0000
,
0010
0000
0100
1000
0000
0100
1000
0000
,
0001
0100
0010
0000
1000
0001
1000
0000
,
0100
0000
0010
0001
0000
0001
0100
0010
,
2000
0000
3000
0010
1000
0000
1000
0000
,
1000
0000
0100
0001
0000
0100
1000
0000
,
0001
0001
2000
3020
,
0230
0000
0301
0002
0000
0023
0000
0000
,
0130
0100
0010
0000
0001
0000
0001
0000
,
0001
0000
0100
1000
0000
0100
0001
0000
,
1000
1000
0002
0023
,
0130
1000
0001
0000
2002
0000
3003
0000
,
1000
0001
1000
0000
0001
0100
0010
0100
,
0001
0000
0011
0000
1000
0100
0010
0100
,
1000
1010
0002
0203
,
0320
0000
1030
0001
0000
0001
1000
0000
,
0100
0010
0001
0000
1000
0010
0100
0001
,
0010
0000
0011
0000
0001
0010
0100
1000
,
0010
1010
2000
3200
,
0310
0001
0100
0000
0210
0000
0000
0310
,
1000
0000
0100
0000
0010
0000
0000
0000
0001
0000
0010
0000
0001
0000
0000
0011
,
0000
0000
0000
0000
0000
0000
0000
0000
1000
0000
0010
0000
1000
0000
0000
1010
,
0000
0000
0000
0000
0000
0000
0000
0000
0001
0000
1000
0000
0001
0000
0000
1001
,
0000
1000
0100
0000
0011
0000
0000
1100
,
0000
0000
1001
0000
1000
0010
0001
0010
,
1000
0000
1000
0000
0010
1000
0100
0000
,
0010
0001
0100
0000
0001
1000
0001
1000
,
0001
0000
1000
0100
0001
0000
0100
1000
,
0000
0010
0000
1010
0000
0001
0100
0002
,
0000
1003
0100
1000
0200
0000
0310
0002
,
0000
1003
0010
1000
0000
0001
0100
0001
,
0100
0001
1000
0001
0010
0000
0001
0100
,
0000
2002
0000
3003
0001
0010
1000
0010
,
0001
0000
0001
0000
0010
0001
0100
0000
,
0010
1000
0100
0000
1000
0001
1000
0001
,
1000
0000
0001
0100
1000
0100
0001
0001
,
0000
0011
0000
1100
0000
1000
0100
0020
,
0000
0031
0100
0020
0000
1030
0100
0020
,
0000
0000
0001
0000
0031
0000
0000
0000
1000
0000
0010
0000
1000
0000
0000
1010
,
0000
0000
0001
0000
0001
0000
0000
0000
0001
0000
0010
0000
0001
0000
0000
0011
,
0000
0000
1000
0000
1000
0000
0000
0000
0010
0000
0100
0000
0010
0000
0000
1001
,
0000
1000
1000
0000
0220
0000
0330
1001
;

//--------------- dance-single - ----------------
#NOTES:
     dance-single:
     :
     Hard:
     12:
     0.588986,0.635497,0.314554,0.381958,0.337022,367,339,28,34,0,0,0.588986,0.635497,0.314554,0.381958,0.337022,367,339,28,34,0,0:
0000
0000
0000
0000
,
0000
0000
0000
0000
,
0000
0000
0000
0000
,
0000
0000
0000
0000
,
0000
0000
0000
0000
,
2000
0000
3020
0000
,
0130
0000
0010
1000
0000
1000
0001
0000
,
0002
0000
0023
0000
,
0031
1001
0110
0000
1000
0010
1000
0001
,
1000
0100
0000
0100
1000
0000
0001
0000
0000
1000
0010
0000
1000
0000
0001
0010
,
0000
1001
0000
1000
0001
0010
0001
1000
,
0001
0100
0000
0100
0001
0000
1000
0000
0000
0001
0010
0000
0100
0000
1000
0000
,
0010
0100
0001
0000
1000
0010
0001
0010
,
1000
0001
0000
0001
1000
0000
0100
0000
0000
0010
0001
0000
1000
0000
0001
0000
,
0100
0000
1001
0000
0001
0010
1000
0010
,
0001
0000
0000
0001
0100
0000
1000
0000
0000
0000
1000
0000
0100
0000
0001
0000
,
2000
0000
0000
0000
0000
0000
3100
0000
0010
0000
0001
0010
0001
0000
0010
0000
,
0002
0000
0000
0000
0103
0000
2000
0000
0000
0000
3100
0000
0001
0000
0010
0001
,
0020
0000
0000
0230
0000
0000
1000
0000
1300
0000
0000
0000
0001
0000
0000
1000
,
0010
0000
0000
0000
0100
0000
0010
0000
0000
0000
0010
0000
1000
0000
0000
1000
,
0100
0000
0010
0000
0001
0000
0100
0000
0010
0000
1000
0010
1000
0000
0010
0000
,
2000
0000
0000
0000
3100
0000
0002
0000
0000
0000
0103
0000
1000
0000
0010
1000
,
0020
0000
0000
0230
0000
0000
0301
0100
0001
0000
0000
0000
1000
0000
0000
0000
,
1000
0000
0100
0000
0001
0000
0100
0000
2000
0000
0000
3010
0100
0000
0001
1000
,
0000
1000
0001
0000
0010
0000
0100
0000
1000
0000
0001
0100
0001
0000
0100
0000
,
0010
0000
0000
1010
0000
0000
0001
0000
0001
0000
1000
0100
1000
0000
0100
0000
,
0010
0000
0000
0011
0000
0000
1000
0000
1000
0000
0000
1000
0010
0000
0100
0000
,
0001
0010
1000
0020
0000
0031
0100
0010
,
1000
0100
0000
0010
0001
0000
1000
0000
0001
0000
0100
0000
0010
0000
0100
0000
,
0001
0000
0000
0011
0000
0000
2000
0000
0000
0000
3010
1000
0010
0000
1000
0000
,
0100
0000
0000
1001
0000
0000
1000
0000
0020
0000
0000
0000
0032
0000
0000
0000
,
0013
1000
0100
0001
0100
0000
0010
0100
,
1000
0000
0001
0000
0100
0000
0010
0000
1000
0010
1000
0000
0100
0000
1000
0100
,
0000
0000
0000
0000
0000
0000
0000
0000
0001
0010
0001
0000
0100
0001
0000
0100
,
0000
0000
0000
0000
0000
0000
0000
0000
1000
0010
1000
0000
0001
0000
0010
0001
,
0000
1000
0001
0100
0010
0000
0010
0100
,
0000
0000
1001
0000
1000
0010
0001
0010
,
1000
0000
0000
0100
0000
0000
0202
0000
0303
0000
0001
0000
0100
0000
2000
0000
,
0000
0000
0010
0000
3020
0000
0000
0000
1030
0000
0001
0100
0001
0000
0100
0001
,
0100
0001
0010
0100
1100
0000
0001
0101
,
0000
1010
0000
1001
0000
0001
0010
2000
,
0000
3001
0100
1000
0002
0000
0103
2000
,
0000
0000
3001
0000
0010
0000
1000
0000
0001
0000
1000
0100
1000
0000
0001
0100
,
0001
1000
0100
0010
0012
0000
0103
1010
,
0000
0000
1001
0000
0001
0000
0010
0000
1000
0000
0010
0000
0001
1000
0001
1000
,
0001
0000
0000
0100
0000
0000
2200
0000
3300
0000
1000
0000
0100
0000
0002
0000
,
0000
0000
0010
0000
0023
0000
0000
0000
0031
0000
1000
0100
1000
0000
0100
1000
,
0000
0100
1000
0000
0010
0000
0100
0000
0001
0000
0001
0000
0010
0000
1100
0000
,
0000
0011
0000
1001
0000
0001
0100
2000
,
0000
3100
0001
0102
0000
0013
0100
2100
,
0000
0000
0001
0000
3001
0000
0000
0000
0001
0000
0100
0000
1000
0100
0000
0101
,
0000
0000
0010
0000
0100
0001
0000
0000
1000
0000
0100
0000
0001
0100
0000
1100
,
0000
0000
0010
0100
0010
0100
0000
0000
1000
0000
0010
0000
0100
0001
0000
1001
,
0000
0001
0010
0100
2001
0000
3010
1001
;

//--------------- dance-single - ----------------
#NOTES:
     dance-single:
     :
     Challenge:
     15:
     0.717375,0.756544,0.280852,0.146043,0.747065,447,422,25,13,6,0,0.717375,0.756544,0.280852,0.146043,0.747065,447,422,25,13,6,0:
0000
0000
0000
0000
,
0000
0000
0000
0000
,
0000
0000
0000
0000
,
0000
0000
0000
0000
,
0000
0000
0000
0000
,
2000
0000
3020
0000
,
0130
0000
0010
1000
0000
1000
0001
0000
,
0002
0000
0023
0000
,
0031
1001
0110
0000
0001
0100
0010
0100
,
1000
0100
0000
0010
0100
0000
0001
0000
0000
0001
0010
0000
0100
0000
0010
0001
,
0000
0000
1001
0000
1000
0010
0100
0001
1000
0000
0100
0000
0010
0000
0100
0000
,
0001
0100
0000
0010
0100
0000
1000
0000
0000
1000
0010
0000
0100
0001
0100
0001
,
0010
0100
1000
0000
1000
0010
0001
0010
,
1000
0100
0000
0001
0100
0000
1000
0000
0000
1000
0010
0000
0100
0000
0010
1000
,
0010
1000
0100
0010
0001
0010
1000
0010
,
0001
0000
0000
0001
0100
0000
1010
0000
0000
0000
1000
0100
1000
0100
0010
0001
,
2000
0000
0000
0000
0000
0000
3000
0000
0001
0000
0000
0001
0000
0000
0100
0000
,
0000
0000
0001
0000
1001
0000
0000
0000
0001
0010
0000
0001
0010
0000
0001
0000
,
0000
0001
0100
0000
0110
0000
0000
0000
1000
0000
0000
1000
0000
0000
0010
0000
,
0000
0000
1000
0000
1001
0000
0000
0000
1000
0100
0000
0100
0010
0000
0001
0100
,
0000
0100
0010
0000
1000
0000
0001
0000
1000
0000
0000
1000
0000
0000
0100
0000
,
0000
1000
0100
0000
1001
0000
0000
0000
1000
0010
0000
1000
0010
0000
1000
0000
,
0000
1000
0100
0000
0110
0000
0000
0000
0001
0000
0000
0001
0000
0000
0010
0000
,
0000
0001
0010
0000
1001
0000
0000
0000
0010
1000
0000
1000
0100
0000
0010
0001
,
0000
0001
0100
0000
0010
1000
0100
0010
0001
0000
1000
0010
1000
0000
0001
0000
,
1000
0100
0010
0000
1000
0000
0010
0000
0100
1000
0000
1000
0001
0000
0100
0001
,
0000
0001
1000
0000
0100
0000
0001
0000
0100
0010
0000
0100
0010
0000
0100
0000
,
0010
0100
1000
0000
0001
0000
0100
0000
0010
0000
1000
0010
1000
0000
0010
0000
,
1000
0100
0010
0000
0001
0000
0100
0010
1000
0000
0001
0010
0001
0000
1000
0000
,
0001
0100
0010
0000
0001
0000
0010
0000
0100
0001
0000
0001
1000
0000
0100
1000
,
0000
1000
0001
0000
0100
0000
1000
0000
0100
0010
0000
0100
0010
0000
0100
0000
,
0010
0100
0001
0000
1000
0000
0100
0000
0020
0000
0000
0000
0130
0000
0110
0000
,
0000
0000
0001
0000
0010
0001
0000
0001
1000
0010
1000
0010
0100
0010
1000
0100
,
0000
0000
0000
0000
0000
0000
0000
0000
0001
0010
0001
0010
0100
0010
0001
0100
,
0000
0000
0000
0000
0000
0000
0000
0000
1000
0010
1000
0001
0010
0001
0010
0100
,
0000
0000
0010
0000
0010
0100
1000
0001
0100
0000
0000
0000
0001
1000
0100
0000
,
0000
0000
1001
0000
1000
0010
0001
0010
,
1000
0100
0000
0100
0001
0000
0201
0000
0000
0301
0100
0000
0010
0000
0100
1000
,
0000
1000
0010
0000
2010
0000
0000
0000
3001
0000
1000
01M0
0100
0000
0001
01M0
,
0100
0000
1000
0000
0100
0000
0010
0000
0001
1000
0000
1000
0001
0000
0101
0000
,
0000
0000
1010
0000
0010
1000
0001
1000
0100
0000
0010
0000
0010
0000
0100
0000
,
0010
0001
0000
1000
0010
0000
0100
0000
0001
1000
0000
1000
0001
0000
0010
0001
,
1000
0001
0000
0001
0100
0001
1000
0000
0001
0000
0M10
0010
1000
0000
0M10
0010
,
0001
0000
0100
0010
1000
0000
0100
0000
0011
0000
0000
0001
0100
0000
1010
0000
,
0000
0000
1001
0000
0010
1000
0100
0010
0001
0000
0010
0000
1000
0010
0001
0010
,
0001
0100
0000
0100
1000
0000
1200
0000
0000
1300
0100
0000
0010
0000
0100
0001
,
0000
0001
0010
0000
0012
0000
0000
0000
1003
0000
0001
01M0
0100
0000
1000
01M0
,
0000
0100
0001
0000
0100
0000
0010
0000
1000
0000
0100
1000
0100
0000
0011
0000
,
0000
0000
1001
0000
0000
0000
0101
0000
0000
0000
0001
0000
0100
0000
0010
1000
,
0100
0010
0100
0010
0001
0100
0020
0000
0000
0000
1030
0000
1000
0100
0020
0000
,
0000
0000
0031
0000
1000
0001
0000
0000
0001
0000
1000
0001
0100
0001
0100
0010
,
0000
0000
0010
0000
0100
0001
0000
0000
1000
0000
0001
1000
0100
1000
0100
0010
,
0000
0000
0001
0010
0100
1000
0001
0100
0010
0000
1000
0010
1000
0010
0100
0001
,
0000
0000
1000
0000
1000
0000
0001
0010
0200
0000
0000
0000
0310
0000
1001
0000
;
