#VERSION:0.83;
#TITLE:MAGIC (android52 Remix);
#SUBTITLE:;
#ARTIST:Moe Shop & MYLK;
#TITLETRANSLIT:;
#SUBTITLETRANSLIT:;
#ARTISTTRANSLIT:;
#GENRE:EDM;
#ORIGIN:;
#CREDIT:;
#BANNER:MAGIC (android52 Remix)-bn.png;
#BACKGROUND:MAGIC (android52 Remix)-bg.png;
#PREVIEWVID:;
#JACKET:MAGIC (android52 Remix)-jacket.png;
#CDIMAGE:;
#DISCIMAGE:;
#LYRICSPATH:;
#CDTITLE:;
#MUSIC:MAGIC (android52 Remix).ogg;
#OFFSET:2.406000;
#SAMPLESTART:21.969000;
#SAMPLELENGTH:15.000000;
#SELECTABLE:YES;
#BPMS:0.000=128.000;
#STOPS:;
#DELAYS:;
#WARPS:;
#TIMESIGNATURES:0.000=4=4;
#TICKCOUNTS:0.000=4;
#COMBOS:0.000=1;
#SPEEDS:0.000=1.000=0.000=0;
#SCROLLS:0.000=1.000;
#FAKES:;
#LABELS:0.000=Song Start;
#BGCHANGES:;
#KEYSOUNDS:;
#ATTACKS:
;

//---------------dance-single - ----------------
#NOTEDATA:;
#CHARTNAME:;
#STEPSTYPE:dance-single;
#DESCRIPTION:;
#CHARTSTYLE:;
#DIFFICULTY:Hard;
#METER:15;
#RADARVALUES:0.592177,0.883851,0.477980,0.428534,0.510944,503.000000,445.000000,58.000000,52.000000,0.000000,0.000000,0.000000,0.000000,0.000000,0.592177,0.883851,0.477980,0.428534,0.510944,503.000000,445.000000,58.000000,52.000000,0.000000,0.000000,0.000000,0.000000,0.000000;
#CREDIT:Pandemonium X;
#NOTES:
// measure 0
0000
0000
0000
0000
,  // measure 1
0000
0000
0000
0000
,  // measure 2
0000
0000
0000
0000
,  // measure 3
0000
0000
0000
0000
,  // measure 4
0000
0000
0000
0000
,  // measure 5
1001
0000
0000
0000
0000
0001
0000
0000
1010
0000
0000
0000
0000
0001
0000
0000
,  // measure 6
1010
0000
0000
0100
0000
0100
0000
0000
1001
0000
0000
0010
0000
0010
0000
0000
,  // measure 7
1001
0000
0000
0000
0000
1000
0000
0000
0011
0000
0000
0000
0000
1000
0000
0000
,  // measure 8
0011
0000
0000
0000
0000
1000
0000
0000
0011
0000
0000
0000
0010
0000
0000
0000
,  // measure 9
1001
0000
0000
0000
0000
0001
0000
0000
0110
0000
0000
0000
0000
0001
0000
0000
,  // measure 10
0110
0000
0000
1000
0000
1000
0000
0000
0110
0000
0000
0001
0000
0001
0000
0000
,  // measure 11
0110
0000
0000
0000
0010
0000
0100
0000
0002
0000
0000
0000
2003
0000
0000
3200
,  // measure 12
0000
0000
0300
0000
1000
0000
0100
0000
0002
0000
0000
0203
0000
0000
2300
0000
,  // measure 13
3010
1000
0010
0000
0100
0000
0001
0010
0000
0010
0001
0000
1000
0000
0001
0000
,  // measure 14
0100
0010
0100
0000
0010
0000
1000
0100
0000
1000
0100
0000
0010
0000
0100
0000
,  // measure 15
1000
0001
1000
0000
0001
0000
0010
0100
0000
0100
0010
0000
0010
0000
0001
0000
,  // measure 16
0100
0010
0100
0000
0010
0000
1000
0001
0000
1000
0001
0000
0010
0000
0100
0000
,  // measure 17
1000
0100
0010
0000
0001
0000
0010
0001
0000
0001
0010
0000
0010
0000
0001
0000
,  // measure 18
0100
0010
1000
0000
0001
0000
1000
0100
0000
1000
0100
0000
1000
0000
0010
0000
,  // measure 19
0100
0001
0010
0000
0100
0000
0010
0001
0000
0001
0010
0000
0100
0000
1000
0000
,  // measure 20
0002
0000
0000
0000
1003
0000
0100
0000
2000
0000
0000
3002
0000
0000
0103
0000
,  // measure 21
1001
0000
0000
0001
0010
0100
0010
0001
,  // measure 22
1000
0001
0100
0001
,  // measure 23
1000
0000
0000
0100
1000
0100
0010
0001
,  // measure 24
1000
0010
1000
0100
,  // measure 25
0010
0000
1001
0000
0001
0010
0011
0000
,  // measure 26
0100
0000
0110
0000
1000
0001
1001
0000
,  // measure 27
0110
0011
1010
0101
,  // measure 28
0120
0000
1030
0200
0000
2300
0000
0000
,  // measure 29
3001
0000
0000
1000
0100
0000
0010
0000
0100
0000
0000
0010
0001
0000
1000
0000
,  // measure 30
1020
0130
1020
0130
,  // measure 31
0001
0000
0000
0010
0001
0000
1000
0000
0010
0000
0000
0100
0001
0000
1000
0000
,  // measure 32
1100
0101
0011
1010
,  // measure 33
1001
0000
0000
0010
0100
0000
0001
0000
1000
0000
0000
0100
1000
0000
0001
0000
,  // measure 34
0102
0013
0102
0013
,  // measure 35
0100
0000
0000
0010
0100
0000
0010
0000
0001
0000
0000
0100
0010
0000
1000
0000
,  // measure 36
0200
0000
0310
0001
0100
0000
0010
1000
,  // measure 37
1001
0000
0001
1000
0000
0000
0001
0000
0001
0000
0100
0000
1000
0000
0000
0000
,  // measure 38
1200
0310
1200
0310
,  // measure 39
2000
3002
2003
3002
,  // measure 40
2003
0000
3002
0000
2003
0000
3200
0300
,  // measure 41
1001
0000
1000
0100
0000
0010
0001
0000
1000
0000
0010
0000
1000
0000
0001
0000
,  // measure 42
1001
0000
1000
0001
0000
0001
1000
0000
0100
0000
0010
0000
0001
0000
0100
0000
,  // measure 43
0000
0020
0000
0030
0100
0010
1000
0100
,  // measure 44
0000
0020
0000
0130
0110
0000
1001
0000
,  // measure 45
0011
0000
0001
0010
0000
0001
0100
0000
0010
0000
1000
0000
0100
0000
0010
0000
,  // measure 46
0110
0000
0010
0001
0000
0001
1000
0000
0010
0000
1000
0000
0001
0000
0100
0000
,  // measure 47
0010
0200
0000
0300
0010
1000
0001
0010
,  // measure 48
0000
0000
0000
0200
0000
0000
0000
0000
0000
0300
0000
0000
0020
0030
0200
2300
3000
2000
3002
0003
0002
0203
0300
0000
,  // measure 49
0010
0000
1000
0001
0000
0001
1000
0000
1000
0001
0000
0001
1000
0000
1000
0001
0000
0001
1000
0000
1000
0001
0000
1000
,  // measure 50
0100
0000
0010
0100
0000
0100
0010
0000
0010
0100
0000
0100
0010
0000
0010
0100
0000
0100
0010
0000
0010
0100
0000
0100
,  // measure 51
1000
0000
1000
0100
0000
0100
0010
0000
0010
0001
0000
0002
0013
0000
0010
0100
0000
0100
1000
0000
0000
0002
0000
0000
,  // measure 52
1003
0000
1000
0010
0000
0010
0100
0000
0100
0001
0000
0002
1003
0000
1000
0100
0000
0100
0010
0000
0010
0002
0000
0000
,  // measure 53
0203
0300
0000
0020
0030
1000
0010
0000
0100
0001
0000
0010
0001
0000
1000
0100
0000
1000
0010
0000
0100
0001
0000
0010
,  // measure 54
0100
0000
0100
1000
0000
0001
1000
0000
0100
0010
0000
0100
1000
0000
0010
0100
0000
0001
0010
0000
0100
1000
0000
0100
,  // measure 55
0010
0000
0100
1000
0000
0100
0010
0000
0100
1000
0000
0020
0130
0000
0001
0010
0000
0100
0010
0000
0001
2000
3000
0010
,  // measure 56
0100
0000
0010
1000
0000
0001
0100
0000
0001
0010
0001
0000
0000
0000
0000
0000
0000
0000
1001
0000
0000
0000
0000
0000
,  // measure 57
0110
0000
0000
0001
0100
0000
0010
0000
1000
0000
0000
0001
0100
0000
0010
0000
,  // measure 58
1010
0101
1100
0011
,  // measure 59
1001
0000
0000
1000
0100
0000
0010
0000
0001
0000
0000
1000
0100
0000
0010
0000
,  // measure 60
1001
0101
1001
1100
,  // measure 61
1001
0000
0000
0010
0100
0000
0001
0000
1000
0000
0000
0010
0100
0000
0001
0000
,  // measure 62
1001
0000
0000
0000
1010
0000
0000
0000
0101
0000
0000
0000
0011
0000
0000
0110
,  // measure 63
0000
0000
0000
0000
0010
0000
0001
0000
0200
0000
0000
0000
2300
0000
0000
3200
,  // measure 64
0000
0000
0300
0000
0010
0000
1000
0000
0002
0000
0000
2003
0000
0000
3020
0000
,  // measure 65
0030
0000
0000
0000
;

//---------------dance-single - ----------------
#NOTEDATA:;
#CHARTNAME:;
#STEPSTYPE:dance-single;
#DESCRIPTION:;
#CHARTSTYLE:;
#DIFFICULTY:Medium;
#METER:10;
#RADARVALUES:0.430888,0.534637,0.280195,0.173062,0.115374,366.000000,332.000000,34.000000,21.000000,0.000000,0.000000,0.000000,0.000000,0.000000,0.430888,0.534637,0.280195,0.173062,0.115374,366.000000,332.000000,34.000000,21.000000,0.000000,0.000000,0.000000,0.000000,0.000000;
#CREDIT:Pandemonium X;
#NOTES:
0000
0000
0000
0000
,
0000
0000
0000
0000
,
0000
0000
0000
0000
,
0000
0000
0000
0000
,
0000
0000
0000
0000
,
1001
0000
0000
0000
0000
0001
0000
0000
0001
0000
0000
0000
0000
0001
0000
0000
,
0001
0000
0000
1000
0000
1000
0000
0000
0001
0000
0000
0100
0000
0010
0000
0000
,
0100
0000
0000
0000
0000
0001
0000
0000
0001
0000
0000
0000
0000
0001
0000
0000
,
0001
0010
0100
1000
,
1001
0000
0000
0000
0000
0010
0000
0000
0010
0000
0000
0000
0000
0010
0000
0000
,
0010
0000
0000
1000
0000
1000
0000
0000
0001
0000
0000
0010
0000
0100
0000
0000
,
0010
0000
0000
0000
0010
0000
0001
0000
0100
0000
0000
0000
0100
0000
0000
0010
,
0000
0000
0000
0000
0100
0000
0001
0000
1000
0000
0000
1000
0000
0000
1000
0000
,
1001
0001
0100
0000
0001
0000
0011
0000
,
0010
0100
1000
0000
0010
0000
1010
0000
,
1000
0010
0100
0000
0001
0000
1001
0000
,
0001
0010
1000
0000
0010
0001
0100
0000
,
0010
0100
0001
0000
1000
0000
1100
0000
,
1000
0010
0100
0000
0001
0000
0011
0000
,
0010
0100
1000
0000
0001
0000
1000
0000
,
1001
0000
0000
0000
1000
0000
0100
0000
0001
0000
0000
0100
0000
0000
1000
0000
,
0001
0001
1000
1000
,
0010
0001
0010
1000
,
0100
0100
0010
0010
,
0100
0010
0001
1000
,
0001
0000
1000
0000
0010
1000
0010
0000
,
0100
0000
0001
0000
0010
0100
0010
0000
,
0110
0110
1001
1001
,
0101
0000
0001
2000
0000
3200
0000
0000
,
0310
0000
0000
0100
1000
0010
0100
0000
,
1002
1003
2001
3001
,
0000
0010
0001
0010
0100
1000
0010
0100
,
0002
0203
2300
3200
,
0310
0000
0000
1000
0010
1000
0001
0000
,
2001
3001
1002
1003
,
0000
0100
0010
0100
1000
0010
0100
0001
,
1000
0000
0100
0010
0010
0000
0010
0010
,
0100
0000
0100
1000
0000
0000
0100
0000
0010
0000
0001
0000
0100
0000
0000
0000
,
1002
0013
2001
3010
,
2000
3002
2003
3002
,
2003
3002
2003
3010
,
0100
0000
0000
0100
0000
0000
0100
0000
0010
0000
1000
0000
0010
0000
0100
0000
,
0010
0000
0000
0010
0000
0000
0010
0000
0100
0000
0001
0000
0010
0000
0100
0000
,
0000
0011
0000
0000
0100
0010
0001
1000
,
0000
1010
0000
0010
1001
0000
0110
0000
,
0001
0000
0000
0001
0000
0000
0001
0000
1000
0000
0100
0000
0010
0000
0100
0000
,
1000
0000
0000
1000
0000
0000
1000
0000
0100
0000
1000
0000
0010
0000
0100
0000
,
0000
0101
0000
0000
0001
0100
0010
1000
,
0000
0000
0000
0101
0000
0000
0000
0000
0000
0001
0000
0000
1000
0000
1000
0001
0000
0001
1000
0000
1000
0001
0000
0000
,
0100
0010
0100
0010
0100
0010
0100
0010
,
1000
0001
1000
0001
1000
0001
1000
0001
,
0010
0001
0010
0001
1000
0100
1000
0100
,
1000
0010
1000
0010
0100
0001
0100
0001
,
0020
0230
1300
0100
1000
0100
1000
0100
,
0010
0001
0010
0001
0010
0001
0010
0001
,
1000
0001
1000
0001
0100
0010
0100
0010
,
1000
0010
1000
0010
0000
0000
0110
0000
,
1001
0000
0001
0100
0010
0000
0100
0001
,
1001
0110
0011
0110
,
1100
0000
0100
1000
0010
0000
0100
0010
,
1000
0010
0100
0001
0010
0000
0100
0000
,
1001
0000
0010
0100
1000
0000
0100
0010
,
0001
0000
0000
0000
0010
0000
0001
0000
0010
0000
0000
0000
0100
0000
0000
0010
,
0000
0000
0000
0000
0100
0000
1000
0000
0010
0000
0000
0000
0010
0000
0000
0010
,
0000
0000
0000
0000
0100
0000
0010
0000
1000
0000
0000
0001
0000
0000
1000
0000
;

//---------------dance-single - ----------------
#NOTEDATA:;
#CHARTNAME:;
#STEPSTYPE:dance-single;
#DESCRIPTION:;
#CHARTSTYLE:;
#DIFFICULTY:Easy;
#METER:7;
#RADARVALUES:0.293145,0.400978,0.247231,0.065928,0.000000,249.000000,219.000000,30.000000,8.000000,0.000000,0.000000,0.000000,0.000000,0.000000,0.293145,0.400978,0.247231,0.065928,0.000000,249.000000,219.000000,30.000000,8.000000,0.000000,0.000000,0.000000,0.000000,0.000000;
#CREDIT:Pandemonium X;
#NOTES:
0000
0000
0000
0000
,
0000
0000
0000
0000
,
0000
0000
0000
0000
,
0000
0000
0000
0000
,
0000
0000
0000
0000
,
1001
0000
0000
0001
,
1000
1000
0001
0001
,
1001
0000
0000
1000
,
0010
1000
0010
0100
,
1001
0000
0000
0001
,
0010
0001
0100
0010
,
1000
0001
0100
0100
,
0110
0000
0000
0000
,
1000
0010
1000
0000
0010
0000
1000
0000
,
0001
0010
0001
0000
0010
0000
0001
0000
,
0100
0010
0100
0000
0010
0000
1000
0000
,
0001
0100
0001
0000
1000
0000
0001
0000
,
0010
0001
0010
0000
0001
0000
1000
0000
,
0100
1000
0100
0000
1000
0000
0010
0000
,
0100
0010
0100
0000
0010
0000
1000
0000
,
1001
0000
0001
1000
0010
0000
1000
0000
,
1100
0000
0100
1000
,
0001
0001
1000
1000
,
0010
0000
0100
0010
,
1000
0100
0010
0001
,
1000
0001
1000
0100
,
0010
0001
0100
0010
,
1001
1001
0110
0110
,
1001
0000
0010
0100
0000
0010
0000
0000
,
1001
0000
1000
0100
,
0011
1100
0011
1100
,
0000
0100
1000
0010
,
0200
0301
0200
0310
,
1001
0000
0001
1000
,
1010
0101
1010
0101
,
0000
1000
0001
0010
,
0002
0100
0103
0001
,
0010
0000
0001
0100
,
0110
1001
0110
1001
,
0020
0000
0000
0000
,
0000
0000
0000
0030
,
0100
0000
0001
0000
0010
0001
0010
0000
,
0001
0000
1000
0000
0100
1000
0100
0000
,
1000
0001
0100
0010
,
1000
0001
1001
0110
,
0010
0000
1000
0000
0010
0100
0010
0000
,
0100
0000
0001
0000
0010
0001
0010
0000
,
0001
1000
0001
0100
,
0010
1000
0002
2003
,
3100
0100
0100
0100
,
1000
1000
1000
1000
,
0010
0010
0100
0100
,
0001
0001
1000
1000
,
0001
1000
0001
0000
0001
0000
0001
0000
,
0100
0100
0100
0100
,
0010
0010
1000
1000
,
0100
0100
0000
0000
,
1001
0000
0000
0001
,
1000
0010
1000
0100
,
0110
0000
0000
0100
,
1000
0010
0100
0001
,
1001
0000
0000
0001
,
1000
0010
1000
0100
,
0010
0100
2000
0000
,
3000
0000
0001
0000
0200
0000
0000
0300
;

//---------------dance-single - ----------------
#NOTEDATA:;
#CHARTNAME:;
#STEPSTYPE:dance-single;
#DESCRIPTION:;
#CHARTSTYLE:;
#DIFFICULTY:Beginner;
#METER:3;
#RADARVALUES:0.115374,0.210970,0.065928,0.000000,0.000000,98.000000,90.000000,8.000000,0.000000,0.000000,0.000000,0.000000,0.000000,0.000000,0.115374,0.210970,0.065928,0.000000,0.000000,98.000000,90.000000,8.000000,0.000000,0.000000,0.000000,0.000000,0.000000,0.000000;
#CREDIT:Pandemonium X;
#NOTES:
0000
0000
0000
0000
,
0000
0000
0000
0000
,
0000
0000
0000
0000
,
0000
0000
0000
0000
,
0000
0000
0000
0000
,
1000
0000
0000
0000
,
0001
0000
1000
0000
,
0001
0000
0000
0000
,
0100
0000
0010
0000
,
0100
0000
0000
0000
,
0010
0000
1000
0000
,
0100
0000
0000
0000
,
0010
0000
0000
0000
,
1001
0000
0000
0000
,
0001
0000
0000
0000
,
0100
0000
0000
0000
,
0001
0000
1000
0000
,
0100
0000
0000
0000
,
1000
0000
0000
0000
,
0010
0000
0000
0000
,
0100
0000
0010
0000
,
1000
0000
0000
0000
,
0001
0000
0001
0000
,
0001
0000
0000
0000
,
1000
0000
1000
0000
,
1000
0000
0000
0000
,
0010
0000
0010
0000
,
0100
0100
0010
0010
,
0100
0000
0000
0000
,
1001
0000
1000
0000
,
0001
0001
0001
0001
,
1000
0000
0010
0000
,
0100
0000
0000
0000
,
0110
0000
0010
0000
,
1000
1000
1000
1000
,
0001
0000
0000
0000
,
1000
0000
0000
0000
,
0010
0000
0000
0000
,
0100
0000
0000
0000
,
0000
0000
0000
0000
,
0000
0000
0000
0000
,
1001
0000
0001
0000
,
1000
0000
0010
0000
,
1000
0000
0000
0000
,
0100
0000
1000
1000
,
0001
0000
0000
0000
,
1000
0000
0000
0000
,
0010
0000
0000
0000
,
0100
0000
0010
0010
,
1001
0000
0000
0000
,
0001
0000
0000
0000
,
1000
0000
0000
0000
,
0010
0000
0100
0000
,
0010
1000
0000
0000
,
0001
0000
0000
0000
,
0010
0000
0000
0000
,
0001
0000
0000
0000
,
1001
0000
0000
0000
,
1000
0000
0001
0000
,
0110
0000
0000
0000
,
0100
0000
0010
0000
,
1001
0000
0000
0000
,
1000
0000
0001
0000
,
0100
0000
0010
0000
,
1000
0000
0000
0000
;
