#TITLE:共鳴遊戯の華;
#SUBTITLE:;
#ARTIST:アイテール魔導士隊;
#TITLETRANSLIT:Kyoumei yuugi no hana;
#SUBTITLETRANSLIT:;
#ARTISTTRANSLIT:Aether madoushitai;
#GENRE:;
#CREDIT:Skeleton & Graphics made by t7r;
#MUSIC:Kyoumei yuugi no hana.ogg;
#BANNER:Kyoumei yuugi no hana.png;
#BACKGROUND:Kyoumei yuugi no hana-bg.png;
#CDTITLE:;
#SAMPLESTART:92.210;
#SAMPLELENGTH:15.000;
#SELECTABLE:YES;
#OFFSET:0.001;
#BPMS:0.000=190.000;
#STOPS:;
#BGCHANGES:;
#FGCHANGES:;

//--------------- dance-single - forcednature ----------------
#NOTES:
     dance-single:
     forcednature:
     Beginner:
     5:
     0,0,0,0,0:
0000
0000
0000
0000
,
0000
0000
0000
0000
,
0000
0000
0000
0000
,
0000
0000
0000
0000
,
0000
0000
0000
0000
,
0100
0000
0000
0000
,
0001
0000
0000
0000
,
0020
0000
0000
0000
,
0030
0000
0000
0000
,
0200
0000
0000
0000
,
0300
0000
0000
0000
,
1000
0000
1000
0000
,
0001
0000
0000
0000
,
2002
0000
0000
0000
,
0000
0000
0000
0000
,
0000
0000
0000
0000
,
3003
0000
0000
0000
,
0001
0000
0100
0000
,
0001
0000
0000
0000
,
2000
0000
0000
0000
,
3000
0000
0000
0000
,
0002
0000
0000
0000
,
0003
0000
0000
0000
,
0100
0000
0100
0000
,
0010
0000
1000
1000
,
0001
0000
0100
0000
,
0001
0000
1000
0000
,
0010
0000
1000
0000
,
0100
0100
0100
0000
,
1001
0000
0001
0000
,
0100
0000
0010
0000
,
1000
0000
0001
0000
,
0100
0000
0010
0000
,
1001
0000
0100
0100
,
0100
0000
0001
0000
,
1000
0000
0010
0000
,
1000
0000
0001
0000
,
0110
0000
0100
0100
,
0100
0000
1000
0000
,
0001
0001
0001
0000
,
1000
1000
1000
0000
,
1001
0000
0100
0000
,
0010
0010
0010
0000
,
0001
0000
0100
0000
,
0010
0000
1000
0000
,
0100
0100
0100
0000
,
0010
0010
0010
0000
,
0001
0001
0001
0000
,
1000
1000
1000
0000
,
1001
0000
0000
0000
,
0110
0000
0010
0010
,
0010
0000
0100
0000
,
0001
0000
1000
1000
,
1000
0000
0100
0000
,
1001
0000
0010
0000
,
1001
0000
0100
0000
,
0110
0000
0001
0000
,
0110
0000
0001
0001
,
0001
0000
0100
0100
,
0100
0000
0001
1000
,
0001
0000
1000
0001
,
1000
0000
0100
0000
,
1001
0000
1000
0000
,
0110
0000
0001
0000
,
1001
0000
0100
0000
,
0010
0010
0010
0000
,
2002
0000
0000
0000
,
3003
0000
0000
0000
,
0200
0000
0000
0000
,
0300
0000
0000
0000
,
0020
0000
0000
0000
,
0030
0000
0000
0000
,
1000
1000
0001
0001
,
0100
0000
0010
0010
,
0010
0000
1000
1000
,
1000
0000
0001
0001
,
0001
0000
0010
0000
,
0100
0000
0000
0000
,
1000
0001
1000
0000
,
0001
1000
0001
0000
,
0100
0000
0010
0000
,
0100
0100
0100
0000
,
1001
0000
0010
0010
,
0010
0000
1000
1000
,
1000
0000
0001
0001
,
0001
0000
0100
0000
,
1001
0000
0100
0000
,
0110
0000
0001
0000
,
0110
0000
1000
0000
,
0010
0010
0010
0010
,
0010
0000
0000
0000
,
0100
0000
0000
0000
,
1000
0000
0000
0000
,
0001
0000
0000
0000
,
0100
0000
0000
0000
;

//--------------- dance-single - forcednature ----------------
#NOTES:
     dance-single:
     forcednature:
     Easy:
     8:
     0,0,0,0,0:
0000
0000
0000
0000
,
0000
0000
0000
0000
,
0000
0000
0000
0000
,
0000
0000
0000
0000
,
0000
0000
0000
0000
,
0001
0100
0001
0100
,
0010
0000
0000
1000
0000
0000
0010
0000
,
1000
0002
0100
0000
,
0010
0000
1000
1000
,
0103
0000
0001
0000
,
0010
0100
1000
0001
,
2000
0010
0001
0000
,
0100
0000
0002
3003
,
1001
0000
0001
0100
,
0010
1000
0100
1000
,
0010
0000
0100
0001
,
0010
0100
1000
0001
,
0100
0010
0100
0010
,
1000
0000
0000
0001
0000
0000
1000
0000
,
0010
0200
0001
0000
,
1000
0010
0001
0310
,
0100
0000
0001
0000
,
1000
0010
1000
0100
,
0010
0100
1000
0000
,
0001
0100
0010
0100
,
0110
1000
0001
1000
,
0100
0100
0010
0001
,
1001
0001
0100
0010
,
1000
0000
0001
0000
0010
0100
0010
0000
,
0001
1000
0010
1000
,
0001
0100
0001
1000
,
1001
0000
0000
0110
0000
0000
0000
1001
,
0000
0000
0100
0000
0010
0100
0010
0000
,
0110
1000
0001
1000
,
0100
0010
0001
0100
,
0020
0000
0100
0030
,
0010
1000
0001
0100
,
0210
0000
0301
0000
,
1000
0100
0010
0000
,
0100
1000
0001
0100
,
0001
1000
0100
0010
,
0110
0000
0001
1000
,
0001
0010
0100
1000
,
0010
0000
2000
0000
,
3002
0000
0203
0000
,
0310
0100
0001
1000
,
0100
0000
0010
0000
0001
1000
0001
0000
,
0100
0010
1000
0100
,
1000
0000
0010
0000
1000
0001
1000
0000
,
2002
0000
0000
3003
,
1001
0000
0001
0000
0100
0010
0100
0000
,
0001
1000
0010
1000
,
0001
0000
0010
0000
0001
1000
0001
0000
,
0100
0010
1000
0000
,
1001
1000
0010
0100
,
1001
0001
0010
0100
,
0110
1000
0001
0100
,
0010
0000
0000
0000
0000
0000
0000
0000
1000
0000
0000
0001
0000
0000
1000
0000
,
0001
0000
0100
0000
0010
1000
0010
0000
,
1000
0100
0010
0001
,
0100
0000
0010
0000
1000
0001
1000
0000
,
0100
0010
0001
0100
,
1001
0100
0001
0010
,
1001
0100
1000
0010
,
0110
0001
0100
0010
,
1001
0000
0001
1000
0001
1000
0001
0000
,
2000
0000
0100
0000
,
0100
0000
3000
0000
,
0002
0000
0100
0000
,
0103
0000
0000
0000
,
0200
0000
0010
0000
,
0010
0000
0300
0000
,
1000
0001
1000
0001
1000
0001
1000
0001
,
0100
0010
0000
0100
0010
0100
0010
0000
,
0110
0000
0000
0000
1000
0001
1000
0000
,
0100
0010
0001
1000
,
0001
0000
1000
0000
0010
0100
0010
0000
,
1000
0010
0100
0001
,
1001
0100
0001
0100
,
0110
0010
1000
0010
,
1001
1000
0100
1000
,
0110
0000
0000
0000
0000
0000
0000
0000
0001
0000
0000
1000
0000
0000
0001
0000
,
1000
0000
0010
0000
0100
0001
0100
0000
,
0010
1000
0100
0010
,
0001
0000
1000
0000
0001
0100
0001
0000
,
1000
0010
1000
0100
,
0110
0001
0100
1000
,
0110
0010
1000
0001
,
1000
0001
1000
0000
0010
0100
0010
0000
,
1000
0001
1000
0001
1000
0001
1000
0000
,
1001
0000
0000
0001
,
0001
0000
0000
0100
,
0100
0000
0000
1000
,
1000
0000
0000
0010
,
0010
0000
0000
0000
;

//--------------- dance-single - forcednature ----------------
#NOTES:
     dance-single:
     forcednature:
     Medium:
     11:
     0,0,0,0,0:
0000
0000
0000
0000
,
0000
0000
0000
0000
,
0000
0000
0000
0000
,
0000
0000
0000
0000
,
0000
0000
0000
0000
,
0000
0001
1000
0010
,
0100
0000
0000
0001
0000
0000
0010
0000
,
0100
1000
0020
0000
1000
0000
0000
0000
,
0001
0030
0010
1000
,
0200
0000
0001
0000
,
1300
0000
0000
0000
0100
0000
0000
0000
0010
0000
0000
0001
0000
0000
1000
0000
,
0010
0100
0002
0000
0010
0000
0000
0000
,
0100
0000
2000
3003
,
2001
0000
0100
0000
,
0100
0000
0010
0000
,
0001
0000
0100
0000
,
0001
0000
0002
0000
,
3003
0001
0100
0010
,
1000
0000
0000
0001
0000
0000
1000
0000
,
0100
0010
0002
0000
1000
0000
0100
0000
,
1000
0013
0001
1000
,
0020
1000
0100
0001
,
0130
0000
0000
0000
0010
0000
0000
0000
1000
0000
0000
0100
0000
0000
0010
0000
,
0001
1000
0020
0000
0001
0000
0100
0000
,
1030
0000
0010
0000
1000
0001
1000
0000
,
1001
0000
0001
1000
0000
0010
1000
0010
,
0000
0100
0001
0100
0000
0001
1000
0000
,
0100
0000
0010
0100
0000
1000
0001
0100
,
0001
1000
0100
0010
0001
0010
0001
0000
,
1001
0000
0001
1000
0000
0010
1000
0010
,
0000
0100
0001
0100
0000
0001
1000
0000
,
0110
0000
0001
1000
0000
0100
1000
0100
,
0000
0010
0001
0010
0001
1000
0001
0000
,
0110
0000
0001
0000
1000
0100
0010
0000
,
0100
0000
1000
0010
0000
1000
0100
0000
,
1001
0000
0001
0000
0010
0001
0100
0000
,
0010
0000
0000
0000
1000
0000
0000
0000
0001
0000
0000
0010
0000
0000
0100
0000
,
1000
0000
0001
0000
0100
0010
1000
0000
,
0100
0000
0010
0100
0000
1000
0001
0000
,
0100
0000
0001
1000
0010
0100
0001
0000
,
0010
0000
0100
1000
0000
0001
0010
0000
,
0110
0000
1000
0001
0000
1000
0100
0010
,
0100
0000
1000
0000
0001
0100
0010
0000
,
1000
0001
0100
0000
1001
0000
0100
0000
,
0110
1000
0110
0001
,
1000
0100
0010
0001
0010
0100
1000
0000
,
0001
0100
1000
0000
0100
0001
0010
0000
,
0001
1000
0010
0100
0010
1000
0001
0000
,
1000
0100
0001
0000
0100
1000
0010
0000
,
0110
0000
0000
1001
0000
1000
0001
1000
,
0002
0000
0000
0000
0100
0000
0000
0000
1003
0000
0000
0001
0000
0000
0010
0000
,
0200
0001
1300
0100
,
2000
0000
0000
0000
0001
0000
0000
0000
3010
0000
0000
1000
0000
0000
0001
0000
,
0200
1000
0010
0301
,
0110
0000
1000
0001
0000
0100
0001
0100
,
0010
0000
1000
0100
0000
0010
0100
0010
,
0001
0000
1000
0001
0000
1000
0010
1000
,
0001
0000
0100
0000
0010
0000
0000
0000
0010
0000
0000
1000
0000
0000
0100
0000
,
0020
0000
0000
0000
1000
0000
0000
0000
0031
0000
0000
0010
0000
0000
0100
0000
,
2000
0000
0000
0000
0010
0000
0000
0000
3001
0000
0000
1000
0000
0000
0010
0000
,
0200
0000
0000
0000
1000
0000
0000
0000
0301
0000
0000
0100
0000
0000
0010
0000
,
1000
0100
1000
0000
0010
0100
0001
0000
,
1001
0000
0000
0001
0000
0000
0010
0000
0100
0000
0000
1000
0000
0000
0100
0000
,
0010
0000
0000
0000
0001
0000
0100
0000
0001
0000
0000
1000
0000
0000
0010
0000
,
0200
1000
0010
0301
,
0110
0000
0001
1000
0010
1000
0001
0010
,
0200
0000
1000
0000
,
1000
0000
0010
0000
,
0001
0000
0010
0000
,
2300
0000
0010
0000
,
3002
0000
0100
0000
,
1000
0000
0010
0003
,
0001
1000
0001
0100
0010
1000
0100
0010
,
0001
0100
0000
0010
1000
0001
0010
0100
,
0020
0000
0000
0000
1000
0000
0000
0000
0031
0000
0000
0010
0000
0000
0001
0000
,
0200
1000
0301
0100
,
0020
0000
0000
0000
0001
0000
0000
0000
1030
0000
0000
0010
0000
0000
0100
0000
,
0002
0010
1000
0103
,
0011
0000
0001
0100
0000
0010
1000
0010
,
0100
0000
0001
1000
0000
0100
0010
0001
,
1000
0000
0010
0100
0000
0001
0100
0010
,
1000
0000
0010
0000
0100
0000
0000
0000
0110
0000
0000
0001
0000
0000
1000
0000
,
0020
0000
0000
0000
0001
0000
0000
0000
1030
0000
0000
0010
0000
0000
0100
0000
,
0002
0000
0000
0000
0010
0000
0000
0000
1003
0000
0000
0001
0000
0000
0010
0000
,
0200
0000
0000
0000
1000
0000
0000
0000
0301
0000
0000
0100
0000
0000
1000
0000
,
0010
0100
0020
0000
1000
0000
0031
0000
,
0110
0000
0000
1000
0000
0000
0100
0000
0010
0000
0000
0001
0000
0000
1000
0000
,
0010
0000
0000
0000
0100
0000
0001
0000
0100
0000
0000
0010
0000
0000
1000
0000
,
0100
0010
0001
0000
0100
0010
1000
0000
,
0001
1000
0010
1000
0001
0010
0100
1000
,
0001
0000
0100
0010
,
0010
0000
1000
0001
,
0001
0000
0010
0100
,
0100
0000
0001
1000
,
1001
0000
0000
0000
;

//--------------- dance-single - forcednature ----------------
#NOTES:
     dance-single:
     forcednature:
     Hard:
     15:
     0,0,0,0,0:
0000
0000
0000
0000
,
0000
0000
0000
0000
,
0000
0000
0000
0000
,
0000
0000
0000
0000
,
0000
0000
0000
0000
,
1000
0002
0203
2300
,
3200
0000
0000
0320
0000
0000
2030
0000
,
3001
0010
0200
0000
0000
0000
0000
0000
,
0000
0300
2000
3020
,
2030
0000
0000
0000
,
3000
0000
0000
0000
0002
0000
0000
0000
0103
0000
0000
0001
0000
0000
0010
0000
,
0100
1000
0200
0000
0000
0000
0000
0000
,
0000
0300
0020
0030
,
2002
0000
0000
0000
,
0000
0000
0000
0000
,
0000
0000
0000
0000
,
0000
0000
3003
0000
,
1001
0002
0203
0320
,
0032
0000
0000
0023
0000
0000
2030
0000
,
3100
0010
0002
0000
0000
0000
0000
0000
,
0000
0003
0200
0320
,
2030
0000
0000
0000
,
3000
0000
0000
0000
0200
0000
0000
0000
0310
0000
0000
0001
0000
0000
1000
0000
,
0010
0100
0020
0000
0000
0000
0000
0000
,
0030
0000
0000
0000
0200
0000
0000
0000
0301
0000
1000
0000
0001
1000
0001
1000
,
0100
0010
0001
0100
0000
1000
0100
0001
,
0000
1000
0100
0010
0001
0010
0100
1000
,
0010
0100
1000
0100
0000
0001
0010
0001
,
1000
0010
1000
0010
0100
0001
0100
0001
1000
0000
1000
0000
0001
0000
0000
0001
,
0100
0010
1000
0001
0000
0010
0100
0110
,
0000
0001
1000
0010
0001
0010
0100
0001
,
0011
0000
1000
1100
0000
0001
0100
0101
,
0000
0000
0001
0000
1000
0000
0010
0000
0100
0000
0010
0000
1000
0100
0010
0001
,
1000
0000
0010
0001
0010
1000
0010
0100
,
0001
0010
0100
1000
0001
1000
0010
0100
,
0001
0000
0010
0100
1000
0001
0010
1000
,
0010
0000
0000
0000
0100
0000
1000
0000
0001
0000
0100
0000
0010
0000
1000
0001
,
1000
0000
0001
0010
0000
1000
0010
0100
,
2000
0000
3001
0200
0000
0310
0002
0000
,
2003
0000
3100
0001
0000
0010
0100
0000
,
2001
0000
0000
0000
3001
0000
0020
0000
0000
0000
0130
0000
1000
0100
1000
0000
,
1020
0000
1000
1000
0000
0001
0031
0000
,
0110
0000
0001
1000
0100
0010
0001
0000
,
0100
0011
2100
3100
,
0102
0103
2002
3003
,
1000
0001
1000
0000
0010
0000
0100
0001
0100
0000
0010
0000
1000
0100
1000
0000
,
0001
0010
0001
0000
0100
0010
0100
0000
0001
0100
0001
0100
0010
1000
0010
0000
,
1000
0001
0100
0000
0010
0000
0100
0001
1000
0000
0100
0000
0010
0001
0010
0000
,
0100
1000
0001
0000
0100
0010
1000
0000
0001
0010
0001
0010
0100
1000
0100
0000
,
0000
0000
0000
1001
0000
0001
0100
1000
,
0200
0000
0310
1000
0100
0010
0001
1000
,
0010
0110
0101
1010
,
1002
0000
1003
0100
0001
0100
0010
1000
,
0010
0011
0101
1010
,
0001
0100
0001
0000
1000
0000
0010
0000
0000
0000
1000
0000
0100
0000
0010
0000
,
0001
0010
0001
0000
0100
0000
0010
0000
0000
0000
1000
0000
0001
0000
0100
0000
,
0010
1000
0010
0000
0100
0000
0001
0000
0000
0000
1000
0000
0100
0000
0010
0000
,
0011
0000
0000
0000
0001
1000
0001
0000
0101
0000
0000
1100
0000
0000
0110
0000
,
1002
0000
1003
0100
0001
1000
0010
0001
,
0200
0000
0310
0001
1000
0100
0001
0010
,
0200
0000
1300
0001
0010
1000
0001
0100
,
0010
0001
0020
0000
0130
0000
0110
0000
,
1001
0000
0000
0001
0000
0000
0100
0000
1010
0000
0000
0001
0000
0000
0010
0000
,
0110
0000
0000
0000
1000
0001
1000
0000
0010
0000
0000
0100
0000
0000
0001
0000
,
1001
0000
0001
0000
1000
0100
0010
0000
0001
0000
0100
0000
0010
1000
0001
0000
,
0010
0000
0100
0000
1000
0001
1000
0000
0001
0100
0010
1000
0010
0100
0001
0000
,
0020
0000
0002
0030
,
0200
0003
0020
0300
,
2000
0030
0200
3000
,
2000
0300
0002
3000
,
0020
0003
0200
0030
,
2000
0300
0002
3000
,
0103
0001
0100
0001
1000
0010
1000
0000
0001
0010
0001
0010
0100
1000
0100
0000
,
0010
0001
0010
0001
0010
0000
0100
1000
0100
1000
0001
0100
0001
0100
0001
0000
,
0020
0000
0130
1000
0010
0100
0001
0010
,
0100
0101
1100
0011
,
2010
0000
3001
0100
0010
0001
1000
0100
,
0001
0011
1100
1001
,
1000
0100
1000
0000
0010
0000
0100
0000
0000
0000
0010
0000
1000
0000
0001
0000
,
0010
0100
0010
0000
0001
0000
0100
0000
0000
0000
0010
0000
1000
0000
0001
0000
,
0100
0001
0100
0000
0010
0000
1000
0000
0000
0000
0001
0000
0010
0000
0001
0000
,
0101
0000
0000
0000
0010
1000
0010
0000
0110
0000
0000
1001
0000
0000
1010
0000
,
0021
0000
0031
0010
0100
0001
1000
0010
,
0002
0000
0103
0010
0001
1000
0100
0001
,
2000
0000
3100
0010
1000
0001
0100
1000
,
0010
0001
0020
0000
1030
0000
0110
0000
,
0101
0000
0000
1000
0000
0000
0100
0000
0011
0000
0000
0100
0000
0000
0010
0000
,
1001
0000
0000
0000
0001
0100
0001
0000
1000
0000
0000
0010
0000
0000
1000
0000
,
1100
0000
1000
0010
1000
0010
1000
0000
0001
0010
0001
0010
0100
1000
0100
0000
,
1000
0001
1000
0001
1000
0001
1000
0001
0100
0010
0100
0010
0100
0010
0100
0010
,
0100
0000
0001
0010
,
0100
1000
0010
0001
,
0010
0100
0001
0010
,
0100
1000
0001
1000
,
0010
0000
0000
0000
;

//--------------- dance-single - forcednature ----------------
#NOTES:
     dance-single:
     forcednature:
     Challenge:
     19:
     0,0,0,0,0:
0000
0000
0000
0000
,
0000
0000
0000
0000
,
0000
0000
0000
0000
,
0000
0000
0000
0000
,
0000
0000
0000
0000
,
1001
0000
0001
0100
0010
1000
0100
0001
,
0100
0000
1000
0010
0000
0100
0001
0000
,
1000
0000
0001
0010
0002
0000
0000
0000
0100
0000
0000
0000
1000
0000
0000
0000
,
0010
0000
0000
0000
0103
0001
1000
0010
,
0200
0000
1000
0010
,
0301
0000
0000
0000
0100
0000
0000
0000
0001
0000
0000
1000
0000
0000
0100
0000
,
0010
0000
0100
1000
0200
0000
0000
0000
0001
0000
0000
0000
1000
0000
0000
0000
,
0010
0300
0220
0330
,
2002
0003
0010
0001
,
0100
0000
0001
0000
,
0100
0000
0001
0010
,
0100
0000
0002
3003
,
1001
0000
1000
0100
0010
1000
0010
0001
,
0100
0000
1000
0100
0000
0001
0010
0000
,
1000
0000
0010
0100
0020
0000
0000
0000
0100
0000
0000
0000
1000
0000
0000
0000
,
0001
0000
0000
0000
0130
0010
0001
1000
,
0020
0000
0001
0100
,
1030
0000
0000
0000
0010
0000
0000
0000
1000
0000
0000
0001
0000
0000
0010
0000
,
0100
0000
1000
0001
2000
0000
0000
0000
0010
0000
0000
0000
0001
0000
0000
0000
,
3100
0000
0000
0000
1000
0000
0000
0000
1001
0000
1001
0000
0001
0100
0010
1000
,
0001
0000
1000
0100
0010
0100
1000
0000
0001
0100
0010
0100
0001
0000
1000
0000
,
0100
0000
0001
0000
0100
0010
0001
0000
0001
0010
0001
0000
1000
0001
0100
0000
,
0010
0000
1000
0001
0010
0100
0010
0000
0001
0100
0010
1000
0001
0000
0100
0000
,
0001
0000
0000
1000
0000
0000
0001
0000
0000
1000
0000
0000
0001
0000
1000
0000
0001
0000
0010
0000
0100
0000
1000
0000
0100
0000
0000
0000
0000
0000
1100
0000
0000
0000
0000
0000
2001
0000
0000
0000
0000
0000
3000
0000
0000
0001
0000
0000
,
1000
0000
0001
0100
0010
0000
1000
0000
0100
0010
0001
0000
0100
0000
0101
0000
,
0000
0000
0001
0000
1000
0010
0100
0000
0100
0001
1000
0000
0100
0010
0001
0000
,
1001
0000
1000
0010
0100
0000
0110
0000
0000
0000
0001
0100
0001
0000
0011
0000
,
0000
0000
0000
0000
0000
0000
1000
0000
0000
0000
0000
0000
0001
0000
0000
0010
0000
0000
0100
0000
0000
0000
0000
0000
0010
0000
0000
0001
0000
0000
1000
0000
0000
0000
0000
0000
0010
0000
0000
1000
0000
0000
0001
0000
1000
0000
0001
0000
,
1000
0000
0100
0000
0001
0000
0100
1000
0100
0010
0001
0000
0100
0010
1000
0001
,
0100
0000
0010
1000
0100
0000
0010
0000
0100
1000
0010
0000
0100
0001
0010
0001
,
1000
0000
0010
0000
0001
0000
0010
0100
0001
0000
0010
0000
0100
1000
0001
0000
,
0100
0000
0010
0000
0001
0000
0010
0000
1000
0001
1000
0010
0100
0001
0010
0100
,
1000
0000
0010
0100
0001
0000
0010
0000
0100
0010
0001
0000
0100
0000
0010
0000
,
1000
0100
0010
0001
0100
0000
0010
1000
0001
1000
0100
0000
0010
0001
0100
0001
,
0010
0000
0100
0000
1000
0000
0001
0100
0010
0000
1000
0000
0001
0010
0100
0000
,
1000
0000
0100
0000
0010
0000
1000
0000
0010
0001
1000
0010
0100
0001
1000
0100
,
1000
0000
0100
0000
0010
0000
0001
0100
0010
0000
1000
0000
0001
0010
0100
0010
,
0001
0000
1000
0000
0010
0000
0100
0001
1000
0000
0100
0010
0001
0100
0010
1000
,
0100
0000
0010
0000
0001
0000
0100
0000
0110
0000
0010
0000
1000
0100
0010
0000
,
0011
0000
0001
0000
1000
0010
0100
0000
0110
0000
0100
0000
0001
0010
0100
0000
,
1000
0100
1000
0001
0100
0001
0010
0100
1000
0100
0010
0001
0100
0010
1000
0100
,
1000
0010
0100
0001
0010
0001
1000
0010
1000
0001
0100
0001
1000
0001
0010
0100
,
1000
0010
1000
0001
0100
0010
0100
0001
1000
0001
0010
0100
0010
0001
1000
0100
,
1000
0010
0100
0001
0010
0100
1000
0001
1000
0010
0100
0001
0010
0100
1000
0001
,
0100
0000
0000
0000
0000
0000
1001
0000
0000
0001
1000
0000
0010
1000
0100
0000
,
0001
0000
0100
0000
1000
0010
1000
0001
0100
0000
0010
0100
0001
0000
0010
0100
,
1000
0000
0010
0000
0001
0010
0100
0010
1000
0100
0010
0001
0100
0010
1000
0000
,
0100
0000
0001
0000
0100
0010
0001
1000
0010
0000
0100
0001
1000
0000
0100
1000
,
0010
0000
0001
0000
0010
0100
0001
0010
0100
1000
0010
0100
0001
0100
0010
0000
,
1000
0100
0010
0100
1000
0000
0010
1000
0001
0100
0001
0000
0010
0001
0100
0000
,
0010
1000
0001
1000
0010
0000
0100
0001
0010
0100
1000
0000
0100
1000
0010
0000
,
0100
0010
1000
0001
0010
0000
0100
0010
0001
1000
0010
0000
1000
0001
0100
0000
,
0001
1000
0100
0000
0001
0100
1000
0000
1100
1000
0000
0011
0001
0000
1001
1000
,
0001
0000
0100
0000
1000
0100
0010
1000
0010
0000
0100
0001
0010
0000
0001
1000
,
0100
0000
0010
0000
0001
0100
0010
1000
0100
0010
0001
0100
0001
1000
0100
0000
,
0001
0000
0100
0000
1000
0010
0100
0001
0010
0000
0100
0010
0001
0000
0100
0010
,
1000
0010
1000
0000
0001
0100
0010
1000
0001
1000
0100
0010
0100
1000
0010
0000
,
0100
0001
0010
0001
0100
0010
1000
0000
0100
1000
0001
0010
0001
1000
0010
0000
,
0100
0001
0010
0100
1000
0010
0100
0000
0001
1000
0100
1000
0010
0100
0010
0000
,
1010
0000
1000
0100
0010
0001
0100
0010
1000
0001
0010
0100
1000
0001
0100
0000
,
0110
0000
0010
1000
0100
0010
0100
0001
0100
1000
0001
1000
0010
0100
0001
0000
,
0020
0230
2300
3200
0302
0203
2300
3020
,
0230
0302
0203
2300
3002
0023
2030
3200
,
0320
2030
3002
0203
0320
0032
2003
3020
,
2030
3002
2003
3200
0302
0203
2300
3002
,
0203
0320
0032
0023
2030
3200
0320
2030
,
3002
0203
2300
3020
2030
3002
0203
2300
,
3100
0001
1000
0010
1000
0100
0001
0100
1000
0100
0010
0001
1000
0010
0001
0010
,
0100
0001
1000
0010
0100
0000
0001
0010
1000
0010
0001
1000
0100
1000
0010
0100
,
0001
0000
0010
0000
0100
0010
0001
1000
0010
0000
0100
0001
1000
0000
0100
1000
,
0010
0000
0001
0000
0010
1000
0100
0010
0001
0100
0010
0001
0010
0100
0001
0000
,
0100
0000
1000
0000
0100
0010
1000
0001
0010
0000
0100
1000
0001
0000
0100
0001
,
0010
0000
1000
0000
0010
0100
1000
0010
0100
0001
0010
0100
1000
0100
0010
0000
,
0001
0100
0010
1000
0100
0000
1000
0001
0010
1000
0010
0000
0100
1000
0010
0000
,
0100
0001
0010
0100
1000
0000
0010
0100
1000
0100
0001
0000
0010
0001
0100
0000
,
0010
1000
0001
0010
0100
0000
1000
0010
0001
0010
0100
0000
0001
1000
0100
0000
,
0010
0001
0100
0000
1000
0100
0001
0000
0101
0001
0000
0110
0010
0000
1010
1000
,
0001
0000
0010
0000
0100
0010
0001
0010
1000
0000
0010
0100
1000
0000
0010
0100
,
0001
0000
0010
0000
0001
0100
0010
1000
0010
0100
1000
0100
0001
1000
0001
0000
,
1000
0000
0100
0000
0010
0001
0100
0010
0001
0000
0010
1000
0100
0000
0010
0001
,
1000
0010
0100
0000
0010
1000
0001
0010
0100
1000
0100
0001
0100
1000
0010
0000
,
0100
0001
0010
0100
0001
0100
1000
0000
0010
0100
1000
0100
0001
1000
0010
0000
,
0100
0001
0010
0100
1000
0010
0100
0000
0010
1000
0001
0100
0010
1000
0001
0000
,
0011
0000
0010
0100
0010
0001
0100
0000
0001
1000
0010
0100
1000
0100
0001
0000
,
1000
0010
0001
0010
1000
0001
0010
0100
0001
0100
1000
0010
0100
0001
0010
0100
,
1000
0010
1000
0100
0001
0100
0010
1000
,
0010
0001
0100
0010
0001
1000
0100
0001
,
1000
0100
0010
0001
0100
0010
1000
0100
,
0001
1000
0010
0100
1000
0010
0001
1000
,
0100
0000
0000
0000
;

//--------------- dance-double - forcednature ----------------
#NOTES:
     dance-double:
     forcednature:
     Easy:
     8:
     0,0,0,0,0:
00000000
00000000
00000000
00000000
,
00000000
00000000
00000000
00000000
,
00000000
00000000
00000000
00000000
,
00000000
00000000
00000000
00000000
,
00000000
00000000
00000000
00000000
,
00001000
00010000
00001000
00010000
,
00100000
00000000
00000000
10000000
00000000
00000000
00100000
00000000
,
02000000
00010000
00010000
00000000
,
03100000
00000000
01000000
00001000
,
00020000
00000000
00000100
00000000
,
00031000
00010000
00001000
00000100
,
00000002
00001000
00001000
00000000
,
00000103
00000000
00000001
00000000
,
00001001
00000000
00001000
00000000
,
00000100
00000000
00010000
00000000
,
00001000
00000000
01000000
00000000
,
00010000
00000000
10000000
00000000
,
00100000
10000000
00100000
10000000
,
01000000
00000000
00000000
00010000
00000000
00000000
00001000
00000000
,
00000020
00000001
00000001
00000000
,
00000130
00000000
00000010
00000001
,
00000200
00000000
00000010
00000000
,
00000301
00000100
00001000
00010000
,
02000000
10000000
10000000
00000000
,
03100000
00000000
00000000
00000000
10000000
00010000
10000000
00000000
,
00010000
01000000
00010000
00100000
,
00010000
00000000
01000000
00000000
00001000
00010000
00001000
00000000
,
00010000
00000100
00001000
00000010
,
00000100
00000000
00000001
00000000
00000010
00000100
00000010
00000000
,
00000110
00000000
00000000
00001001
00000000
00000000
00000000
00000110
,
00000000
00000000
00000000
00000000
00001000
00000001
00001000
00000000
,
00000110
00000000
00000000
00011000
00000000
00000000
00000000
00011000
,
00000000
00000000
01000000
00000000
00001000
00010000
00001000
00000000
,
00100000
00010000
00100000
01000000
,
10000000
00000000
00000000
00100000
00000000
00000000
10000000
00000000
,
00010000
01000000
00001000
00010000
,
00000100
00010000
00001000
00100000
,
00002000
00010000
00010000
00000000
,
00003100
00001000
00010000
00000000
,
00000100
00000010
00000001
00000100
,
00000010
00000100
00001000
00010000
,
02000000
00000000
00100000
00000000
,
13000000
01000000
00100000
00010000
,
01000000
00001000
00020000
00000000
,
00030200
00000000
00002300
00000000
,
00003001
00001000
00000001
00000000
00001000
00000000
00000100
00000000
,
00010000
00001000
00010000
00000000
00001000
00000000
00100000
00000000
,
00010000
10000000
00010000
00000000
01000000
00000000
00001000
00000000
,
00010000
00001000
00010000
00000000
00000100
00000000
00001000
00000000
,
00001001
00000000
00000000
00000000
,
00000001
00000100
00000010
00000100
,
00001000
00010000
00000100
00010000
,
00001000
00100000
00010000
10000000
,
00010000
01000000
00100000
10000000
,
02000000
10000000
10000000
13000000
,
01000000
00100000
00010000
01000000
,
00001000
00010000
00000100
00001000
,
00000010
00000000
00000000
00000000
00000000
00000000
00000000
00000000
00001000
00000000
00000000
00000001
00000000
00000000
00001000
00000000
,
00000001
00000010
00000100
00010000
,
00001000
00010000
00100000
10000000
,
00010000
10000000
01000000
00100000
,
00010000
01000000
00001000
00000000
,
00020000
00001000
00001000
00031000
,
00010000
00000100
00001000
00000001
,
00001001
00000000
00000001
00000100
,
00002000
00010000
00010000
00013000
,
00012000
00000000
00100000
00000000
,
00103000
00000000
00000000
00000000
,
02000000
00000000
00010000
00000000
,
03010000
00000000
00000000
00000000
,
00000200
00000000
00001000
00000000
,
00001300
00000000
00000000
00000000
,
00010000
00001000
00010000
00001000
00010000
00001000
00010000
00001000
,
01000000
00000000
00000000
00010000
10000000
00010000
10000000
00000000
,
10010000
00010000
01000000
00001000
,
00010000
00000100
00010000
00001000
,
00000010
00000100
00001000
00000001
,
00000100
00000010
00000100
00000000
,
00000002
00000100
00000100
00000103
,
00000001
00000010
00000100
00010000
,
00001000
01000000
00010000
10000000
,
00100000
00000000
00000000
00000000
00000000
00000000
00000000
00000000
10000000
00000000
00000000
00010000
00000000
00000000
10000000
00000000
,
00010000
00100000
01000000
00010000
,
00001000
00010000
00000100
00001000
,
00000001
00000100
00000010
00000100
,
00001000
00010000
00000100
00000000
,
00020000
00001000
00001000
00031000
,
00010000
00100000
10000000
00010000
,
01000000
00100000
01000000
00000000
00001000
00010000
00001000
00000000
,
00010000
00001000
00010000
00001000
00010000
00001000
00010000
00000000
,
00011000
00000000
00000000
00000100
,
00000100
00000000
00000000
00010000
,
00010000
00000000
00000000
00001000
,
00001000
00000000
00000000
01000000
,
01000000
00000000
00000000
00000000
;

//--------------- dance-double - forcednature ----------------
#NOTES:
     dance-double:
     forcednature:
     Medium:
     11:
     0,0,0,0,0:
00000000
00000000
00000000
00000000
,
00000000
00000000
00000000
00000000
,
00000000
00000000
00000000
00000000
,
00000000
00000000
00000000
00000000
,
00000000
00000000
00000000
00000000
,
00000000
00001000
00010000
00100000
,
01000000
00000000
00000000
00001000
00000000
00000000
00010000
00000000
,
00000100
00001000
00000020
00000000
00000100
00000000
00000000
00000000
,
00001000
00000030
00000010
00010000
,
02000000
00000000
00100000
00000000
,
13000000
00000000
00000000
00000000
01000000
00000000
00000000
00000000
00100000
00000000
00000000
00010000
00000000
00000000
01000000
00000000
,
00100000
00010000
00002000
00000000
00000100
00000000
00000000
00000000
,
00010000
00000000
00200000
00303000
,
00000200
00000000
00001000
00000000
,
00000001
00000000
00000010
00000000
,
00001000
00000000
00010000
00000000
,
00000010
00000000
00020000
00000000
,
00030300
00010000
00001000
01000000
,
00100000
00000000
00000000
10000000
00000000
00000000
01000000
00000000
,
00010000
00001000
00000020
00000000
00000001
00000000
00000000
00000000
,
00001000
00000030
00000010
00000100
,
00020000
00000000
00100000
00000000
,
00031000
00000000
00000000
00000000
00010000
00000000
00000000
00000000
01000000
00000000
00000000
10000000
00000000
00000000
00100000
00000000
,
00010000
00001000
00000200
00000000
00000010
00000000
00000000
00000000
,
00000301
00000000
00000100
00000000
00001000
00010000
00001000
00000000
,
00011000
00000000
00000100
00001000
00000000
00000001
00000100
00000001
,
00000000
00001000
00000010
00001000
00000100
00010000
00000100
00000000
,
00010000
00000000
00001000
01000000
00000000
00010000
00100000
00010000
,
10000000
01000000
10000000
00100000
01000000
00100000
01000000
00000000
,
01100000
00000000
01000000
00010000
00000000
00100000
00001000
00100000
,
00000000
00001000
00010000
00001000
00000000
00000100
00000001
00000000
,
00000110
00000000
00000001
00001000
00000000
00000010
00001000
00000010
,
00000000
00010000
00001000
00010000
00001000
01000000
00001000
00000000
,
01010000
00000000
00010000
00000000
00100000
00010000
01000000
00000000
,
00001000
00000000
00010000
00000100
00000000
00001000
00000100
00000000
,
00000110
00000000
00000001
00000000
00000100
00000001
00001000
00000000
,
00000010
00000000
00000000
00000000
00010000
00000000
00001000
00000000
00100000
00000000
00000000
00001000
00000000
00000000
00010000
00000000
,
01000000
00000000
10000000
00000000
00100000
10000000
01000000
00000000
,
00010000
00000000
00001000
00000100
00000000
00001000
00010000
00000000
,
00000100
00000000
00000010
00000000
00000001
00000100
00000001
00000000
,
00001000
00000000
00000010
00001000
00000100
00000010
00000001
00000000
,
00000110
00000000
00000001
00001000
00000000
00000100
00001000
00000001
,
00000100
00000000
00000010
00001000
00000010
00000000
00000100
00000000
,
00001000
00000000
00010000
00000000
01000000
00100000
01000000
00000000
,
10000000
00010000
10000000
00000000
00100000
01000000
00100000
00000000
,
10000000
01000000
10000000
00010000
00100000
00001000
00010000
00000000
,
00000100
00001000
00000010
00000000
00000001
00000010
00001000
00000000
,
00000100
00000010
00000001
00000010
00000100
00010000
00001000
00000000
,
01000000
00010000
00100000
00000000
10000000
00100000
00010000
00000000
,
10010000
00000000
00000000
01100000
00000000
10000000
00010000
10000000
,
00020000
00000000
00000000
00000000
10000000
00000000
00000000
00000000
00130000
00000000
00000000
00010000
00000000
00000000
00001000
00000000
,
00000200
00000010
00000301
00000100
,
00020000
00000000
00000000
00000000
00000010
00000000
00000000
00000000
00031000
00000000
00000000
00010000
00000000
00000000
00100000
00000000
,
20000000
01000000
00010000
30100000
,
10010000
00000000
10000000
01000000
00000000
00010000
00001000
00000010
,
00001000
00000000
00010000
00100000
00000000
00010000
00001000
00000100
,
00001000
00000000
00010000
01000000
00000000
00010000
00001000
00000100
,
00000001
00000000
00000000
00000000
00000010
00000000
00000000
00000000
00000100
00000000
00000000
00010000
00000000
00000000
00001000
00000000
,
02000000
00000000
00000000
00000000
00100000
00000000
00000000
00000000
13000000
00000000
00000000
01000000
00000000
00000000
00010000
00000000
,
00200000
00000000
00000000
00000000
01000000
00000000
00000000
00000000
00301000
00000000
00000000
00100000
00000000
00000000
00010000
00000000
,
00002000
00000000
00000000
00000000
00000100
00000000
00000000
00000000
00003001
00000000
00000000
00001000
00000000
00000000
00000010
00000000
,
00000100
00000001
00000100
00000000
00001000
00000000
00011000
00000000
,
01000000
00000000
00000000
00010000
00000000
00000000
00100000
00000000
00001000
00000000
00000000
00010000
00000000
00000000
00000100
00000000
,
00000010
00000000
00000000
00000000
00000001
00000000
00000100
00000000
00000010
00000000
00000000
00010000
00000000
00000000
00001000
00000000
,
00200000
00010000
01000000
10300000
,
01100000
00000000
10000000
00010000
10000000
01000000
00100000
00001000
,
00020000
00000000
00000200
00030000
,
00000020
00000300
00000002
00000030
,
00000200
00000003
00020000
00000300
,
02000000
00030000
00200000
03000000
,
20000000
00300000
02000000
30000000
,
00020000
03000000
00000200
00030000
,
00000310
00000001
00000010
00000100
00001000
00000001
00001000
00000010
,
00000100
00001000
00000000
00010000
00100000
01000000
00010000
10000000
,
00200000
00000000
00000000
00000000
00010000
00000000
00000000
00000000
01300000
00000000
00000000
00100000
00000000
00000000
00010000
00000000
,
00002000
00000010
00013000
00001000
,
00000200
00000000
00000000
00000000
00000001
00000000
00000000
00000000
00001300
00000000
00000000
00000100
00000000
00000000
00000010
00000000
,
00020000
00001000
01000000
00031000
,
00011000
00000000
00001000
00100000
00000000
01000000
10000000
00010000
,
00100000
00000000
00001000
00010000
00000000
00000010
00001000
00000001
,
00000100
00000000
00000010
00001000
00000000
00000100
00000010
00000001
,
00000100
00000000
00000000
00000000
00001000
00000000
00000000
00000000
00010000
00000000
00000000
01000000
00000000
00000000
10000000
00000000
,
00200000
00000000
00000000
00000000
01000000
00000000
00000000
00000000
10300000
00000000
00000000
00100000
00000000
00000000
00010000
00000000
,
00002000
00000000
00000000
00000000
00000010
00000000
00000000
00000000
00013000
00000000
00000000
00001000
00000000
00000000
00000100
00000000
,
00000002
00000000
00000000
00000000
00000010
00000000
00000000
00000000
00000103
00000000
00000000
00000001
00000000
00000000
00000010
00000000
,
00000100
00010000
00002000
00000000
00000100
00000000
00013000
00000000
,
00001000
00000000
00000000
00100000
00000000
00000000
01000000
00000000
10000000
00000000
00000000
00010000
00000000
00000000
01000000
00000000
,
00001000
00000000
00000000
00000000
00010000
00000000
00000010
00000000
00001000
00000000
00000000
00000001
00000000
00000000
00000010
00000000
,
00000100
00010000
00001000
00000000
01000000
00001000
00010000
00000000
,
00100000
10000000
01000000
00100000
00010000
01000000
00001000
00010000
,
00001000
00000000
00000100
00000010
,
00000010
00000000
00010000
00001000
,
00001000
00000000
00100000
01000000
,
01000000
00000000
00010000
00001000
,
00001000
00000000
00000000
00000000
;

//--------------- dance-double - forcednature ----------------
#NOTES:
     dance-double:
     forcednature:
     Hard:
     15:
     0,0,0,0,0:
00000000
00000000
00000000
00000000
,
00000000
00000000
00000000
00000000
,
00000000
00000000
00000000
00000000
,
00000000
00000000
00000000
00000000
,
00000000
00000000
00000000
00000000
,
00010000
00002000
00003200
00000302
,
00000023
00000000
00000000
00002030
00000000
00000000
02003000
00000000
,
03010000
10000000
00200000
00000000
00000000
00000000
00000000
00000000
,
00000000
00300000
00020000
00032000
,
00003020
00000000
00000000
00000000
,
00000030
00000000
00000000
00000000
00000002
00000000
00000000
00000000
00000103
00000000
00000000
00001000
00000000
00000000
00010000
00000000
,
01000000
10000000
00200000
00000000
00000000
00000000
00000000
00000000
,
00000000
00300000
00020000
00030000
,
00022000
00000000
00000000
00000000
,
00000000
00000000
00000000
00000000
,
00000000
00000000
00000000
00000000
,
00000000
00000000
00033000
00000000
,
00011000
00200000
00320000
20030000
,
30200000
00000000
00000000
00320000
00000000
00000000
00032000
00000000
,
00003010
00000001
00000200
00000000
00000000
00000000
00000000
00000000
,
00000000
00000300
00002000
00023000
,
02030000
00000000
00000000
00000000
,
03000000
00000000
00000000
00000000
00200000
00000000
00000000
00000000
00301000
00000000
00000000
00010000
00000000
00000000
00000100
00000000
,
00000010
00000001
00000200
00000000
00000000
00000000
00000000
00000000
,
00000300
00000000
00000000
00000000
00000020
00000000
00000000
00000000
00010030
00000000
00001000
00000000
00010000
00001000
00010000
00001000
,
01000000
00100000
10000000
00010000
00000000
00100000
00001000
00010000
,
00000000
00000100
00000010
00001000
00010000
00000010
00000100
00000001
,
00000010
00001000
00010000
00100000
00000000
01000000
00010000
00100000
,
01000000
10000000
01000000
10000000
00010000
00100000
00010000
00100000
00001000
00000000
00001000
00000000
00010000
00000000
00000000
00010000
,
00000100
00000010
00000001
00001000
00000000
00000010
00010000
00011000
,
00000000
01000000
00100000
00010000
00001000
00100000
01000000
10000000
,
10100000
00000000
00001000
01001000
00000000
00010000
00000100
00010100
,
00000000
00000000
00000001
00000000
00001000
00000000
00000010
00000000
00000001
00000000
00000010
00000000
00001000
00000010
00010000
00001000
,
00010000
00000000
00100000
10000000
01000000
00100000
00001000
00010000
,
00100000
00001000
00000010
00000100
00000001
00000010
00000100
00010000
,
00000010
00000000
00001000
00000001
00000100
00001000
01000000
00010000
,
00100000
00000000
00000000
00000000
01000000
00000000
10000000
00000000
00100000
00000000
00010000
00000000
00001000
00000000
00000010
00000100
,
00000010
00000000
00000001
00001000
00000000
00000100
00010000
00001000
,
00200000
00000000
01300000
20000000
00000000
30100000
00020000
00000000
,
00032000
00000000
00003010
00000001
00000000
00001000
00000010
00000000
,
00010200
00000000
00000000
00000000
00001300
00000000
02000000
00000000
00000000
00000000
03100000
00000000
00010000
10000000
00010000
00000000
,
00120000
00000000
01000000
01000000
00000000
10000000
10030000
00000000
,
00011000
00000000
00000100
00000010
00000001
00000100
00000010
00000000
,
00001000
00001100
00020100
01030000
,
01002000
00003100
00022000
00033000
,
00001000
00010000
00001000
00000000
00000100
00000000
00000001
00001000
00000001
00000000
00000010
00000000
00000100
00001000
00000100
00000000
,
00010000
00001000
00010000
00000000
00001000
01000000
00001000
00000000
00100000
00010000
00100000
00010000
10000000
01000000
10000000
00000000
,
00100000
01000000
00010000
00000000
01000000
00000000
00001000
00010000
00000010
00000000
00001000
00000000
00000001
00000100
00000010
00000000
,
00010000
00000100
00001000
00000000
00000001
00000100
00000010
00000000
00001000
00000010
00001000
00000010
00000100
00000001
00000100
00000000
,
00000000
00000000
00000000
00011000
00000000
00010000
01000000
10000000
,
00200000
00000000
00310000
00001000
00000010
00000100
00001000
00000001
,
00000100
00001010
00010100
01001000
,
00210000
00000000
01300000
10000000
00100000
00010000
00100000
00001000
,
00000010
00010100
00001100
00001001
,
00001000
00000100
00001000
00000000
00000010
00000000
00010000
00000000
00000000
00000000
00001000
00000000
00100000
00000000
01000000
00000000
,
10000000
00100000
10000000
00000000
00010000
00000000
01000000
00000000
00000000
00000000
00001000
00000000
00010000
00000000
00000100
00000000
,
00000010
00000001
00000010
00000000
00000100
00000000
00010000
00000000
00000000
00000000
00001000
00000000
01000000
00000000
00010000
00000000
,
01010000
00000000
00000000
00000000
00001000
00010000
00001000
00000000
01001000
00000000
00000000
00010100
00000000
00000000
00011000
00000000
,
00010200
00000000
00000310
00000001
00000100
00000010
00000100
00001000
,
00020000
00000000
01030000
10000000
00100000
00010000
00100000
01000000
,
00002000
00000000
00013000
00000100
00000010
00001000
00010000
00000010
,
00000100
00000001
00000020
00000000
00000130
00000000
00001001
00000000
,
00010100
00000000
00000000
00010000
00000000
00000000
00001000
00000000
00110000
00000000
00000000
01000000
00000000
00000000
10000000
00000000
,
01100000
00000000
00000000
00000000
00010000
01000000
00010000
00000000
00100000
00000000
00000000
00001000
00000000
00000000
00000100
00000000
,
00000110
00000000
00000010
00000000
00001000
00000100
00000010
00000000
00000001
00000000
00000100
00000000
00000010
00010000
00001000
00000000
,
00100000
00000000
00010000
00000000
10000000
01000000
10000000
00000000
00010000
00100000
00001000
00010000
00001000
01000000
00010000
00000000
,
00200000
00000000
00002000
00300000
,
00000200
00003000
00000002
00000300
,
00000020
00000003
00002000
00000030
,
02000000
00003000
00200000
03000000
,
20000000
00300000
00020000
30000000
,
00002000
00030000
00000002
00003000
,
00000103
00000001
00000100
00000001
00001000
00000100
00010000
00000000
00001000
00010000
00001000
00100000
00010000
00100000
01000000
00000000
,
10000000
00100000
01000000
00010000
01000000
00000000
00010000
01000000
00001000
00010000
00001000
00010000
00000010
00001000
00000010
00000000
,
00000200
00000000
00000301
00000010
00001000
00010000
00100000
10000000
,
01000000
01100000
01010000
00110000
,
00102000
00000000
00003100
00000010
00001000
00000001
00000010
00001000
,
00010000
00010100
00011000
01100000
,
10000000
01000000
10000000
00000000
00010000
00000000
01000000
00000000
00000000
00000000
00100000
00000000
00010000
00000000
00001000
00000000
,
00000100
00000010
00000100
00000000
00000001
00000000
00001000
00000000
00000000
00000000
00000100
00000000
00010000
00000000
00001000
00000000
,
00100000
00010000
00100000
00000000
01000000
00000000
10000000
00000000
00000000
00000000
01000000
00000000
00010000
00000000
00001000
00000000
,
00011000
00000000
00000000
00000000
00000100
00001000
00000100
00000000
00001100
00000000
00000000
00001001
00000000
00000000
00000101
00000000
,
00000210
00000000
00001300
00010000
01000000
00100000
00010000
10000000
,
00200000
00000000
00310000
00000100
00001000
01000000
00100000
00001000
,
00020000
00000000
00030010
00000100
00000001
00000010
00001000
00010000
,
00100000
00001000
00200000
00000000
10300000
00000000
01100000
00000000
,
01010000
00000000
00000000
00001000
00000000
00000000
00010000
00000000
00010100
00000000
00000000
00000010
00000000
00000000
00001000
00000000
,
00000110
00000000
00000000
00000000
00000001
00000100
00000001
00000000
00000010
00000000
00000000
00001000
00000000
00000000
00010000
00000000
,
00011000
00000000
01000000
00010000
01000000
00010000
01000000
00000000
00100000
10000000
00100000
10000000
00010000
00100000
00001000
00000000
,
00010000
00001000
00010000
00001000
00010000
00001000
00010000
00000100
00001000
00000100
00001000
00000100
00001000
00000100
00001000
00000100
,
00001000
00000000
00000001
00000100
,
00001000
01000000
00100000
10000000
,
01000000
00010000
00000100
00000010
,
00000001
00001000
00010000
10000000
,
00100000
00000000
00000000
00000000
;

//--------------- dance-double - forcednature ----------------
#NOTES:
     dance-double:
     forcednature:
     Challenge:
     19:
     0,0,0,0,0:
00000000
00000000
00000000
00000000
,
00000000
00000000
00000000
00000000
,
00000000
00000000
00000000
00000000
,
00000000
00000000
00000000
00000000
,
00000000
00000000
00000000
00000000
,
00011000
00000000
00010000
01000000
10000000
00100000
00010000
00100000
,
01000000
00000000
00001000
00010000
00000000
00000100
00000010
00000000
,
00000001
00000000
00001000
00000100
00002000
00000000
00000000
00000000
01000000
00000000
00000000
00000000
00000100
00000000
00000000
00000000
,
00000010
00000000
00000000
00000000
00003001
00001000
00000010
00010000
,
00002000
00000000
00000100
00010000
,
01003000
00000000
00000000
00000000
00001000
00000000
00000000
00000000
00010000
00000000
00000000
00100000
00000000
00000000
10000000
00000000
,
01000000
00000000
00100000
00010000
00200000
00000000
00000000
00000000
01000000
00000000
00000000
00000000
00010000
00000000
00000000
00000000
,
00001000
00300000
00022000
00033000
,
00000202
00000003
00000010
00010000
,
00000001
00000000
00000010
00000000
,
00001000
00000000
00000001
00010000
,
00001000
00000000
00000020
00000330
,
00000110
00000000
00000001
00000100
00001000
00010000
01000000
10000000
,
00010000
00000000
00100000
00001000
00000000
00000100
00000010
00000000
,
00010000
00000000
00001000
00100000
00002000
00000000
00000000
00000000
00000100
00000000
00000000
00000000
00010000
00000000
00000000
00000000
,
01000000
00000000
00000000
00000000
00013000
00001000
01000000
00010000
,
00200000
00000000
10000000
01000000
,
00310000
00000000
00000000
00000000
00100000
00000000
00000000
00000000
00001000
00000000
00000000
00000010
00000000
00000000
00000001
00000000
,
00001000
00000000
00000010
00000100
00000020
00000000
00000000
00000000
00010000
00000000
00000000
00000000
00000001
00000000
00000000
00000000
,
00001030
00000000
00000000
00000000
00000010
00000000
00000000
00000000
00011000
00000000
00011000
00000000
00001000
00010000
00001000
00100000
,
00010000
00000000
10000000
01000000
00100000
01000000
10000000
00000000
00001000
00100000
00010000
01000000
00010000
00000000
00100000
00000000
,
00001000
00000000
00010000
00000000
00000010
00000100
00000001
00000000
00000010
00000100
00001000
00000000
00000001
00001000
00000010
00000000
,
00010000
00000000
00001000
00100000
00010000
00100000
01000000
00000000
10000000
00010000
01000000
00100000
01000000
00000000
00001000
00000000
,
00010000
00000000
00000000
00001000
00000000
00000000
00010000
00000000
00000000
00000100
00000000
00000000
00001000
00000000
00000100
00000000
00000010
00000000
00000001
00000000
00000010
00000000
00000100
00000000
00001000
00000000
00000000
00000000
00000000
00000000
00001100
00000000
00000000
00000000
00000000
00000000
00001020
00000000
00000000
00000000
00000000
00000000
00000030
00000000
00000000
00001000
00000000
00000000
,
00000001
00000000
00000100
00000010
00001000
00000000
00000100
00000000
00010000
00001000
00100000
00000000
01000000
00000000
11000000
00000000
,
00000000
00000000
00010000
00000000
10000000
00100000
01000000
00000000
00010000
00100000
00001000
00000000
00010000
00000010
00001000
00000000
,
00001100
00000000
00000100
00000010
00000001
00000000
00000101
00000000
00000000
00000000
00001000
00000010
00010000
00000000
00011000
00000000
,
00000000
00000000
00000000
00000000
00000000
00000000
00100000
00000000
00000000
00000000
00000000
00000000
00010000
00000000
00000000
01000000
00000000
00000000
00100000
00000000
00000000
00000000
00000000
00000000
10000000
00000000
00000000
01000000
00000000
00000000
00100000
00000000
00000000
00000000
00000000
00000000
00001000
00000000
00000000
00010000
00000000
00000000
00001000
00000000
00010000
00000000
00001000
00000000
,
00010000
00000000
00000100
00000000
00000010
00000000
00000001
00000100
00000010
00001000
00000010
00000000
00010000
00001000
00100000
00010000
,
00100000
00000000
01000000
10000000
00100000
00000000
01000000
00000000
00010000
00100000
00001000
00000000
00010000
00000100
00001000
00000100
,
00000010
00000000
00000001
00000000
00000100
00000000
00000010
00001000
00000100
00000000
00010000
00000000
00001000
01000000
00010000
00000000
,
00100000
00000000
01000000
00000000
10000000
00000000
00010000
00000000
01000000
00010000
01000000
00001000
00010000
00000100
00001000
00000001
,
00001000
00000000
00000010
00000100
00000001
00000000
00000010
00000000
00000100
00010000
00001000
00000000
01000000
00000000
00010000
00000000
,
00100000
01000000
10000000
00010000
01000000
00000000
00100000
10000000
00010000
01000000
00001000
00000000
00010000
00001000
00010000
00000100
,
00001000
00000000
00000010
00000000
00000100
00000000
00000001
00000010
00000100
00000000
00001000
00000000
00000001
00001000
00000010
00000000
,
00010000
00000000
00001000
00000000
00100000
00000000
00010000
00000000
01000000
00100000
10000000
01000000
00100000
00010000
00100000
00001000
,
00010000
00000000
00000100
00000000
00001000
00000000
00000001
00000100
00000010
00000000
00001000
00000000
00000100
00010000
00001000
00100000
,
00001000
00000000
00010000
00000000
00100000
00000000
01000000
00010000
10000000
00000000
01000000
00100000
00010000
01000000
00100000
10000000
,
01000000
00000000
00100000
00000000
00001000
00000000
00010000
00000000
00010100
00000000
00000100
00000000
00000010
00000001
00000100
00000000
,
00000110
00000000
00000010
00000000
00001000
00000100
00010000
00000000
00011000
00000000
00001000
00000000
00100000
00010000
01000000
00000000
,
00100000
10000000
01000000
00100000
00010000
01000000
00100000
10000000
00010000
01000000
00001000
00010000
00001000
00010000
00000100
00001000
,
00000100
00000010
00000001
00000100
00000010
00001000
00000010
00010000
00001000
00010000
00001000
01000000
00010000
10000000
01000000
00100000
,
01000000
10000000
00010000
01000000
00001000
00010000
00001000
00010000
00000100
00001000
00000100
00000010
00000001
00000100
00000010
00001000
,
00000100
00010000
00001000
01000000
00001000
00010000
00001000
00100000
00010000
10000000
00100000
01000000
00010000
01000000
00001000
00010000
,
00000010
00000000
00000000
00000000
00000000
00000000
00001001
00000000
00000000
00000001
00000100
00000000
00000010
00010000
00001000
00000000
,
00010000
00000000
01000000
00000000
10000000
00100000
10000000
00010000
00100000
00000000
00001000
00010000
00001000
00000000
00000100
00000010
,
00001000
00000000
00000100
00000000
00000010
00000001
00001000
00000010
00001000
00000001
00000010
00000100
00001000
00000100
00010000
00000000
,
00001000
00000000
01000000
00000000
00100000
10000000
00010000
01000000
00100000
00000000
01000000
00001000
00010000
00000000
00001000
00000100
,
00000010
00000000
00001000
00000000
00000100
00000010
00000001
00000010
00000100
00010000
00001000
00100000
00001000
00010000
00000010
00000000
,
00010000
00001000
01000000
00010000
00100000
00000000
01000000
10000000
00010000
00100000
00010000
00000000
00001000
00000100
00000010
00000000
,
00000001
00000100
00000010
00001000
00000010
00000000
00010000
00001000
00100000
00010000
00100000
00000000
01000000
10000000
00100000
00000000
,
01000000
00010000
01000000
00001000
00010000
00000000
00000100
00001000
00000100
00000010
00000001
00000000
00000100
00000010
00001000
00000000
,
00000100
00010000
00001000
00000000
00010000
01000000
10000000
00000000
00110000
00100000
00000000
00011000
00001000
00000000
00010100
00010000
,
00000100
00000000
00000010
00000000
00000001
00000100
00000010
00000100
00001000
00000000
00010000
00000100
00001000
00000000
00000100
00010000
,
00001000
00000000
00100000
00000000
00010000
01000000
00100000
10000000
01000000
00100000
00001000
00010000
00001000
00000010
00000100
00000000
,
00001000
00000000
00000001
00000000
00000100
00000010
00001000
00000100
00000010
00000000
00000001
00001000
00000010
00000000
00010000
00001000
,
00010000
00100000
01000000
00000000
00010000
00100000
01000000
10000000
01000000
00100000
00001000
00010000
00000010
00001000
00000100
00000000
,
00000010
00000001
00000100
00000010
00000100
00000001
00000010
00000000
00000100
00010000
00001000
00010000
00100000
10000000
00010000
00000000
,
01000000
00010000
00100000
00001000
00010000
00100000
01000000
00000000
00001000
00010000
00000100
00001000
00000100
00000010
00000001
00000000
,
00001001
00000000
00000001
00000100
00000010
00001000
00000100
00000010
00000100
00010000
00001000
00100000
01000000
10000000
00010000
00000000
,
10010000
00000000
00010000
01000000
00001000
00010000
00001000
00000100
00001000
00010000
00000100
00001000
00000100
00000010
00000001
00000000
,
00000200
00000320
00000230
00002300
00023000
02030000
03200000
20300000
,
30200000
00320000
02030000
23000000
30020000
00230000
00302000
00023000
,
00030200
00002300
00023000
00030200
00000320
00000032
00000203
00000320
,
00020030
00030200
00020300
02030000
03200000
00320000
20030000
30200000
,
00320000
00032000
00203000
02300000
03002000
00003200
00000320
00000032
,
00000203
00000320
00000230
00020300
00230000
02300000
23000000
30020000
,
01030000
00010000
01000000
00001000
00010000
00001000
00000100
00000010
00001000
00000100
00000010
00000001
00000100
00001000
00000100
00000001
,
00000010
00000100
00010000
00001000
00000100
00000000
00001000
00010000
00100000
01000000
00010000
00100000
01000000
10000000
00100000
01000000
,
00010000
00000000
00100000
00000000
00001000
00010000
00001000
00000010
00000100
00000000
00001000
00000001
00000100
00000000
00001000
00010000
,
00000100
00000000
00010000
00000000
01000000
00100000
00010000
10000000
00100000
00010000
00100000
01000000
00010000
00100000
00001000
00000000
,
00010000
00000000
00000100
00000000
00000010
00001000
00000010
00000100
00010000
00000000
00001000
00000100
00000010
00000000
00001000
00000001
,
00000100
00000000
00000010
00000000
00010000
00001000
00100000
00010000
01000000
10000000
01000000
00010000
00100000
01000000
10000000
00000000
,
00010000
01000000
00001000
00010000
00001000
00000000
00000010
00000100
00001000
00000001
00000100
00000000
00000010
00001000
00000010
00000000
,
00010000
00001000
00100000
00010000
10000000
00000000
01000000
00010000
00001000
00010000
00000100
00000000
00000010
00000001
00000100
00000000
,
00000001
00001000
00000010
00000100
00001000
00000000
00010000
01000000
10000000
00100000
01000000
00000000
00100000
00010000
00001000
00000000
,
00000010
00001000
00010000
00000000
00001000
00000100
00000001
00000000
00000110
00000100
00000000
00011000
00001000
00000000
00110000
00100000
,
01000000
00000000
10000000
00000000
00100000
01000000
10000000
01000000
00010000
00000000
00100000
00001000
00010000
00000000
00000100
00001000
,
00000010
00000000
00000100
00000000
00000001
00000100
00001000
00000100
00000010
00010000
00001000
00010000
01000000
00100000
00010000
00000000
,
10000000
00000000
00100000
00000000
00010000
00001000
00010000
00000100
00000010
00000000
00000001
00001000
00000010
00000000
00000100
00001000
,
00010000
00001000
00100000
00000000
01000000
10000000
00010000
00100000
00001000
00010000
01000000
00010000
00001000
00000100
00000001
00000000
,
00000010
00000100
00010000
00001000
00000100
00001000
00010000
00000000
00100000
01000000
00010000
10000000
01000000
00010000
00001000
00000000
,
00000100
00000010
00010000
00000100
00000010
00000001
00000100
00000000
00001000
00010000
01000000
00100000
00010000
10000000
00100000
00000000
,
01100000
00000000
00100000
10000000
00010000
00100000
01000000
00000000
00010000
00001000
00000100
00000010
00010000
00000100
00000010
00000000
,
00000001
00000100
00001000
00000100
00000010
00010000
00001000
01000000
00010000
00100000
10000000
00100000
00010000
00001000
00000100
00010000
,
00001000
00000100
00000001
00001000
00010000
10000000
00100000
01000000
,
00010000
00001000
00000010
00000100
00000001
00001000
00000100
00010000
,
01000000
10000000
00100000
01000000
00100000
00010000
00001000
00000010
,
00000001
00000100
00010000
01000000
10000000
00010000
00100000
00010000
,
00000100
00000000
00000000
00000000
;
