#TITLE:Ievan Polkka (Ryu☆Remix) (st2020 Mix);
#SUBTITLE:;
#ARTIST:Ryu☆;
#TITLETRANSLIT:;
#SUBTITLETRANSLIT:;
#ARTISTTRANSLIT:;
#GENRE:;
#CREDIT:;
#BANNER:Ievan Polkka (Ryu Remix) (st2020 Mix).png;
#BACKGROUND:Ievan Polkka (Ryu Remix) (st2020 Mix)-bg.png;
#LYRICSPATH:;
#CDTITLE:;
#MUSIC:Ievan Polkka (Ryu Remix) (st2020 Mix).ogg;
#OFFSET:0.997000;
#SAMPLESTART:53.303001;
#SAMPLELENGTH:15.000000;
#SELECTABLE:YES;
#BPMS:0.000000=150.000000
;
#STOPS:
;
#BGCHANGES:;
#KEYSOUNDS:;
#ATTACKS:;

//---------------dance-single - ----------------
#NOTES:
     dance-single:
     :
     Hard:
     11:
     0.543650,0.579664,0.329172,0.072257,0.032114,474.000000,433.000000,41.000000,9.000000,0.000000,0.000000,0.543650,0.579664,0.329172,0.072257,0.032114,474.000000,433.000000,41.000000,9.000000,0.000000,0.000000:
// measure 0
0000
0000
0000
0000
,  // measure 1
0000
0000
0000
0000
,  // measure 2
0000
0000
0000
0000
,  // measure 3
0000
0000
0000
0000
,  // measure 4
0000
0000
0000
0000
,  // measure 5
0000
0000
0000
0000
,  // measure 6
0001
0010
0100
0000
0100
1000
0100
0000
,  // measure 7
1000
0010
0100
0000
0100
0001
0101
0000
,  // measure 8
1000
0100
0010
0001
1000
0010
0100
0001
,  // measure 9
0010
0100
1000
0001
0100
0010
0210
0000
,  // measure 10
0002
0000
0000
0000
,  // measure 11
0000
0000
0000
0000
,  // measure 12
0000
0000
0000
0000
,  // measure 13
0000
0000
0000
0303
,  // measure 14
1000
1000
0001
0001
,  // measure 15
1000
0001
1000
1000
,  // measure 16
0100
0100
0010
0010
,  // measure 17
0100
0010
0100
1001
,  // measure 18
1000
0000
1000
0010
1000
0000
0010
0001
,  // measure 19
0010
0000
0001
0100
0001
0000
2100
0100
,  // measure 20
3100
0000
1000
0010
1000
0000
0010
0001
,  // measure 21
0010
0000
0001
0100
0001
0000
2100
0100
,  // measure 22
3100
1000
0100
1000
0100
0010
0001
0001
,  // measure 23
0100
0001
0100
0001
0100
0010
1000
1000
,  // measure 24
0100
1000
0100
0010
0001
0100
0001
0100
,  // measure 25
0010
0000
1000
0000
0100
0000
0010
0000
0110
0000
0000
0110
0000
0000
0110
0000
,  // measure 26
0010
0001
0100
0010
0001
0010
0100
0001
,  // measure 27
0010
0010
0100
1000
0010
0010
1010
0000
,  // measure 28
0010
1000
0100
0010
1000
0010
0100
1000
,  // measure 29
0010
1000
0010
0100
0001
0010
0110
0000
,  // measure 30
0001
0010
0100
0010
1000
0010
0100
0010
,  // measure 31
0100
1000
0010
0100
0001
1000
1001
0000
,  // measure 32
1000
0010
0002
0013
1000
0010
0002
0013
,  // measure 33
0100
0000
0001
0000
0010
0000
0100
0000
1000
0000
0000
1000
0000
0000
1000
0000
,  // measure 34
0001
0000
0010
0000
0100
0000
0000
0100
1000
0000
0010
0000
0100
0000
0000
0100
,  // measure 35
0001
0010
0100
1000
0010
0100
0110
0000
,  // measure 36
1000
0000
0010
0000
0100
0000
0000
0100
0001
0000
0010
0000
0100
0000
1000
0000
,  // measure 37
0010
0001
0010
1000
0001
0010
0011
0000
,  // measure 38
1000
0100
0010
0100
0001
0100
0010
0001
,  // measure 39
1000
1000
0001
0001
1000
0001
1001
0000
,  // measure 40
0001
0100
0010
0100
1000
0100
0010
1000
,  // measure 41
0001
0001
1000
1000
0001
1000
1001
0000
,  // measure 42
1010
1010
1001
1001
,  // measure 43
0011
0000
0000
0000
0011
0000
0000
0000
1001
0000
0000
1010
0000
0000
0001
0000
,  // measure 44
0011
0011
1001
1001
,  // measure 45
1010
0000
0000
0000
1010
0000
0000
0000
1001
0000
0000
0011
0000
0000
1000
0000
,  // measure 46
0001
0010
0100
0100
1000
0010
0100
0100
,  // measure 47
0001
0010
0100
1000
0010
0100
0001
0010
,  // measure 48
1000
0010
0001
0100
1000
0100
0001
0010
,  // measure 49
0100
0000
0001
0000
1000
0000
0010
0000
0110
0000
0000
0110
0000
0000
0110
0000
,  // measure 50
0100
1000
0010
0000
0001
0010
1000
0010
,  // measure 51
0001
0010
0100
0000
0001
0010
0100
0000
,  // measure 52
0010
0001
0100
0000
1000
0100
0001
0100
,  // measure 53
1000
0100
1000
0100
0001
0000
1001
0000
,  // measure 54
1000
0100
0010
0100
0001
0000
0001
0000
,  // measure 55
0001
0100
0010
0001
1000
0000
1001
0000
,  // measure 56
0001
0100
0010
0100
1000
0000
1000
0000
,  // measure 57
1000
0100
0010
1000
0001
0000
1001
0000
,  // measure 58
1000
0100
0010
0000
1000
0001
1000
0000
,  // measure 59
0001
0010
0100
0000
0001
0010
0100
1000
,  // measure 60
0001
0100
0010
0000
0001
1000
0001
0000
,  // measure 61
1000
0010
0100
0000
1000
0010
0100
0001
,  // measure 62
1000
0100
0001
1000
0001
0100
1000
0000
,  // measure 63
0001
0010
0100
1000
0001
1000
1001
0000
,  // measure 64
0001
0100
1000
0001
1000
0100
0001
0000
,  // measure 65
1000
0010
0100
0001
0020
0000
0130
0000
,  // measure 66
1000
0100
0010
0010
0001
0100
0010
0010
,  // measure 67
0100
0100
0001
0010
0100
1000
1100
0000
,  // measure 68
0001
0100
0010
0010
1000
0100
0010
0010
,  // measure 69
0100
0100
1000
0010
0100
0001
0101
0000
,  // measure 70
0010
0100
0001
1000
0001
0010
0001
1000
,  // measure 71
0001
0100
0010
1000
0100
0010
0001
0100
,  // measure 72
1000
0100
0001
0010
1000
0010
0001
0100
,  // measure 73
0010
0001
1000
0100
0010
1000
1002
0000
,  // measure 74
0020
0000
0000
0000
,  // measure 75
0000
0000
0000
0000
,  // measure 76
0033
0000
0000
0000
;

//---------------dance-single - ----------------
#NOTES:
     dance-single:
     :
     Challenge:
     15:
     0.720278,0.915258,0.369315,0.144514,0.493758,628.000000,582.000000,46.000000,18.000000,2.000000,0.000000,0.720278,0.915258,0.369315,0.144514,0.493758,628.000000,582.000000,46.000000,18.000000,2.000000,0.000000:
// measure 0
0000
0000
0000
0000
,  // measure 1
0000
0000
0000
0000
,  // measure 2
0000
0000
0000
0000
,  // measure 3
0000
0000
0000
0000
,  // measure 4
0000
0000
0000
0000
,  // measure 5
0000
0000
0000
0000
,  // measure 6
0001
0010
0100
1000
0010
1000
0010
1000
,  // measure 7
0100
0010
0001
0100
0010
0100
1001
0000
,  // measure 8
1000
0010
0001
0010
1000
0100
0001
0100
,  // measure 9
0001
0100
1000
0010
0100
0001
1001
0000
,  // measure 10
0220
0000
0000
0000
,  // measure 11
0000
0000
0000
0000
,  // measure 12
0000
0000
0000
0000
,  // measure 13
0000
0000
0000
0330
,  // measure 14
0010
0000
0010
1000
0100
0000
0100
0010
,  // measure 15
0100
0000
0100
1000
0010
0000
0100
0001
,  // measure 16
0010
0000
0010
0100
0010
0000
0010
0001
,  // measure 17
0100
0000
0100
0001
0010
0000
0011
0000
,  // measure 18
0001
0000
0010
0000
0100
0000
0000
0100
1000
0000
0010
0000
0100
0000
0000
0100
,  // measure 19
0001
0010
0100
1000
0010
0100
0110
0000
,  // measure 20
1000
0000
0010
0000
0100
0000
0000
0100
0001
0000
0010
0000
0100
0000
0010
0000
,  // measure 21
0001
0100
1000
0100
0001
0010
0110
0010
,  // measure 22
0001
0000
1000
0000
0010
0000
0001
0000
0010
0000
1000
0000
0001
0010
0001
0010
,  // measure 23
0001
0000
1000
0000
0010
0000
0001
0000
0010
0000
1000
0000
0001
0010
0001
0010
,  // measure 24
0001
0000
1000
0001
1000
0010
0100
0000
0010
0000
1000
0001
1000
0100
0010
0000
,  // measure 25
0001
0010
0100
1000
0001
0010
0100
1000
0001
0000
0000
0110
0000
0000
1001
0000
,  // measure 26
1000
0000
0010
0000
0100
0000
0000
0100
0001
0010
0100
0000
1000
0000
0000
1000
,  // measure 27
0100
0000
0010
0000
0001
0000
1000
0000
0010
0000
0100
0000
0110
0000
0000
0100
,  // measure 28
0001
0000
0010
0000
0100
0000
0000
0100
1000
0000
0010
0100
0000
0010
1000
0001
,  // measure 29
1000
0010
1000
0010
0100
0000
0010
0000
1000
0000
0001
0000
1001
0000
0001
0000
,  // measure 30
1000
0000
0010
0000
0001
0000
0010
0000
1000
0000
1000
0001
0000
1000
0100
1000
,  // measure 31
0001
1000
0001
1000
0100
0000
0010
0000
0100
0000
0010
0001
2000
0000
3000
0000
,  // measure 32
0010
0000
0001
0010
2000
0000
3001
0000
0010
0000
1000
0010
0002
0000
1003
0000
,  // measure 33
0010
0100
0010
0100
0010
0000
0100
0000
0110
0000
0000
0101
0000
0000
1001
0000
,  // measure 34
1000
0000
0100
0000
0010
0000
0100
1000
0001
0000
1000
0010
0100
0000
0001
1000
,  // measure 35
0100
0000
0010
0000
0001
0000
1000
0000
0010
0000
0100
0000
0110
0000
0010
1000
,  // measure 36
0001
0000
0010
0000
0100
0000
0010
0001
1000
0000
0001
0100
0000
0001
1000
0001
,  // measure 37
0010
0001
0010
0001
0010
0000
0100
0000
1000
0000
0001
0000
1001
0000
0001
0000
,  // measure 38
1000
0000
0010
0000
0001
0000
0010
0000
1000
0000
1000
0001
0000
1000
0100
1000
,  // measure 39
0001
0100
0001
1000
0010
0100
0001
1000
0100
0000
0010
0001
1000
0000
0000
1000
,  // measure 40
0001
0000
0010
0000
1000
0000
0010
0000
0001
0000
0100
0000
1000
0000
0100
0010
,  // measure 41
1000
0001
1000
0001
0010
0000
0010
0000
0100
0000
1000
0001
1000
0000
0000
0000
,  // measure 42
1001
0000
1001
1000
1010
0000
1010
0010
,  // measure 43
0110
0000
0000
0000
0110
0000
0010
0000
1010
0000
0000
1001
0000
0000
1100
0000
,  // measure 44
0110
0000
0110
0010
0011
0000
0011
0001
,  // measure 45
1001
0000
0000
0000
1001
0000
0001
0000
0011
0000
0000
0110
0000
0000
1100
0000
,  // measure 46
1000
1000
0010
0100
0001
0001
0010
0100
,  // measure 47
1000
0010
0001
0010
1000
0100
0001
0100
,  // measure 48
1000
0100
0010
0001
0100
0010
0100
0001
0010
0100
1000
0010
0100
0010
1000
0100
,  // measure 49
0010
0001
0100
0010
0001
0010
0100
0001
0010
0000
0010
0100
1000
0000
1000
0000
,  // measure 50
0010
0000
0100
0000
1000
0000
0100
1000
0100
0000
1000
0100
0010
0000
0100
0010
,  // measure 51
1000
0000
0001
0000
1000
0000
0100
0000
0010
0000
0001
0000
1001
0000
0001
0010
,  // measure 52
0100
0000
1000
0000
1000
0000
0010
0100
1000
0000
0100
0010
0000
1000
0001
0010
,  // measure 53
1000
0010
0100
0010
0001
0000
0010
0000
0001
0000
1000
0000
1001
0000
0001
0000
,  // measure 54
0200
0000
1000
0000
0320
0000
1000
0000
0130
0000
0100
0001
0000
0001
0010
0100
,  // measure 55
0001
0100
0010
0100
1000
0100
0010
0001
1000
0000
0000
0000
1001
0000
1000
0000
,  // measure 56
0200
0000
0001
0000
0320
0000
0001
0000
0130
0000
1000
0000
0001
1000
0010
0100
,  // measure 57
1000
0100
0010
0100
0001
0000
1000
0000
0001
0000
0000
0000
1002
0000
0000
0000
,  // measure 58
1003
0000
0100
0000
0100
0000
0001
0100
1000
0000
0001
0100
0010
0000
0001
0010
,  // measure 59
1000
0000
0100
0000
0010
0000
0001
0000
1000
0001
1000
0001
2001
0000
0000
0000
,  // measure 60
3010
0000
0100
0000
0100
0000
1000
0100
0010
0000
0100
0001
0000
1000
0100
0010
,  // measure 61
1000
0001
0100
0010
0001
0000
1000
0000
0001
1000
0001
1000
2001
0000
0000
0000
,  // measure 62
3001
0000
0010
0000
001M
0000
1000
0000
0001
0000
0010
0100
0010
0000
1000
0010
,  // measure 63
0100
1000
0001
1000
0100
0010
0001
1000
0001
0000
0000
0000
1002
0000
0000
0000
,  // measure 64
1003
0000
0010
0000
M010
0000
0001
0000
1000
0000
0010
0000
0100
0010
0001
0010
,  // measure 65
0100
0001
1000
0001
0100
0010
1000
0000
0001
0000
0000
0000
1002
0000
0000
0000
,  // measure 66
1003
0010
0001
0010
1000
0010
0001
0010
,  // measure 67
0001
0000
0010
0000
1000
0000
0100
0000
0001
0100
1000
0000
2001
0000
0000
0000
,  // measure 68
3001
0010
1000
0010
0001
0010
1000
0010
,  // measure 69
1000
0000
0010
0000
0001
0000
0100
0000
1000
0100
0001
0000
1002
0000
0000
0000
,  // measure 70
1003
0100
0001
0100
1000
0100
1000
0100
,  // measure 71
0001
0000
0100
0000
1000
0000
0010
0000
0001
0010
1000
0000
1001
0000
0001
0000
,  // measure 72
1000
0100
0010
0001
0100
1000
0100
0001
,  // measure 73
0010
0100
1000
0010
0100
0001
1001
0000
,  // measure 74
0220
0000
0000
0000
,  // measure 75
0000
0000
0000
0000
,  // measure 76
0330
0000
0000
0000
;
