#TITLE:I DID A SONG WITH MARINA AND THE DIAMONDS GO FOLLOW MY TUMBLER BLOG;
#SUBTITLE:;
#ARTIST:PISS SPEARS;
#TITLETRANSLIT:;
#SUBTITLETRANSLIT:;
#ARTISTTRANSLIT:;
#GENRE:;
#CREDIT:;
#MUSIC:I DID A SONG WITH MARINA AND THE DIAMONDS.ogg;
#BANNER:I DID A SONG WITH MARINA AND THE DIAMONDS.png;
#BACKGROUND:I DID A SONG WITH MARINA AND THE DIAMONDS-bg.png;
#CDTITLE:;
#SAMPLESTART:26.785;
#SAMPLELENGTH:15.000;
#SELECTABLE:YES;
#OFFSET:0.006;
#BPMS:0.000=215.000
,188.000=430.000
,191.000=215.000
;
#STOPS:188.875=0.141
,189.875=0.141
,190.375=0.070
,190.875=0.070
;
#DISPLAYBPM:215.000;
#ORIGIN:;
#PREVIEWVID:;
#JACKET:I DID A SONG WITH MARINA AND THE DIAMONDS-jacket.png;
#CDIMAGE:;
#DISCIMAGE:;
#BGCHANGES:;
#FGCHANGES:;

//--------------- dance-single - ----------------
#NOTES:
     dance-single:
     :
     Challenge:
     18:
     0.004338,0,0.007592,0,0,4,1,1,0,0,1,0,0,0,0.004338,0,0.007592,0,0,4,1,1,0,0,1,0,0,0:
0000
0000
0000
0000
,
0000
0000
0000
0000
,
0000
0000
0000
0000
,
0000
0000
0000
0000
,
1000
0100
1000
0100
,
0010
0001
0010
0001
,
0100
0010
0100
0010
,
1000
0000
0000
0000
0001
0000
0000
0000
0000
0000
0000
0000
1000
0100
0010
0001
,
0100
0000
0001
0010
0001
0000
1000
0000
0010
0100
0010
1000
0100
0010
0100
0000
,
1000
0010
1000
0010
0100
0000
0001
0010
0100
0000
0001
0000
0100
0000
1000
0000
,
0010
0100
0001
0010
0100
0010
0001
1000
0010
0000
0100
0001
1000
0000
0100
0000
,
1000
0000
0000
0100
0001
0000
0100
0000
0010
0001
1000
0000
0010
0000
0100
0000
,
0001
0000
0010
1000
0010
0000
0100
0000
1000
0001
0100
0001
0010
0100
1000
0000
,
0010
0100
0001
1000
0100
0000
0010
0100
1000
0001
0100
0000
0010
0000
0100
0000
,
0001
0010
0100
1000
0001
0100
0001
1000
0100
0010
0100
1000
0010
0000
0100
0000
,
0001
0000
0000
0001
0010
0000
1000
0000
0000
0010
0001
0000
0100
0000
0010
0000
,
1000
0000
0100
0000
0010
0000
1000
0000
0010
0100
1000
0001
0100
0010
0100
0001
,
0010
0001
1000
0010
0100
0000
0001
0010
0001
0100
0010
0000
0001
0000
0010
0000
,
0100
0001
0010
0100
1000
0010
0100
0010
1000
0100
0010
0001
1000
0000
0001
0000
,
0100
0000
0010
0000
0001
0000
0010
0000
1000
0100
1000
0000
0010
0000
0100
0000
,
0001
0000
0010
0001
1000
0000
0010
0000
1000
0100
1000
0001
0100
0010
0100
0001
,
1000
0100
1000
0100
0010
0000
0001
0100
0001
0100
0010
0000
0100
0000
0001
0000
,
1000
0100
0010
0100
1000
0100
0010
0001
1000
0010
0100
0001
0100
0000
0010
0000
,
2002
0000
0000
3003
,
0100
0000
0010
1000
0001
0000
0010
0100
0010
0001
1000
0000
0010
0100
0010
1000
,
0001
0010
0100
0001
0100
0000
1000
0010
1000
0100
0010
0000
0100
0000
1000
0000
,
0010
0100
0001
1000
0100
0000
1000
0100
0010
0001
0100
0000
0010
0000
0100
0000
,
0001
0000
0010
0000
1000
0000
0010
0000
0001
0100
0010
0000
0001
0000
0010
0000
,
1000
0100
0010
0100
1000
0000
0001
0100
0010
0100
0001
0000
0010
0100
0010
0000
,
0001
1000
0010
0100
0010
0000
1000
0100
0010
0001
0010
0000
1000
0000
0010
0000
,
0001
0100
0001
1000
0100
0000
0010
0100
1000
0010
0100
0000
1000
0000
0100
0000
,
0001
0000
0010
0000
0001
0000
0010
0000
0100
0010
0001
0000
0100
0000
0010
0000
,
1000
0000
0100
1000
0001
0000
0100
0010
0100
0001
0010
0000
1000
0010
0100
0000
,
0010
0001
1000
0010
0100
0000
0001
0010
0100
0010
0001
0000
0100
0000
0010
0000
,
0001
0010
1000
0010
0100
0000
0010
1000
0001
0010
0100
0000
1000
0000
0001
0000
,
0010
0000
0000
1000
0010
0000
0001
0000
1000
0010
0100
0000
1000
0000
0100
0000
,
0001
0000
0000
0010
0001
0000
1000
0000
0010
0100
0010
0000
1000
0000
0100
0000
,
0010
0100
1000
0001
0100
0000
0010
0100
0001
0010
0001
0000
0100
0000
0010
0000
,
1000
0100
1000
0010
0100
0000
0001
0010
0001
0010
0100
0001
0100
0000
1000
0000
,
2002
0000
0000
0000
0000
0000
0000
0000
0000
0000
3003
0000
1000
0001
0010
0100
,
1000
0010
0100
0010
0100
0000
0001
0010
0001
0100
0010
1000
0100
0000
0010
0000
,
1000
0000
0010
0001
0100
0000
0010
0000
0100
0001
1000
0100
0010
0000
0100
0000
,
1000
0000
0001
0100
0001
0000
0010
0000
0001
0100
0010
1000
0100
0000
0010
0000
,
0100
1000
0001
0100
0010
0000
0001
0000
0010
1000
0100
0010
0001
0000
0100
0000
,
1000
0000
0100
0001
1000
0000
0100
0010
0100
1000
0001
0100
0010
0000
0100
0000
,
0001
0000
1000
0100
1000
0000
0010
0000
0100
0001
0100
0010
1000
0000
0100
0010
,
0001
0100
0001
1000
0100
0000
0010
0001
0100
0010
0100
0001
0010
0000
0100
0000
,
1000
0000
0000
0000
1100
0000
0000
0000
0101
0000
0010
0000
1000
0100
0010
0001
,
0100
0000
0001
1000
0100
0000
0010
0100
0010
0001
1000
0010
0100
0000
0010
0000
,
1000
0100
0010
0100
1000
0000
0001
0100
0010
0100
0001
0000
0010
0000
0100
0000
,
1000
0010
1000
0100
0010
0000
0001
0100
0001
0100
0010
0100
0001
0000
0010
0000
,
0100
0000
1000
0001
0100
0000
0010
0100
0001
1000
0100
0000
0010
0000
0001
0000
,
0100
0010
0100
0010
1000
0000
0100
0001
0100
1000
0010
0100
0001
1000
0001
0000
,
0100
0010
1000
0001
0010
0000
0100
0010
0001
1000
0010
0000
0100
0000
0001
0000
,
1000
0100
0010
1000
0010
0000
0001
0100
0000
0001
0100
0010
0100
0000
0001
0000
,
2002
0000
0000
3003
,
0100
0000
0010
1000
0001
0000
0010
0100
0010
0001
1000
0000
0010
0100
0010
1000
,
0001
0010
0100
0001
0100
0000
1000
0010
1000
0100
0010
0000
0100
0000
1000
0000
,
0010
0100
0001
1000
0100
0000
1000
0100
0010
0001
0100
0000
0010
0000
0100
0000
,
0001
0000
0010
0000
1000
0000
0010
0000
0001
0100
0010
0000
0001
0000
0010
0000
,
1000
0100
0010
0100
1000
0000
0001
0100
0010
0100
0001
0000
0010
0100
0010
0000
,
0001
1000
0010
0100
0010
0000
1000
0100
0010
0001
0010
0000
1000
0000
0010
0000
,
0001
0100
0001
1000
0100
0000
0010
0100
1000
0010
0100
0000
1000
0000
0100
0000
,
0001
0000
0010
0000
0001
0000
0010
0000
0100
0010
0001
0000
0100
0000
0010
0000
,
1000
0000
0100
1000
0001
0000
0100
0010
1000
0001
0010
0000
0100
0000
1000
0000
,
0001
0100
0010
0100
0001
0000
1000
0100
0010
0001
0100
0000
0010
0000
0001
0000
,
0010
1000
0100
0010
0100
0000
1000
0001
0100
0001
0100
0001
0010
0000
0100
0000
,
0010
0000
0001
1000
0010
0000
0100
0001
0010
0001
0100
0000
0010
0000
1000
0000
,
0001
0000
0010
0001
1000
0000
0010
0100
1000
0100
0001
0000
0010
0100
1000
0000
,
0001
0100
0001
0100
0010
0000
0100
0001
1000
0100
0010
0000
0001
0000
1000
0000
,
0010
0100
0010
1000
0100
0000
0010
0001
0010
0001
0100
0010
0100
0000
0001
0000
,
1000
0000
0100
0010
0100
0000
1000
0000
0001
0100
0001
0000
0010
0000
0100
0000
,
1000
0000
0010
0100
0010
0000
1000
0000
0001
0010
0001
0000
1000
0000
0010
0000
,
0100
0001
1000
0100
0010
0000
0100
1000
0001
0100
0010
0000
0100
0000
0001
0000
,
1000
0000
0000
0100
0010
0000
1000
0000
0010
0001
1000
0000
0010
0000
0100
0000
,
2002
0000
0000
3003
,
1100
0011
0110
1001
,
0100
0010
1000
0000
0001
0010
0100
1000
,
0101
0000
1010
0000
1001
0010
0110
0000
,
1000
0100
0001
0100
2000
0000
0010
3000
,
0011
1010
0110
1001
,
0010
0100
0001
0000
1000
0100
0010
0001
,
1100
0101
1001
0110
,
2000
3200
0302
0023
,
1030
0000
0000
0100
0000
0000
0010
0000
0000
0100
0000
0000
1000
0000
0000
0000
,
0001
0000
0000
0100
0000
0000
0010
0000
0000
0100
0000
0000
0001
0000
0000
0000
,
1000
0000
0000
0010
0000
0000
0100
0000
0000
0010
0000
0000
1000
0000
0000
0000
,
0001
0000
0000
0010
0000
0000
0100
0000
0000
0010
0000
0000
0001
0000
0000
0000
,
1000
0000
0000
0010
0000
0000
0100
0000
0000
0001
0000
0000
0010
0000
0000
0000
,
0001
0100
0001
0100
0010
1000
0010
1000
0001
0010
0001
0010
0100
1000
0100
1000
,
0010
0100
0010
0100
0001
1000
0001
1000
0010
0100
0001
1000
0100
0010
0100
1000
,
0001
0100
0001
1000
0100
0010
0100
1000
0001
0100
0010
1000
0002
0000
0000
0000
,
0103
0000
0010
1000
0001
0000
0010
0100
0010
0001
1000
0000
0010
0100
1000
0000
,
0100
0001
0010
0001
0100
0000
0010
1000
0100
0010
0100
0000
1000
0000
0001
0000
,
0010
0001
1000
0010
0100
0000
0001
0010
0100
0010
0001
0000
0100
0000
0010
0000
,
1000
0000
0100
0000
0010
0000
1000
0000
0010
0001
1000
0000
0010
0000
0100
0000
,
0010
0000
0000
1000
0001
0000
0010
0001
1000
0010
1000
0000
0100
0000
0010
0000
,
0001
0100
0010
0100
0001
0000
0010
0001
1000
0010
0100
0000
1000
0000
0100
0000
,
0001
0010
0001
1000
0010
0000
0001
0010
1000
0001
0010
0100
0010
0000
0001
0000
,
0100
0000
0010
0000
1000
0000
0001
0000
0010
0100
0010
0000
0001
0000
1000
0000
,
0010
0000
0000
1000
0100
0000
0010
0000
0100
1000
0001
0000
0100
0000
0001
0000
,
0010
0001
1000
0010
0100
0000
1000
0100
0001
0010
0001
0000
1000
0000
0010
0000
,
1000
0100
0010
0100
1000
0000
0001
0100
0010
0001
0010
1000
0100
0000
0010
0000
,
0100
0000
0000
1000
0001
0000
0100
0000
0010
0100
0001
0000
0010
0000
0100
0000
,
1000
0000
0001
0100
0001
0000
1000
0100
1000
0001
0100
0000
0010
0100
0010
1000
,
0001
0010
0100
0010
0001
0000
1000
0000
0010
0100
1000
0000
0100
0000
0001
0000
,
0010
0001
1000
0010
0100
0000
0001
0000
0010
0100
0001
0000
0100
0000
1000
0000
,
0010
0000
0000
0001
0010
0000
1000
0000
0001
0010
0001
0000
0100
0000
0010
0000
,
1000
0100
0010
0100
1000
0000
0001
0100
0010
0100
0001
0000
0010
0000
0001
0000
,
0100
0010
1000
0001
0010
0000
0100
0000
1000
0010
1000
0000
0100
0000
0010
0000
,
0100
1000
0001
0100
0010
0000
0100
0001
0100
0001
0100
0010
0001
0000
0010
0000
,
1000
0000
0000
0100
0010
0000
1000
0000
0010
0001
0100
0000
0010
0000
1000
0000
,
0001
0000
0010
0100
1000
0000
0010
0100
0010
1000
0100
0000
0010
0100
1000
0000
,
0001
0100
0010
0100
0010
0000
0100
0001
0010
0100
1000
0000
0010
0000
0100
0000
,
1000
0100
0001
0010
0100
0000
0010
0001
1000
0010
1000
0000
0001
0000
0010
0000
,
2002
0000
0000
3003
,
0220
0000
0330
0000
;
