#TITLE:Heavenly caress;
#SUBTITLE:;
#ARTIST:Noah;
#TITLETRANSLIT:;
#SUBTITLETRANSLIT:;
#ARTISTTRANSLIT:;
#GENRE:;
#CREDIT:;
#BANNER:Heavenly caress.png;
#BACKGROUND:;
#LYRICSPATH:;
#CDTITLE:;
#MUSIC:Heavenly caress.ogg;
#OFFSET:0.863000;
#SAMPLESTART:90.752998;
#SAMPLELENGTH:15.000000;
#SELECTABLE:YES;
#BPMS:0.000000=120.501999
,20.000000=241.003998
,68.000000=482.007996
,100.000000=120.501999
,116.000000=241.003998
,212.000000=180.752991
,236.000000=120.501999
,272.000000=241.003998
,320.000000=482.007996
,368.000000=120.501999
,376.000000=482.007996
,472.000000=180.752991
,502.000000=241.003998
,506.000000=60.250999
;
#STOPS:502.000000=0.124482,
503.000000=0.124482,
504.000000=0.124482,
505.000000=0.124482
;
#BGCHANGES:;
#KEYSOUNDS:;
#ATTACKS:;

//---------------dance-single - ----------------
#NOTES:
     dance-single:
     :
     Hard:
     16:
     0.533449,0.794286,0.235221,0.360183,0.058805,508.000000,476.000000,32.000000,49.000000,0.000000,0.000000,0.533449,0.794286,0.235221,0.360183,0.058805,508.000000,476.000000,32.000000,49.000000,0.000000,0.000000:
// measure 0
0000
0000
0000
0000
,  // measure 1
0000
0000
0000
0000
,  // measure 2
0000
0000
0000
0000
,  // measure 3
0000
0000
0000
0000
,  // measure 4
0000
0000
0000
0000
,  // measure 5
0010
1000
0001
0000
1000
0100
0010
0000
,  // measure 6
0100
0000
1000
0001
0000
0001
0100
0000
,  // measure 7
0010
0000
1000
0000
0001
0001
0100
0010
,  // measure 8
1000
0010
0100
0001
0100
0001
0010
0100
,  // measure 9
1000
0000
0000
0000
0001
0000
0000
0000
1000
0000
1000
0000
0100
0000
0000
0100
,  // measure 10
0010
0001
0110
1000
,  // measure 11
0001
0000
0100
1000
0000
0000
0100
0000
,  // measure 12
0120
0000
0100
0130
,  // measure 13
1000
0010
0100
0001
1000
0100
0010
0001
,  // measure 14
0011
0000
0100
0000
1010
0000
0001
1000
,  // measure 15
0010
0000
0100
0101
0000
0010
1000
1001
,  // measure 16
0000
0000
0001
0000
0001
0000
0001
0001
,  // measure 17
1000
0000
0100
0000
,  // measure 18
1000
0000
0001
0000
,  // measure 19
0100
0001
1000
0100
,  // measure 20
0020
0032
2003
3200
,  // measure 21
0310
0001
1000
0010
,  // measure 22
0100
0001
1000
0100
,  // measure 23
0020
0100
0100
0100
,  // measure 24
0000
0100
0100
0030
,  // measure 25
0100
1000
0010
0100
,  // measure 26
0002
0000
0000
0000
0000
0000
0103
0001
0200
0000
0000
0000
1000
0000
0000
0000
,  // measure 27
0320
0000
0000
0000
1030
0100
0010
0001
,  // measure 28
0020
0000
2030
0000
3001
0100
0000
0000
,  // measure 29
1000
1100
0001
0101
,  // measure 30
1000
0010
0001
0010
,  // measure 31
1100
0110
0011
1001
,  // measure 32
0001
0000
0100
0010
0110
0000
0000
0000
,  // measure 33
0002
0000
0203
0000
2300
0000
3001
0010
,  // measure 34
2000
0000
3200
0000
0301
0100
0010
0000
,  // measure 35
0001
0010
0001
0010
0100
1000
0100
1000
,  // measure 36
0010
0100
0001
1000
0100
0010
0001
0100
,  // measure 37
0010
0000
0010
1000
0000
1000
0001
0000
,  // measure 38
0100
0100
0010
0000
1000
0000
0101
0000
,  // measure 39
1000
0100
0010
0001
0010
0100
1000
0000
,  // measure 40
0110
0000
0100
0000
1000
1000
0001
0000
,  // measure 41
0010
0000
0010
0001
0000
0001
1000
0000
,  // measure 42
0100
0100
0010
0000
0001
0000
1100
0000
,  // measure 43
0001
0100
0010
1000
0010
0100
0001
0000
,  // measure 44
0110
0200
1000
0301
,  // measure 45
1000
0000
1000
0010
0000
0010
0100
0000
,  // measure 46
0001
0001
1000
0000
0010
0000
0101
0000
,  // measure 47
1000
0100
0010
0001
0010
0100
1000
0000
,  // measure 48
0110
0000
0100
0000
0010
0010
0100
0000
,  // measure 49
1000
0001
1000
0000
0010
0100
0010
0000
,  // measure 50
0001
1000
0001
0000
0010
0100
0010
0000
,  // measure 51
1000
0001
1000
0000
0100
0010
0100
0000
,  // measure 52
0001
0100
0010
0002
0000
0000
0203
0000
,  // measure 53
2000
0000
0000
0000
,  // measure 54
0000
3300
0000
0000
0200
0000
0000
0302
,  // measure 55
0000
0000
2003
0000
0000
3200
0000
0000
,  // measure 56
0020
0000
0000
0300
0000
0000
0032
0000
,  // measure 57
0000
0000
0000
0000
0203
0000
0000
0320
,  // measure 58
0000
1030
0000
0000
,  // measure 59
1001
0000
0000
0010
0000
0000
1000
0010
,  // measure 60
0001
0000
0000
0010
0000
0000
0000
0000
0000
0200
0000
0000
0000
0000
0000
0000
,  // measure 61
1300
0000
0000
0000
0000
0000
0000
0000
0000
0000
0000
0000
0001
0000
0000
0001
0010
0000
0000
0000
0000
0000
0000
0000
0100
0000
0000
0000
0000
0000
0000
0000
,  // measure 62
1000
0000
0000
0000
0000
0000
0001
0000
0000
0000
0000
0000
0000
0000
0000
0100
0010
0000
0000
0000
0000
0000
0000
0000
1000
0000
0000
0000
0000
0000
0000
0000
,  // measure 63
0001
0000
0010
0100
0000
0010
0000
0001
0000
0000
0000
0000
0100
0000
0001
0000
,  // measure 64
1000
0000
0010
0100
0000
0010
0000
1000
0000
0000
0000
0000
0001
0000
0000
0000
,  // measure 65
0200
0010
1000
0001
,  // measure 66
2300
0000
3200
0000
,  // measure 67
0302
0000
0003
0000
,  // measure 68
1000
0010
0000
0100
0010
0000
1000
0010
,  // measure 69
0000
0100
0010
0000
0100
0001
0000
0000
,  // measure 70
1000
0100
0000
0010
0001
0000
1000
0100
,  // measure 71
0000
0010
0001
0000
0100
0000
1001
0000
,  // measure 72
0010
0001
0000
0010
1000
0000
0010
0001
,  // measure 73
0000
0010
1000
0000
0010
0100
0110
0000
,  // measure 74
1000
0100
0001
0010
,  // measure 75
1000
0001
1000
0001
0100
0010
1000
0001
,  // measure 76
0010
0000
0010
0100
0010
0100
0010
0000
,  // measure 77
0001
1000
0001
0000
0100
0010
0100
0000
,  // measure 78
0001
0100
0010
1000
0100
0010
0001
0000
,  // measure 79
1001
0000
0000
0110
0000
0000
0100
0000
,  // measure 80
0001
0100
0001
0100
,  // measure 81
0001
0100
0001
0100
,  // measure 82
0010
1000
0010
1000
,  // measure 83
0001
1000
0001
1000
,  // measure 84
0100
0010
0001
1000
,  // measure 85
0100
0010
0001
1000
,  // measure 86
0020
0000
0100
0000
,  // measure 87
0100
0000
0100
0000
,  // measure 88
0031
0000
0110
0000
,  // measure 89
1000
0000
0110
0000
,  // measure 90
0001
0000
1010
0000
,  // measure 91
0100
0000
0011
0000
,  // measure 92
2000
0000
3002
0000
,  // measure 93
0103
0000
0000
0100
0000
0000
0100
0000
0010
0000
0000
0000
0000
0000
0000
0000
,  // measure 94
1000
0000
0000
0010
,  // measure 95
0000
0000
0100
0000
,  // measure 96
0001
1000
0001
0010
,  // measure 97
0001
0100
0001
1000
,  // measure 98
0001
0000
0000
0010
,  // measure 99
0000
0000
0100
0000
,  // measure 100
1000
0010
0000
0000
0100
0001
0000
0000
,  // measure 101
1000
0010
0000
0000
0100
0001
0000
0000
,  // measure 102
1000
0001
0100
0000
,  // measure 103
0010
0010
0100
0000
,  // measure 104
0001
1000
0010
0000
,  // measure 105
0100
0100
0001
1000
,  // measure 106
0200
0000
0000
0320
,  // measure 107
0000
0000
0031
0000
,  // measure 108
0200
1000
0000
0010
,  // measure 109
0000
0001
0000
0300
,  // measure 110
1000
0010
0100
0001
,  // measure 111
1000
0100
0010
0001
,  // measure 112
1000
0010
0100
1000
,  // measure 113
0100
0001
1000
0000
,  // measure 114
0100
0010
0001
1000
,  // measure 115
0001
0010
0100
1000
,  // measure 116
0200
0000
0000
2300
,  // measure 117
0000
0000
3020
0000
,  // measure 118
0002
0000
0000
0000
,  // measure 119
0000
0000
0000
0000
,  // measure 120
0000
0000
0000
0000
0000
0033
0000
0000
,  // measure 121
2000
0000
0000
3002
,  // measure 122
0000
0000
0023
0000
,  // measure 123
0000
0230
0000
0000
,  // measure 124
0302
0000
0000
0000
0000
0000
0000
0000
0000
0000
0000
0000
0103
0000
0000
1000
,  // measure 125
0000
0000
0001
0000
0000
0100
0000
0000
1010
0000
0000
0000
1010
0000
0000
0000
,  // measure 126
1010
1010
0002
0000
,  // measure 127
0000
0003
0000
0000
0000
0000
0000
0000
;

//---------------dance-single - ----------------
#NOTES:
     dance-single:
     :
     Challenge:
     18:
     0.632158,0.934454,0.257273,0.389586,0.194793,602.000000,567.000000,35.000000,53.000000,0.000000,0.000000,0.632158,0.934454,0.257273,0.389586,0.194793,602.000000,567.000000,35.000000,53.000000,0.000000,0.000000:
0000
0000
0000
0000
,
0000
0000
0000
0000
,
0000
0000
0000
0000
,
0000
0000
0000
0000
,
0000
0000
0000
0000
0000
0000
0000
0000
1000
0010
0010
0010
0100
0010
0010
0010
,
1000
0001
0100
0000
0001
0010
0100
0000
,
0010
0000
0001
1000
0000
1000
0010
0000
,
0100
0000
0001
0000
1000
1000
0010
0100
,
0001
0010
0001
0000
1000
0100
1000
0000
0010
0000
0100
0000
0001
0000
1000
0000
,
0100
0000
0000
0000
1000
0000
0000
0000
0001
0000
0001
0000
0010
0000
0000
0010
,
0100
1000
0110
0001
,
1000
0000
0010
0101
0000
0000
0010
0000
,
0210
0000
0010
0310
,
0001
0100
0010
1000
0001
0010
0100
1000
,
1100
0000
0010
0000
0101
0000
1000
0001
,
0100
0000
0010
1010
0000
0100
0001
1001
,
0000
0000
1000
0100
1000
0010
1000
1000
,
0001
0100
0010
0100
,
0001
0100
1000
0100
,
0010
1000
0001
0010
,
0200
2300
3002
0023
,
0130
1000
0010
0001
,
0010
1000
0100
0001
,
0200
0010
0010
0300
,
0010
0100
0010
0100
0010
0000
0000
0000
,
0000
0000
0000
0000
0000
0000
0000
0000
0001
0000
0000
0000
0000
0000
1000
0001
0100
0000
0000
0000
0000
0000
0000
0000
0010
0000
0000
0000
0000
0000
0000
0000
,
2000
0000
0000
0000
0000
0000
3010
1000
0020
0000
0000
0000
0001
0000
0000
0000
,
0230
0000
0000
0000
0301
0010
0100
1000
,
0200
0000
0000
0000
0302
0000
0000
0000
1003
0010
0000
0010
0100
0010
0000
0000
,
0001
0001
0011
0000
1000
1000
1010
0000
,
0001
0010
0100
0010
1000
0010
0100
0000
,
0011
0110
1100
1001
,
1000
0000
0010
0100
0110
0000
0000
0000
,
2000
0000
3020
0000
0032
0000
1003
0100
,
0002
0000
0023
0000
1030
0010
0100
0000
,
1000
0100
0010
0001
1000
0100
0001
0100
,
1000
0010
0001
0010
0100
1000
0100
0001
,
0100
0000
0100
0001
0000
0001
1000
0000
,
0010
0010
0100
0000
0001
0000
1010
0000
,
0001
0010
0100
1000
0100
0010
0001
0000
,
0110
0000
0010
0000
0001
0001
1000
0000
,
0100
0000
0100
1000
0000
1000
0001
0000
,
0010
0010
0100
0000
1000
0000
0011
0000
,
1000
0010
0100
0001
0100
0010
1000
0000
,
0010
0100
0000
0000
0001
1000
0000
0000
0010
0100
0000
0000
0010
0000
1000
0000
,
0001
0000
0001
0100
0000
0100
0010
0000
,
1000
1000
0001
0000
0100
0000
1010
0000
,
0001
0010
0100
1000
0100
0010
0001
0000
,
0110
0000
0010
0000
0100
0100
0010
0000
,
0001
0100
1000
0000
0100
0010
0100
0000
,
1000
0100
0001
0000
0100
0010
0100
0000
,
0001
0010
1000
0000
0010
0100
0010
0000
,
1000
0010
0100
2000
0000
0000
3020
0000
,
0002
0000
0000
0000
,
0000
0033
0000
0000
0020
0000
0000
2030
,
0000
0000
3002
0000
0000
0023
0000
0000
,
0200
0000
0000
0030
0000
0000
2300
0000
,
0000
3002
0000
0000
0000
0000
0000
0000
0000
0000
2003
0000
0000
0000
0000
0000
3020
0000
0000
0000
0000
0000
0000
0000
0000
0000
0000
0000
0230
0000
0000
0000
,
0000
0000
0000
0000
0000
0000
0000
0000
0301
0000
0000
0100
0000
0000
0010
0000
0000
0100
0000
0000
0001
0000
0000
1000
0000
0000
0010
0000
0000
0100
0000
0000
,
1001
0000
0000
0100
0000
0000
0010
0000
0000
0100
0000
0000
0001
0000
0100
0000
,
1000
0000
0000
0100
0000
0000
0000
0000
0000
1000
0010
0100
0010
0001
0010
1000
,
0100
0000
0000
0000
0000
0000
0100
0000
0000
0000
0000
0000
1000
0000
0000
1000
0100
0000
0000
0000
0100
0000
0000
0000
0010
0000
0000
0000
0010
0000
0000
0000
,
0001
0000
0000
0000
0001
0000
1000
0000
0000
0000
0000
0000
0000
0000
0000
0010
0100
0000
0000
0000
0000
0000
0000
0000
0001
0000
0000
0000
0000
0000
0000
0000
,
1000
0000
0100
0010
0000
0100
0000
1000
0000
0000
0000
0000
0010
0000
1000
0000
,
0001
0000
0100
0010
0000
0100
0000
0001
0000
0000
0000
0000
1000
0000
0000
0000
,
0020
0100
0100
0001
0001
1000
1000
0100
,
0032
0000
0023
0000
,
2030
0000
0000
0000
0000
0000
0000
0000
3010
0100
0010
0100
0010
0100
0010
0000
,
0001
0100
0000
0010
0100
0000
0001
0100
,
0000
0010
0100
0000
0010
1000
0000
0000
,
0001
0010
0000
0100
1000
0000
0001
0010
,
0000
0000
0100
0000
1000
0000
0000
0000
0010
0100
0010
0100
0010
0000
0000
0000
,
0100
1000
0000
0100
0001
0000
0100
1000
,
0000
0100
0001
0000
0100
0010
0110
0000
,
0002
0023
2030
3200
,
0301
0010
1000
0010
0001
0010
0100
1000
,
0001
0000
0100
0110
0000
0100
1001
0000
,
1000
0001
1000
0000
0010
0100
0010
0000
,
1000
0010
0100
0001
0010
0100
1000
0000
,
1001
0000
0000
0110
0000
0000
0010
0000
,
1000
0010
0100
0001
,
1000
0100
0010
0001
,
0100
1000
0100
0001
,
0010
1000
0010
0001
,
0010
0100
1000
0001
,
0010
0100
1000
0001
,
0200
0000
0010
0000
,
0010
0000
0010
0000
,
1300
0100
0110
0000
,
0001
0100
0110
0000
,
1000
0001
1000
0000
0101
0000
0000
0000
,
0010
0100
0010
0000
1100
0000
0000
0000
,
0002
0000
2003
0000
,
3010
0000
0000
0001
0000
0000
0010
0000
0100
0000
0000
0000
1000
0000
0000
0000
,
0001
1000
1000
0100
,
1000
1000
0010
1000
,
0001
1000
0100
1000
,
0010
0100
0001
0100
,
0010
0010
0000
1001
,
0000
0010
0010
0000
,
0001
0100
0000
0000
0010
1000
0000
0000
,
0001
0010
0000
0000
0100
1000
0000
0000
,
0001
1000
0010
0010
,
0100
0100
0010
0000
,
1000
0000
0100
1000
0100
0000
1000
0000
,
0010
0010
1000
0001
,
0020
0100
0000
0230
,
0010
0000
1300
0000
,
0020
0001
0000
0100
,
0000
1000
0000
0030
,
0001
0100
0010
1000
,
0001
0010
0100
1000
,
0001
0100
0110
0000
,
0001
0010
0001
0010
0100
1000
0100
0000
,
0010
0001
0100
0010
,
1000
0100
0010
0001
,
0020
0000
0000
0032
,
0000
0000
0203
0000
,
2000
0000
0000
0000
,
0000
0000
0000
0000
,
0000
0000
0000
0000
0000
3300
0000
0000
,
0002
0000
0000
2003
,
0000
0000
3200
0000
,
0000
0320
0000
0000
,
2030
0000
0000
0000
0000
0000
0000
0000
0000
0000
0000
0000
0000
0000
0000
0000
0000
0000
0000
0000
0000
0000
0000
0000
3010
0000
0000
0010
0000
0000
0001
0000
,
0000
0001
0000
0000
0100
0000
0000
0100
0000
0000
0010
0000
0000
0010
0000
0000
0101
0000
0000
0000
0000
0000
0000
0000
1010
0000
0000
0000
0000
0000
0000
0000
,
1100
0011
2000
0000
,
0000
3000
0000
0000
0000
0000
0000
0000
;
