#VERSION:0.83;
#TITLE:HUG AND KILL;
#SUBTITLE:;
#ARTIST:Kobaryo;
#TITLETRANSLIT:;
#SUBTITLETRANSLIT:;
#ARTISTTRANSLIT:;
#GENRE:MIXPEED CORE;
#ORIGIN:;
#CREDIT:;
#BANNER:HUG AND KILL.png;
#BACKGROUND:HUG AND KILL-bg.png;
#PREVIEWVID:;
#JACKET:HUG AND KILL-jacket.png;
#CDIMAGE:;
#DISCIMAGE:;
#LYRICSPATH:;
#CDTITLE:cdtitle.png;
#MUSIC:HUG AND KILL.ogg;
#OFFSET:-0.061000;
#SAMPLESTART:10.728000;
#SAMPLELENGTH:15.000000;
#SELECTABLE:YES;
#BPMS:0.000=180.000,
32.000=360.000,
160.000=180.000,
192.000=360.000,
256.000=180.000,
292.000=360.000,
404.000=180.000,
412.000=360.000,
540.000=180.000;
#STOPS:;
#DELAYS:;
#WARPS:;
#TIMESIGNATURES:0.000=4=4;
#TICKCOUNTS:0.000=4;
#COMBOS:0.000=1;
#SPEEDS:0.000=1.000=0.000=0;
#SCROLLS:0.000=1.000;
#FAKES:;
#LABELS:0.000=Song Start;
#BGCHANGES:;
#KEYSOUNDS:;
#ATTACKS:
;

//---------------dance-single - Daff_4K----------------
#NOTEDATA:;
#CHARTNAME:Daff_4K;
#STEPSTYPE:dance-single;
#DESCRIPTION:Daff_4K;
#CHARTSTYLE:;
#DIFFICULTY:Beginner;
#METER:5;
#RADARVALUES:0.230941,0.348500,0.040618,0.064988,0.000000,199.000000,194.000000,5.000000,8.000000,0.000000,0.000000,0.000000,0.000000,0.000000,0.230941,0.348500,0.040618,0.064988,0.000000,199.000000,194.000000,5.000000,8.000000,0.000000,0.000000,0.000000,0.000000,0.000000;
#CREDIT:Daff_4K;
#NOTES:
0000
0000
0000
0000
,
0000
0000
0000
0000
,
0000
0000
0000
0000
,
0000
0000
0000
0000
,
1000
0000
1000
0000
,
0001
0000
0001
0000
,
0010
0000
0100
0000
,
1001
0000
0000
0000
,
1000
0000
0000
0000
,
0010
0000
0000
0000
,
1000
0000
0000
0000
,
0010
0000
0000
0000
,
0100
0000
0000
0000
,
0001
0000
0000
0000
,
1000
0000
0000
0000
,
0001
0000
0000
0000
,
0010
0000
0000
0000
,
0100
0000
0000
0000
,
0010
0000
0000
0000
,
0100
0000
0000
0000
,
1000
0000
0000
0000
,
0001
0000
0000
0000
,
0100
0000
0010
0000
,
0100
0000
0000
0000
,
0001
0000
0000
0000
,
0010
0000
0000
0000
,
0001
0000
0000
0000
,
0010
0000
0000
0000
,
0100
0000
0000
0000
,
1000
0000
0000
0000
,
0001
0000
0000
0000
,
1000
0000
0000
0000
,
0010
0000
0000
0000
,
0100
0000
0000
0000
,
0010
0000
0000
0000
,
0100
0000
0000
0000
,
0001
0000
0000
0000
,
1000
0000
0000
0000
,
0100
0000
0010
0000
,
0100
0000
0010
0000
,
0001
0000
0100
0000
,
1000
1000
1000
0000
,
0010
0000
0001
0000
,
0100
0000
0010
0000
,
1000
0000
0100
0000
,
0001
0001
0001
0000
,
0010
0000
1000
0000
,
0100
0000
0010
0000
,
0001
0000
0000
0000
,
0100
0000
0001
0000
,
0100
0000
0000
0000
,
0010
0000
1000
0000
,
0010
0000
0000
0000
,
1000
0000
0001
0000
,
1000
0000
0000
0000
,
0100
0000
0000
0000
,
1000
0000
0000
0000
,
0100
0000
1000
0000
,
0100
0000
0000
0000
,
0010
0000
0001
0000
,
0010
0000
0000
0000
,
0001
0000
1000
0000
,
0001
0000
0000
0000
,
0100
0000
0000
0000
,
0020
0000
0030
0000
,
1000
0000
0100
0000
,
0010
0000
0001
0000
,
1000
0000
0001
0000
,
0020
0000
0030
0000
,
0001
0000
0100
0000
,
0010
0000
1000
0000
,
0001
0000
1000
0000
,
1001
0000
0000
0000
,
0001
0000
0001
0000
,
0001
0000
0000
0000
,
1000
0000
1000
0000
,
1000
0000
0000
0000
,
0010
0000
0000
0000
,
0001
0000
0000
0000
,
0100
0000
0100
0000
,
0100
0000
0000
0000
,
1000
0000
1000
0000
,
1000
0000
0000
0000
,
0001
0000
0001
0000
,
0001
0000
0000
0000
,
0010
0000
0000
0000
,
1000
0000
0000
0000
,
0100
0000
0100
0000
,
0100
0000
0000
0000
,
0001
0000
0010
0000
,
0001
0000
0000
0000
,
1000
0000
0010
0000
,
1000
0000
0000
0000
,
0001
0000
0000
0000
,
0100
0000
0000
0000
,
0010
0000
1000
0000
,
0001
0000
0000
0000
,
1000
0000
0010
0000
,
1000
0000
0000
0000
,
0001
0000
0010
0000
,
0001
0000
0000
0000
,
1001
0000
0000
0000
,
0010
0010
0010
0000
,
1000
0000
0100
0000
,
0010
0000
0000
0000
,
0001
0000
0100
0000
,
0010
0000
0000
0000
,
1000
0000
0000
0000
,
0001
0000
0000
0000
,
0010
0000
0010
0000
,
0100
0000
1000
0000
,
0001
0000
0100
0000
,
0010
0000
0000
0000
,
1000
0000
0100
0000
,
0010
0000
0000
0000
,
0001
0000
0000
0000
,
1000
0000
0000
0000
,
0010
0000
0010
0000
,
0100
0000
0001
0000
,
2000
0000
0000
0000
,
3000
0000
0100
0000
,
0020
0000
0000
0000
,
0030
0000
0001
0000
,
0200
0000
0000
0000
,
0300
0000
0010
0000
,
1000
0000
0001
0000
,
0100
0000
0100
0000
,
0002
0000
0000
0000
,
0003
0000
0100
0000
,
0020
0000
0000
0000
,
0030
0000
1000
0000
,
0200
0000
0000
0000
,
0300
0000
0010
0000
,
0001
0000
1000
0000
,
0100
0000
0100
0000
,
1001
0000
0000
0000
,
0000
0000
0000
0000
,
0000
0000
0000
0000
,
0000
0000
0000
0000
,
0001
0000
0001
0000
,
1000
0000
1000
0000
,
0010
0000
0100
0000
,
0001
0000
1000
0000
,
1001
0000
0000
0000
;

//---------------dance-single - Daff_4K----------------
#NOTEDATA:;
#CHARTNAME:Daff_4K;
#STEPSTYPE:dance-single;
#DESCRIPTION:Daff_4K;
#CHARTSTYLE:;
#DIFFICULTY:Easy;
#METER:9;
#RADARVALUES:0.492055,0.697000,0.032494,0.276200,0.000000,424.000000,420.000000,4.000000,34.000000,0.000000,0.000000,0.000000,0.000000,0.000000,0.492055,0.697000,0.032494,0.276200,0.000000,424.000000,420.000000,4.000000,34.000000,0.000000,0.000000,0.000000,0.000000,0.000000;
#CREDIT:Daff_4K;
#NOTES:
0000
0000
0000
0000
,
0000
0000
0000
0000
,
0000
0000
0000
0000
,
0000
0000
0000
0000
,
2000
0010
0010
0001
,
0001
0100
3100
0010
,
0002
0010
0010
1000
,
2003
3020
0230
0302
,
1003
0100
1000
0000
,
0001
0000
1000
0000
,
0010
0100
0010
0000
,
0001
0000
0010
0000
,
1000
0100
1000
0000
,
0001
0100
0001
0000
,
1000
0000
0100
0000
,
0010
0000
0001
0000
,
1000
0010
1000
0000
,
0001
0000
1000
0000
,
0100
0010
0100
0000
,
0001
0000
0100
0000
,
1000
0010
1000
0000
,
0001
0010
0001
0000
,
1000
0001
1000
0000
,
0100
0000
0010
0000
,
0001
0100
0001
0000
,
1000
0000
0001
0000
,
0010
0100
0010
0000
,
1000
0000
0010
0000
,
0001
0100
0001
0000
,
1000
0100
1000
0000
,
0001
0000
0100
0000
,
0010
0000
1000
0000
,
0001
0010
0001
0000
,
1000
0000
0001
0000
,
0100
0010
0100
0000
,
1000
0000
0100
0000
,
0001
0010
0001
0000
,
1000
0010
1000
0000
,
0001
0000
0110
0000
,
1000
0000
0110
0000
,
0001
0000
0100
0000
1000
0100
0000
0001
,
0000
1000
0100
1000
0000
0001
0010
0001
,
0000
1000
0100
0000
0100
0001
0000
0001
,
0010
0000
0010
1000
0000
1000
0001
0000
,
1000
0000
0100
0000
0001
0100
0000
1000
,
0000
0001
0100
0001
0000
1000
0010
1000
,
0000
0001
0100
0000
0100
1000
0000
1000
,
0010
0000
0001
0000
0100
0010
0100
0000
,
0001
0000
0100
0000
,
0010
1000
0010
0000
,
0100
0000
0001
0000
,
0010
0100
0010
0000
,
0001
0000
1000
0000
,
0100
0010
0100
0000
,
1000
0010
1000
0000
,
0001
0010
0001
0000
,
1000
0000
0100
0000
,
0010
0001
0010
0000
,
0100
0000
1000
0000
,
0010
0100
0010
0000
,
1000
0000
0001
0000
,
0100
0010
0100
0000
,
0001
0010
0001
0000
,
1000
0010
1000
0000
,
0002
0000
0103
0010
,
1000
0100
0001
0100
,
1000
1000
0001
0001
,
0100
0010
0100
0000
0001
1000
0001
0000
,
2000
0000
3100
0010
,
0001
0100
1000
0100
,
0001
0001
1000
1000
,
0100
0010
0100
0000
1000
0001
1000
0000
,
0020
0100
0100
0130
,
0001
0010
0001
0000
,
1000
0100
1000
0000
,
0001
0100
0001
0000
,
1000
0010
1000
0000
,
0100
0010
0100
0000
,
1000
0001
1000
0000
,
0020
0000
0130
0000
,
0002
0000
1003
0000
,
1000
0010
1000
0000
,
0001
0100
0001
0000
,
1000
0100
1000
0000
,
0001
0010
0001
0000
,
0100
0010
0100
0000
,
0001
1000
0001
0000
,
0020
0000
0130
0000
,
2000
0000
3001
0000
,
1000
0010
1000
0010
,
0100
0001
1000
0000
,
0100
0010
0100
0010
,
0001
1000
0010
0000
,
0100
0001
0100
0000
,
0010
1000
0010
0000
,
2000
0000
3200
0000
,
0320
0000
0031
0000
,
0001
0010
0001
0010
,
0100
1000
0001
0000
,
0100
0010
0100
0010
,
1000
0001
0010
0000
,
2002
0000
0000
3003
,
0200
0010
0010
0310
,
1000
0001
1000
0001
,
0010
0000
0100
0000
,
1000
0001
1000
0001
,
0100
0000
0010
0000
,
1000
0100
0010
0000
,
0001
0100
0010
0000
,
1000
0000
0001
0000
,
0010
0100
0010
0000
,
0001
1000
0001
1000
,
0010
0000
0100
0000
,
0001
1000
0001
1000
,
0100
0000
0010
0000
,
0001
0100
0010
0000
,
1000
0100
0010
0000
,
0001
0000
1000
0000
,
0010
0100
0010
0000
,
2000
0000
0100
0000
,
3100
0000
0010
0000
,
0002
0000
0100
0000
,
0103
0000
0010
0000
,
2000
0000
0001
0000
,
3001
0000
0010
0000
,
0200
0000
1000
0000
,
1300
0001
1000
0000
,
0002
0000
0100
0000
,
0103
0000
0010
0000
,
2000
0000
0100
0000
,
3100
0000
0010
0000
,
0002
0000
1000
0000
,
1003
0000
0010
0000
,
0200
0000
0001
0000
,
0301
1000
0001
0000
,
2000
0100
0100
0001
,
0001
0010
3010
0100
,
0002
0010
0010
1000
,
1000
0000
0100
0000
0103
0000
0010
1000
,
0002
0010
0010
1000
,
1000
0100
0103
0010
,
2000
0010
0010
0001
,
3002
0023
0230
1300
,
1001
0000
0000
0000
;

//---------------dance-single - Daff_4K----------------
#NOTEDATA:;
#CHARTNAME:Daff_4K;
#STEPSTYPE:dance-single;
#DESCRIPTION:Daff_4K;
#CHARTSTYLE:;
#DIFFICULTY:Medium;
#METER:12;
#RADARVALUES:0.655686,0.871250,0.333065,0.284324,0.032494,565.000000,524.000000,41.000000,35.000000,0.000000,0.000000,0.000000,0.000000,0.000000,0.655686,0.871250,0.333065,0.284324,0.032494,565.000000,524.000000,41.000000,35.000000,0.000000,0.000000,0.000000,0.000000,0.000000;
#CREDIT:Daff_4K;
#NOTES:
0000
0000
0000
0000
,
0000
0000
0000
0000
,
0000
0000
0000
0000
,
0000
0000
0000
0000
,
2001
0000
3010
0200
0000
0310
0002
0000
,
0013
2000
0000
3200
0000
0310
0001
1000
,
0002
0000
0013
0200
0000
0310
1000
0010
,
0001
0000
0000
1000
0000
0000
0020
0000
0000
0000
0130
0000
0001
0000
1000
0000
,
0001
0000
0010
0000
1000
0000
0000
0010
,
0000
0001
0100
0010
,
1000
0000
0100
0000
0001
0000
0000
0100
,
0000
1000
0010
0100
,
0001
0010
1000
0000
,
0001
0100
1000
0000
,
0010
1000
0100
0010
,
0001
0100
0010
1000
,
0001
0000
0100
0000
1000
0000
0000
0100
,
0000
0010
1000
0001
,
1000
0000
0010
0000
0001
0000
0000
0010
,
0000
0100
0001
1000
,
0100
1000
0010
0000
,
0100
0001
0010
0000
,
0011
0000
0101
0000
,
0110
0000
1010
0000
,
1000
0000
0010
0000
0001
0000
0000
0010
,
0000
1000
0100
0010
,
0001
0000
0100
0000
1000
0000
0000
0100
,
0000
0001
0010
0100
,
1000
0010
0001
0000
,
1000
0100
0001
0000
,
0010
0001
0100
0010
,
1000
0100
0010
0001
,
1000
0000
0100
0000
0001
0000
0000
0100
,
0000
0010
0001
1000
,
0001
0000
0010
0000
1000
0000
0000
0010
,
0000
0100
1000
0001
,
0100
0001
0010
0000
,
0100
1000
0010
0000
,
1010
0000
1100
0000
,
0110
0000
0011
0000
,
0101
0000
1010
0000
1000
0100
0000
0011
,
0000
0001
0100
1000
0000
0001
0010
1000
,
0100
0000
1001
0000
0010
0001
0000
1000
,
0010
0000
0100
0001
0000
1000
0001
0000
,
1100
0000
0011
0000
0001
0100
0000
1010
,
0000
1000
0100
0001
0000
1000
0010
0001
,
0100
0000
1001
0000
0010
1000
0000
0001
,
0010
0000
1001
0000
0100
1000
0001
0000
,
1000
0000
0011
0000
,
0001
1000
0010
0000
,
0100
0000
1001
0000
,
0010
0001
1000
0010
,
0100
0000
1010
0000
,
1000
0001
0010
0000
,
0100
1000
0010
0001
,
0010
1000
0100
0010
,
0001
0000
1010
0000
,
1000
0001
0010
0000
,
0100
0000
1001
0000
,
0010
1000
0001
0010
,
0100
0000
0011
0000
,
0001
1000
0010
0000
,
0100
0001
0010
1000
,
0010
0001
0100
0010
,
2000
0000
0000
3100
0010
0100
1000
0002
,
0000
0000
0103
0000
0010
0000
0000
1000
0000
0000
0001
0000
1000
0000
0100
0000
,
0020
0000
0000
0000
0031
0000
0000
0100
0000
0000
1000
0000
0100
0000
0010
0000
,
1000
0000
0001
0000
0010
0000
0000
0100
0000
0000
0010
0000
0001
0000
1000
0000
,
0002
0000
0000
0103
0010
0100
0001
2000
,
0000
0000
3100
0000
0010
0000
0000
0001
0000
0000
1000
0000
0001
0000
0100
0000
,
0020
0000
0000
0000
1030
0000
0000
0100
0000
0000
0001
0000
0100
0000
0010
0000
,
0001
0000
1000
0000
0010
0000
0000
0100
0000
0000
0010
0000
1000
0000
0001
0000
,
0020
0100
0130
1001
,
1000
0000
0001
0000
0010
0000
0000
0010
,
0000
0100
1000
0001
,
1000
0000
0010
0000
0100
0000
0000
0100
,
0000
0001
1000
0100
,
0010
0000
0001
0000
0100
0000
0000
0010
,
0000
0100
1000
0100
,
0001
0000
0011
0000
,
1100
0000
1001
0000
,
0001
0000
1000
0000
0010
0000
0000
0010
,
0000
0100
0001
1000
,
0001
0000
0010
0000
0100
0000
0000
0100
,
0000
1000
0001
0100
,
0010
0000
1000
0000
0100
0000
0000
0010
,
0000
0100
0001
0100
,
1000
0000
1010
0000
,
0101
0000
1001
0000
,
1000
0100
0010
0001
,
1000
0100
0010
0001
,
1000
0010
0100
0001
,
1000
0010
0100
0001
,
1000
0100
0001
0100
,
1000
0010
0001
0010
,
1000
0000
1001
0000
,
0110
0000
1001
0000
,
0001
0100
0010
1000
,
0001
0100
0010
1000
,
0001
0010
0100
1000
,
0001
0010
0100
1000
,
2002
0000
0000
3003
,
0110
1001
0110
1001
,
0001
0000
0100
0000
1000
0000
0000
0001
,
0000
0010
1000
0001
,
1000
0000
0010
0000
0001
0000
0000
1000
,
0000
0100
0001
1000
,
0100
0010
0001
0100
,
0010
1000
0001
0000
,
1000
0100
0010
0001
,
1000
0001
0100
0010
,
1000
0000
0100
0000
0001
0000
0000
1000
,
0000
0010
0001
1000
,
0001
0000
0010
0000
1000
0000
0000
0001
,
0000
0100
1000
0001
,
0100
0010
1000
0100
,
0010
0001
1000
0000
,
0001
0100
0010
1000
,
0001
1000
0100
0010
,
0001
0000
1000
0000
0020
0000
0000
0100
,
0000
0130
0001
0010
,
0001
0000
1000
0000
0200
0000
0000
0010
,
0000
0310
0001
0100
,
0010
0000
1000
0000
0200
0000
0000
0001
,
0000
0301
0100
1000
,
0001
0000
0100
0000
0020
0000
0000
1000
,
0000
1030
0001
0000
,
1000
0000
0001
0000
0020
0000
0000
0100
,
0000
0130
1000
0010
,
1000
0000
0001
0000
0200
0000
0000
0010
,
0000
0310
1000
0100
,
0010
0000
0001
0000
0200
0000
0000
1000
,
0000
1300
0100
0001
,
1000
0000
0100
0000
0020
0000
0000
0001
,
0000
0031
1000
0000
,
1002
0100
1000
0100
,
0010
0000
0100
0000
0010
0000
1003
0001
,
2000
0100
0001
0100
,
0010
0000
0100
0000
0010
0000
3001
1000
,
0002
0000
0013
0200
0000
0310
2000
0000
,
3010
0002
0000
0203
0000
0310
1000
0001
,
2000
0000
3010
0200
0000
0310
0001
0010
,
1000
0000
0000
0001
0000
0000
0020
0000
0000
0000
0130
0000
1000
0000
0001
0000
,
1001
0000
0000
0000
;

//---------------dance-single - Daff_4K----------------
#NOTEDATA:;
#CHARTNAME:Daff_4K;
#STEPSTYPE:dance-single;
#DESCRIPTION:Daff_4K;
#CHARTSTYLE:;
#DIFFICULTY:Hard;
#METER:16;
#RADARVALUES:0.839046,1.161667,0.373683,0.552401,0.117791,723.000000,677.000000,46.000000,68.000000,0.000000,0.000000,0.000000,0.000000,0.000000,0.839046,1.161667,0.373683,0.552401,0.117791,723.000000,677.000000,46.000000,68.000000,0.000000,0.000000,0.000000,0.000000,0.000000;
#CREDIT:Daff_4K;
#NOTES:
// measure 0
0000
0000
0000
0000
,  // measure 1
0000
0000
0000
0000
,  // measure 2
0000
0000
0000
0000
,  // measure 3
0000
0000
0000
0000
,  // measure 4
1000
0100
0001
0200
0000
0310
0002
0000
,  // measure 5
1003
0000
0020
0000
0000
0000
0230
0000
0000
0000
0301
0010
0001
0000
1000
0000
,  // measure 6
0001
0100
1000
0200
0000
0310
1000
0001
,  // measure 7
0011
0000
0000
1100
0000
0000
1001
0000
0001
0000
0100
0000
0010
0000
1000
0000
,  // measure 8
0001
0000
0010
0000
0100
0010
0000
0100
,  // measure 9
0000
1000
0010
0000
0001
0000
0010
0000
,  // measure 10
1000
0000
0100
0000
0010
0100
0000
0010
,  // measure 11
0000
0001
0100
0000
1000
0000
0100
0000
,  // measure 12
0001
0000
0010
0000
0100
1000
0000
0001
,  // measure 13
0000
1000
0001
0000
0100
0000
0010
0000
,  // measure 14
1000
0100
0001
1000
,  // measure 15
0010
0001
0100
0010
,  // measure 16
1000
0000
0001
0000
0010
0100
0000
0010
,  // measure 17
0000
0001
1000
0000
0010
0000
0100
0000
,  // measure 18
0001
0000
1000
0000
0100
0010
0000
0100
,  // measure 19
0000
1000
0001
0000
0100
0000
0010
0000
,  // measure 20
1000
0100
0001
0010
,  // measure 21
0001
0100
1000
0001
,  // measure 22
0100
0010
0000
0000
0010
1000
0000
0000
,  // measure 23
1000
0001
0010
0100
,  // measure 24
1000
0000
0010
0000
0100
0010
0000
0100
,  // measure 25
0000
0001
0010
0000
1000
0000
0010
0000
,  // measure 26
0001
0000
0100
0000
0010
0100
0000
0010
,  // measure 27
0000
1000
0100
0000
0001
0000
0100
0000
,  // measure 28
1000
0000
0010
0000
0100
0001
0000
1000
,  // measure 29
0000
0001
1000
0000
0100
0000
0010
0000
,  // measure 30
0001
0100
1000
0001
,  // measure 31
0010
1000
0100
0010
,  // measure 32
0001
0000
1000
0000
0010
0100
0000
0010
,  // measure 33
0000
1000
0001
0000
0010
0000
0100
0000
,  // measure 34
1000
0000
0001
0000
0100
0010
0000
0100
,  // measure 35
0000
0001
1000
0000
0100
0000
0010
0000
,  // measure 36
0001
0001
1000
1000
,  // measure 37
0010
0010
0100
0001
,  // measure 38
2002
3003
2200
3300
,  // measure 39
0022
0033
2002
3003
,  // measure 40
1010
0000
0102
0000
0013
1000
0000
0110
,  // measure 41
0000
1001
0001
0200
0000
0310
1000
1002
,  // measure 42
0000
0013
0100
0000
1001
1000
0010
0100
,  // measure 43
0002
0000
1003
0110
0000
1001
1000
0001
,  // measure 44
0011
0000
2100
0000
3010
0001
0000
0110
,  // measure 45
0000
1001
1000
0200
0000
0310
0001
2001
,  // measure 46
0000
3010
0100
0000
1001
0001
0010
0100
,  // measure 47
1100
0000
0000
0000
0011
0000
0000
0001
1000
0000
0010
0000
0100
0000
0001
0000
,  // measure 48
1000
0000
0001
0000
0202
0000
0303
0100
,  // measure 49
0010
1000
2002
3003
,  // measure 50
0001
0000
1000
0000
0100
0000
0010
0100
,  // measure 51
0010
0001
0100
1000
,  // measure 52
0100
0000
0001
0000
2002
0000
3003
1000
,  // measure 53
0100
0010
0022
0033
,  // measure 54
0001
0000
0100
0000
1000
0000
0100
0010
,  // measure 55
0100
0000
0010
0000
1000
0000
0001
1000
,  // measure 56
0001
0000
1000
0000
2200
0000
3300
0100
,  // measure 57
0010
0001
2002
3003
,  // measure 58
1000
0000
0001
0000
0100
0000
0010
0100
,  // measure 59
0010
1000
0100
0001
,  // measure 60
0100
0000
1000
0000
2002
0000
3003
0001
,  // measure 61
0100
0010
2020
3030
,  // measure 62
1000
0000
0100
0000
0001
0000
0100
0010
,  // measure 63
0100
0010
0001
1000
,  // measure 64
1002
0000
0000
0103
1000
0100
0010
0200
,  // measure 65
0000
0000
0301
0000
1000
0001
0000
1000
0000
0100
0010
0000
0100
0000
0010
0000
,  // measure 66
0002
0000
0000
0000
1003
0010
0000
1000
0000
0001
0100
0000
0001
0000
0010
0000
,  // measure 67
1000
0000
0010
0000
0001
1000
0000
0010
0000
0100
0010
0000
0100
0000
0001
0000
,  // measure 68
2000
0000
0000
3100
0001
0100
0010
0200
,  // measure 69
0000
0000
1300
0000
0001
1000
0000
0001
0000
0100
0010
0000
0100
0000
0010
0000
,  // measure 70
2000
0000
0000
0000
3001
0010
0000
0001
0000
1000
0100
0000
1000
0000
0010
0000
,  // measure 71
0001
0000
0010
0000
1000
0001
0000
0010
0000
0100
0010
0000
0100
0000
1000
0000
,  // measure 72
0020
0100
0130
1001
,  // measure 73
0001
0000
1000
0000
0100
1000
0000
0001
,  // measure 74
0000
0010
0001
0000
1000
0000
0010
0000
,  // measure 75
0001
0000
0010
0000
1000
0001
0000
1000
,  // measure 76
0000
0100
0000
0010
0100
0000
1000
0000
,  // measure 77
0001
0000
1000
0000
0010
0100
0000
0010
,  // measure 78
0000
0001
0010
0000
1000
0000
0100
0000
,  // measure 79
0010
0001
0100
1000
,  // measure 80
0001
0010
1000
0100
,  // measure 81
1000
0000
0001
0000
0100
0001
0000
1000
,  // measure 82
0000
0010
1000
0000
0001
0000
0010
0000
,  // measure 83
1000
0000
0010
0000
0001
1000
0000
0001
,  // measure 84
0000
0100
0000
0010
0100
0000
0001
0000
,  // measure 85
1000
0100
0010
0001
,  // measure 86
0100
0010
1000
0001
,  // measure 87
0022
0033
2200
3300
,  // measure 88
2020
3030
0202
0303
,  // measure 89
0001
0010
0001
0000
1000
0000
0001
0000
,  // measure 90
0100
0000
0010
0100
0010
0000
1000
0000
,  // measure 91
0100
0010
0100
0000
0001
0000
0100
0000
,  // measure 92
1000
0000
0001
0100
0001
0000
0100
0000
,  // measure 93
0010
1000
0010
0000
1000
0000
0100
0000
,  // measure 94
0001
0000
0100
1000
0100
0000
1000
0000
,  // measure 95
0001
0100
0001
0000
0100
0000
0010
1000
,  // measure 96
0010
0000
1000
0000
0001
1000
0001
0000
,  // measure 97
1000
0010
1000
0000
0001
0000
1000
0000
,  // measure 98
0100
0000
0010
0100
0010
0000
0001
0000
,  // measure 99
0100
0010
0100
0000
1000
0000
0100
0000
,  // measure 100
0001
0000
1000
0100
1000
0000
0010
0000
,  // measure 101
0220
0000
0000
0330
,  // measure 102
1002
0000
0000
0013
0200
0000
0000
1300
0020
0000
0000
0130
0001
0000
1000
0000
,  // measure 103
0001
0000
0010
0000
0100
1000
0000
0001
,  // measure 104
0000
1000
0010
0000
0001
0000
0010
0000
,  // measure 105
1000
0000
0100
0000
0010
0001
0000
1000
,  // measure 106
0000
0001
0100
0000
0010
0100
0010
0000
,  // measure 107
1000
0000
0001
0000
0010
0100
0000
0010
,  // measure 108
0000
1000
0010
0000
0001
0000
0100
0000
,  // measure 109
1000
0000
0001
0000
0010
0000
1000
0100
,  // measure 110
0000
0010
0000
0100
1000
0000
0001
0000
,  // measure 111
1000
0000
0010
0000
0100
0001
0000
1000
,  // measure 112
0000
0001
0010
0000
1000
0000
0010
0000
,  // measure 113
0001
0000
0100
0000
0010
1000
0000
0001
,  // measure 114
0000
1000
0100
0000
0010
0100
0010
0000
,  // measure 115
0001
0000
1000
0000
0010
0100
0000
0010
,  // measure 116
0000
0001
0010
0000
1000
0000
0100
0000
,  // measure 117
1000
0010
0000
0000
0010
0100
0000
0000
,  // measure 118
0100
0001
0000
0000
0001
0000
1000
0000
,  // measure 119
0001
0000
0100
0000
0201
0000
0000
0310
,  // measure 120
1000
0001
1000
0100
,  // measure 121
0010
0000
0001
0000
2001
0000
0000
3010
,  // measure 122
0001
0010
1000
0001
,  // measure 123
1000
0000
0100
0000
1200
0000
0000
0310
,  // measure 124
0001
1000
0001
0100
,  // measure 125
0010
0000
1000
0000
1002
0000
0000
0013
,  // measure 126
1000
0010
0001
1000
,  // measure 127
0001
0010
0000
0000
0010
1000
0000
0000
,  // measure 128
1000
0100
0000
0000
0100
0001
0000
0000
,  // measure 129
1000
0010
0000
0000
0010
0001
0000
0000
,  // measure 130
0001
0100
0000
0000
0100
1000
0000
0000
,  // measure 131
0001
0100
0001
0000
1000
0100
1000
0000
,  // measure 132
0010
0000
0100
0000
0001
1000
0001
0000
,  // measure 133
1000
0100
1000
0000
0001
0100
0001
0000
,  // measure 134
0010
0000
0100
0000
1000
0001
1000
0000
,  // measure 135
0001
0010
1000
0020
0000
0130
2000
0000
,  // measure 136
3001
0000
0200
0000
0000
0000
0320
0000
0000
0000
1030
0100
1000
0000
0001
0000
,  // measure 137
1000
0010
0001
0020
0000
0130
0002
0000
,  // measure 138
1003
0000
0200
0000
0000
0000
0320
0000
0000
0000
0031
0100
0001
0000
1000
0000
,  // measure 139
0001
0010
1000
0010
0001
0100
1000
0001
,  // measure 140
0010
0000
1000
0000
0100
0000
0001
0000
0100
0000
0010
0100
0010
0000
0001
0000
,  // measure 141
1000
0010
0001
0010
1000
0100
0001
0100
,  // measure 142
0110
0000
0000
1001
0000
0000
0001
0000
0100
0010
0100
0000
0010
0000
1000
0000
,  // measure 143
1001
0000
0000
0000
;

//---------------dance-single - Daff_4K----------------
#NOTEDATA:;
#CHARTNAME:Daff_4K;
#STEPSTYPE:dance-single;
#DESCRIPTION:Daff_4K;
#CHARTSTYLE:;
#DIFFICULTY:Challenge;
#METER:18;
#RADARVALUES:0.978307,1.452083,0.300571,0.601142,0.190903,843.000000,806.000000,37.000000,74.000000,0.000000,0.000000,0.000000,0.000000,0.000000,0.978307,1.452083,0.300571,0.601142,0.190903,843.000000,806.000000,37.000000,74.000000,0.000000,0.000000,0.000000,0.000000,0.000000;
#CREDIT:Daff_4K;
#NOTES:
0000
0000
0000
0000
,
0000
0000
0000
0000
,
0000
0000
0000
0000
,
0000
0000
0000
0000
,
1000
0020
0100
0130
0002
0010
0013
0200
,
1000
0000
1300
0000
0002
0000
0100
0000
0103
0000
0010
1000
0010
0000
1000
0000
,
0001
0020
0100
0130
2000
0010
3010
0100
,
0101
0000
0000
1010
0000
0000
1001
0000
0001
0000
0010
0100
0010
0000
0100
0000
,
1000
0000
0001
0000
0100
0020
0000
1000
,
0000
1030
0001
0000
0010
0000
1000
0000
,
0010
0000
0001
0000
1000
0020
0000
0100
,
0000
0130
0001
0000
0010
0000
0100
0000
,
1000
0000
0010
0000
0100
0001
0000
1000
,
0000
0001
1000
0000
0100
0000
0001
0000
,
1000
0000
0010
0000
0001
0000
0100
0001
,
0000
0100
0000
0010
1000
0010
1000
0000
,
0100
0000
0001
0000
0100
0020
0000
0001
,
0000
0031
1000
0000
0010
0000
0100
0000
,
0010
0000
0001
0000
0010
2000
0000
0100
,
0000
3100
0010
0000
0001
0000
1000
0000
,
0100
0000
0010
0000
0100
1000
0000
0001
,
0000
1000
0010
0000
0100
0000
0001
0100
,
0001
0000
1000
0100
1000
0000
0100
0010
,
0100
0000
0010
0001
1000
0001
1000
0000
,
0001
0000
1000
0000
0100
0020
0000
0001
,
0000
0031
1000
0000
0010
0000
0001
0000
,
0010
0000
1000
0000
0001
0020
0000
0100
,
0000
0130
1000
0000
0010
0000
0100
0000
,
0001
0000
0010
0000
0100
1000
0000
0001
,
0000
1000
0001
0000
0100
0000
1000
0000
,
0001
0000
0010
0000
1000
0000
0100
1000
,
0000
0100
0000
0010
0001
0010
0001
0000
,
0100
0000
1000
0000
0100
0020
0000
1000
,
0000
1030
0001
0000
0010
0000
0100
0000
,
0010
0000
1000
0000
0010
0002
0000
0100
,
0000
0103
0010
0000
1000
0000
0001
0000
,
1000
0100
1000
0000
0001
0100
0001
0000
,
1000
0010
1000
0000
0001
0010
0001
0000
,
1000
0000
0100
1000
0100
0000
0010
0001
,
0010
0000
0001
1000
0001
0000
1000
0000
,
1010
0000
0000
0100
0001
0000
1000
0000
0100
0000
0110
0000
0000
0000
1001
0000
,
0001
0100
0010
2010
0000
3100
0010
0012
,
0000
1003
0110
0000
1001
1000
0100
0001
,
1000
0000
0010
0000
0001
0000
1000
0001
1000
0000
0100
0010
0100
0000
0010
0000
,
0011
0000
0000
0100
1000
0000
0001
0000
0100
0000
0110
0000
0000
0000
1001
0000
,
1000
0100
0010
0012
0000
0103
0010
2010
,
0000
3001
0110
0000
1001
0001
0100
1000
,
0100
0000
0010
0100
0010
0000
1000
0001
1000
0000
0100
0010
0100
0000
0010
0000
,
0001
0000
1000
0000
1020
0000
0130
0001
,
0100
0000
0001
0000
2002
0000
3003
1000
,
0100
0000
0010
0000
0012
0000
1003
0001
,
1000
0000
0010
0000
0100
0001
0100
0000
,
0001
0000
1000
0000
1200
0000
0310
0001
,
0010
0000
0001
0000
2002
0000
3003
1000
,
0010
0000
0100
0000
0102
0000
1003
0001
,
1000
0000
0100
0000
0010
0001
1000
0001
,
1000
0000
0001
0000
0021
0000
0130
1000
,
0100
0000
1000
0000
2002
0000
3003
0001
,
0100
0000
0010
0000
2010
0000
3001
1000
,
0001
0000
0010
0000
0100
1000
0100
0000
,
1000
0000
0001
0000
0201
0000
0310
1000
,
0010
0000
1000
0000
2002
0000
3003
0001
,
0010
0000
0100
0000
2100
0000
3001
1000
,
0001
0000
0100
0000
0010
1000
0001
1000
,
0002
0000
0000
0000
0000
0000
0013
0100
0010
0000
1000
0000
0010
0000
0200
0000
,
0000
0000
1300
0000
0010
0100
0000
0010
0000
0001
0010
0000
1000
0000
0100
0000
,
0010
0000
0001
0000
1000
0010
0000
1000
0000
0001
1000
0000
0100
0000
0010
0000
,
0001
0000
0100
0010
0100
0010
0000
1000
0000
0001
0010
0000
0100
0010
0100
0000
,
2000
0000
0000
0000
0000
0000
3010
0100
0010
0000
0001
0000
0010
0000
0200
0000
,
0000
0000
0301
0000
0010
0100
0000
0010
0000
1000
0010
0000
0001
0000
0100
0000
,
0010
0000
1000
0000
0001
0010
0000
0001
0000
1000
0001
0000
0100
0000
0010
0100
,
0010
0000
1000
0001
1000
0000
0001
0010
0001
0010
0100
1000
0100
1000
0001
0000
,
2002
0000
0000
3003
,
1000
0000
0100
0000
0001
0200
0000
0010
,
0000
0310
0001
1000
0001
0000
0100
0000
,
0010
0000
1000
0000
0001
0020
0000
0100
,
0000
0130
1000
0001
1000
0000
0010
0000
,
0001
0000
0010
0000
1000
0200
0000
0001
,
0000
0301
0100
0000
0010
0000
0001
0000
,
1000
0000
0010
0000
0100
0002
0000
1000
,
0000
1003
0001
0010
0100
0010
0100
1000
,
0001
0000
0100
0000
1000
0200
0000
0010
,
0000
0310
1000
0001
1000
0000
0100
0000
,
0010
0000
0001
0000
1000
0020
0000
0100
,
0000
0130
0001
1000
0001
0000
1000
0000
,
0010
1000
0010
0000
0100
0001
0100
0000
,
0001
1000
0001
0000
1000
0000
0100
0000
,
0220
0330
2002
3003
,
0001
0100
0001
0000
1000
0100
1000
0000
,
0001
0010
0001
0010
0001
0000
1000
0010
,
1000
0000
0100
0010
0100
0000
1000
0000
,
0001
0100
0001
0100
0001
0000
1000
0100
,
1000
0000
0001
0100
0010
0000
1000
0000
,
0100
0010
0100
0010
0001
0000
1000
0010
,
1000
0000
0001
0100
0001
0000
1000
0000
,
0100
0010
0100
0010
0001
0000
1000
0010
,
0100
0000
0001
1000
0001
0000
0010
0100
,
1000
0010
1000
0010
1000
0000
0001
0010
,
0001
0000
0100
0010
0100
0000
0001
0000
,
1000
0100
1000
0100
1000
0000
0001
0100
,
0001
0000
1000
0100
0010
0000
0001
0000
,
2002
0000
0000
3003
,
1000
0000
0010
0100
0001
0000
0010
0100
1000
0000
0010
0100
0010
0100
0001
0000
,
1000
0000
0001
0000
0100
0020
0000
1000
,
0000
0130
0001
0000
0010
0000
1000
0000
,
0010
0000
0001
0000
1000
0020
0000
0100
,
0000
1030
0010
0000
0100
0001
0100
0000
,
0001
0000
1000
0000
0100
0001
0000
0100
,
0000
0010
0001
1000
0001
0000
1000
0000
,
0010
0000
0100
0000
0001
0000
1000
0100
,
0000
0010
0000
0100
0001
0100
1000
0000
,
0001
0000
1000
0000
0100
0020
0000
0001
,
0000
0130
1000
0000
0010
0000
0001
0000
,
0010
0000
1000
0000
0001
0020
0000
0100
,
0000
0031
0010
0000
0100
1000
0100
0000
,
1000
0000
0001
0000
0100
1000
0000
0100
,
0000
0010
1000
0001
1000
0000
0100
0010
,
0001
0000
0100
0010
1000
0000
0100
0010
,
0100
0010
0001
1000
0001
1000
0010
0000
,
0100
0000
0001
0000
1000
0200
0000
0010
,
0000
1300
0100
0000
0010
0001
0010
0000
,
0001
0000
0100
0000
0010
2000
0000
0001
,
0000
3100
0010
0000
0001
1000
0001
1000
,
0100
0000
1000
0000
0001
0200
0000
0010
,
0000
0301
0100
0000
0010
1000
0010
0000
,
1000
0000
0100
0000
0010
0002
0000
1000
,
0000
0103
0010
0000
1000
0001
1000
0000
,
0001
0010
0001
0000
1000
0010
1000
0000
,
0001
0100
0001
0000
1000
0100
1000
0000
,
0001
0010
0100
0000
1000
0010
0100
0000
,
0001
0100
0010
0000
1000
0100
0010
0001
,
1000
0010
1000
0000
0001
0010
0001
0000
,
1000
0100
1000
0000
0001
0100
0001
0000
,
1000
0010
1000
0010
0100
0001
0100
0001
,
0010
0100
0010
0100
1000
0001
1000
0001
,
0200
0000
0310
2000
0000
3001
0020
0000
,
0130
0000
2000
0000
0000
0000
3001
0000
0100
0000
0010
0100
0010
0000
1000
0000
,
0200
0000
0310
0002
0000
1003
0020
0000
,
0130
0000
0002
0000
0000
0000
1003
0000
0100
0000
0010
0001
0010
0001
1000
0000
,
0001
0020
0100
0130
2000
0010
3010
0200
,
0001
0000
0301
0000
2000
0000
0100
0000
3100
0000
0010
0001
0010
0000
0001
0000
,
1000
0020
0100
0130
0002
0010
0013
0100
,
1100
0000
0000
0011
0000
0000
1001
0000
1000
0010
0100
0010
0100
0001
1000
0000
,
1001
0000
0000
0000
;
