#TITLE:HELL SCAPER;
#SUBTITLE:;
#ARTIST:L.E.D.LIGHT-G;
#TITLETRANSLIT:;
#SUBTITLETRANSLIT:;
#ARTISTTRANSLIT:;
#GENRE:GABBAH;
#CREDIT:Skeleton made by Peterrw2001;
#MUSIC:HELL SCAPER.ogg;
#BANNER:HELL SCAPER.png;
#BACKGROUND:HELL SCAPER-bg.png;
#CDTITLE:;
#SAMPLESTART:23.998;
#SAMPLELENGTH:15.000;
#SELECTABLE:YES;
#OFFSET:1.245;
#BPMS:0.000=190.000
,144.000=195.000
,160.000=200.000
;
#STOPS:;
#BGCHANGES:;
#FGCHANGES:;

//--------------- dance-single - forcednature ----------------
#NOTES:
     dance-single:
     forcednature:
     Beginner:
     4:
     0,0,0,0,0:
0000
0000
0000
0000
,
0000
0000
0000
0000
,
0000
0000
0000
0000
,
1001
0000
0000
0000
,
1001
0000
0000
0000
,
1001
0000
0000
0000
,
0010
0000
0100
0000
,
0010
0000
0000
0000
,
0100
0000
0000
0000
,
1001
0000
0000
0000
,
1000
0000
0001
0000
,
1000
0000
0000
0000
,
0001
0000
0000
0000
,
1001
0000
0000
0000
,
0000
0000
0000
0000
,
0110
0000
0000
0000
,
1001
0000
0000
0000
,
0000
0000
0000
0000
,
1001
0000
0000
0000
,
1001
0000
0000
0000
,
1000
0000
1000
0000
,
0001
0000
0000
0000
,
0100
0000
0100
0000
,
0010
0000
0000
0000
,
0001
0000
0001
0000
,
1000
0000
0000
0000
,
0010
0000
0010
0000
,
0100
0000
0000
0000
,
0110
0000
0000
0000
,
0001
0000
1000
0000
,
0001
0000
0000
0000
,
0100
0000
0010
0000
,
0100
0000
0000
0000
,
1000
0000
0001
0001
,
0001
0000
0000
0000
,
0100
0000
0000
0000
,
1000
0000
0001
0000
,
1000
0000
0001
0000
,
0100
0000
0010
0000
,
0100
0000
0010
0000
,
1000
0000
0001
0000
,
1000
0000
0001
0000
,
0100
0000
0100
0000
,
0100
0100
0100
0100
,
0010
0000
0010
0000
,
1000
0000
0001
0000
,
0010
0000
0100
0000
,
0010
0000
0000
0000
,
0100
0000
0000
0000
,
0010
0000
0010
0000
,
0010
0000
0000
0000
,
0100
0000
0100
0000
,
1001
0000
0100
0000
,
1001
0000
0000
0000
,
1000
0000
0010
0000
,
1000
0000
0000
0000
,
0001
0000
0100
0000
,
0001
0000
0000
0000
,
0010
0000
0100
0000
,
0010
0000
0100
0000
,
0010
0000
0100
0000
,
0010
0000
0000
0000
,
0001
0000
0001
0000
,
1001
0000
0000
0000
,
1000
0000
1000
0000
,
1001
0000
0000
0000
,
0010
0000
0010
0000
,
0110
0000
0000
0000
,
0100
0000
0100
0000
,
0110
0000
0000
0000
,
1001
0000
0000
0000
,
0000
0000
0000
0000
,
0000
0000
0000
0000
,
0000
0000
0000
0000
,
1001
0000
0000
0000
;

//--------------- dance-single - forcednature ----------------
#NOTES:
     dance-single:
     forcednature:
     Easy:
     9:
     0,0,0,0,0:
0000
0000
0000
0000
,
0000
0000
0000
0000
,
0000
0000
0000
0000
,
1001
0000
0000
0000
,
0220
0000
0330
0000
,
1000
0001
0100
0001
,
1000
0010
1000
0100
,
0010
0001
0100
0001
,
1000
1000
0001
0001
,
1001
0001
0100
0010
,
1000
0100
0010
0001
,
0100
0100
0010
0010
,
1000
0100
0010
0001
,
0110
0000
0000
0000
,
0000
0000
0000
0000
,
2002
0000
0000
3003
,
1001
0000
0000
0000
0000
0000
0000
0000
0000
0100
0000
0000
0100
0000
0000
0000
,
0010
0000
0000
0000
,
1001
0000
0000
0000
0000
0000
0000
0000
0000
0100
0000
0000
0100
0000
0000
0000
,
0010
0000
0000
0000
,
1001
0000
0001
0000
0100
0010
0100
0000
,
0001
1000
0100
0010
,
0001
0000
0100
0000
0010
1000
0010
0000
,
1000
0100
0010
0001
,
0110
0000
0001
0000
1000
0100
1000
0000
,
0001
0100
0010
1000
,
0100
0000
0010
0000
0001
0100
0001
0000
,
1001
0000
0000
0000
,
0001
0100
0010
1000
,
0100
0010
0001
0001
,
1001
1000
0010
1000
,
0100
0010
0100
0100
,
0110
0010
0001
0100
,
0001
0000
0000
0000
0010
0000
0000
0000
0001
0000
0000
1000
0000
0000
0001
0000
,
0100
0010
1000
0001
,
0200
0000
0300
0000
,
0010
1000
0001
0100
,
0001
0000
0000
0000
1000
0000
0000
0000
0100
0000
0000
0010
0000
0000
0100
0000
,
1000
0001
0100
0001
,
1000
0000
0010
0000
1000
0001
1000
0000
,
0100
0010
0001
0100
,
0010
0000
0000
0000
1000
0000
0000
0000
0001
0000
0000
0010
0000
0000
0001
0000
,
0100
0000
0010
0000
,
1000
0100
0010
0001
,
0100
0010
0100
0010
,
1000
1000
0001
0001
,
0010
0010
0100
0100
,
0100
0000
0000
0000
,
1000
0000
0001
0000
1000
0000
0000
0001
,
0000
1000
0000
0000
0001
0000
1000
0000
,
0001
0000
0100
0000
0010
0000
0100
0010
,
0000
0100
0000
0010
0100
0000
0010
0000
,
0100
0000
0010
0000
,
2002
0000
3003
0000
,
1000
0000
0100
0000
1000
0010
1000
0000
,
0100
0010
0001
0100
,
0010
0000
1000
0000
0001
0010
0001
0000
,
0100
0010
1000
0001
,
0110
0000
1000
0000
0001
0100
0001
0000
,
1000
0100
0010
0001
,
0100
0000
0010
0000
1000
0100
1000
0000
,
0010
0000
0200
0300
,
1001
0000
0001
0000
1000
0100
1000
0000
,
1010
0100
0011
0100
,
1001
0000
0001
0000
0010
0100
0010
0000
,
0101
0010
1100
0010
,
1001
0000
0010
0000
0100
0010
0100
0000
,
0101
1000
1100
0001
,
1001
0000
0010
0000
0100
0010
0100
0000
,
1001
0100
1001
0100
,
1001
0000
0000
0000
,
0000
0000
0000
0000
,
0000
0000
0000
0000
,
0000
0000
0000
0000
,
1001
0000
0000
0000
;

//--------------- dance-single - forcednature ----------------
#NOTES:
     dance-single:
     forcednature:
     Medium:
     11:
     0,0,0,0,0:
0000
0000
0000
0000
,
0000
0000
0000
0000
,
0000
0000
0000
0000
,
0110
0000
0000
0000
,
2002
0000
3003
0000
,
0001
0100
0001
0000
1000
0000
0010
0000
,
1000
0000
0100
0000
1000
0000
0000
0000
0010
0000
0000
0100
0000
0000
0001
0000
,
0010
0001
0010
0000
0100
0000
1000
0000
,
0001
0000
0100
0010
0000
0100
0010
0000
,
0001
1000
0001
0000
0100
0000
0010
0000
,
1000
0000
0100
0000
1000
0000
0000
0000
0001
0000
0000
0010
0000
0000
0100
0000
,
1000
0001
1000
0000
0010
0000
0100
0000
,
0001
0000
0010
0100
0000
1000
0001
0000
,
2002
0000
0000
0000
,
0000
0000
3003
0000
,
0220
0000
0330
0000
,
1002
0000
0000
0000
0000
0000
0000
0000
0000
0100
0000
0000
0100
0000
0000
0000
,
1003
0000
0000
0000
,
2001
0000
0000
0000
0000
0000
0000
0000
0000
0100
0000
0000
0100
0000
0000
0000
,
3001
0000
0000
0000
,
0001
0000
0100
0000
0010
0100
0001
1000
,
0100
0000
1000
0000
0001
0010
0001
1000
,
0001
0000
1000
0000
0100
1000
0010
0000
,
0100
0000
0001
0000
1000
0010
1000
0001
,
0100
0000
0010
0000
1000
0100
0010
0100
,
1000
0000
0001
0000
0100
0001
0010
0001
,
0100
0000
0010
0000
1000
0010
0100
0001
,
0200
0000
0000
0300
,
0000
0010
0000
1000
0000
0001
0010
0001
,
0000
0100
0000
0010
1000
0001
1000
0001
,
0000
0100
0000
0001
0000
0010
0100
1000
,
0000
0010
0000
0100
0000
0001
0100
0001
,
0000
1000
0000
0100
0000
1000
0010
0100
,
0000
0000
0001
0000
0000
0000
1000
0000
0010
0000
0000
0010
0000
0000
0010
0000
,
0000
0100
0000
0001
0000
0010
0000
0100
,
0000
1000
0000
0001
0000
1000
0010
0100
,
0000
0001
0000
0010
0000
0001
0000
0100
,
0000
0000
0010
0000
0000
0000
1000
0000
0100
0000
0000
0100
0000
0000
0100
0000
,
0000
0010
0000
0001
0000
0100
0000
0001
,
0000
1000
0000
0010
0000
1000
0001
1000
,
0000
0100
0000
0010
0000
0001
0000
0100
,
0000
0000
0010
0000
0000
0000
1000
0000
0001
0000
0000
0001
0000
0000
0001
0000
,
0020
0030
0200
0300
,
0020
0230
2300
3002
,
0103
0001
0100
0000
0001
1000
0001
0000
,
1000
0100
0000
0010
0000
0001
0000
0100
,
0000
1000
0000
0100
0000
0001
0000
0100
,
0010
0000
0000
0000
,
1000
0001
1000
0001
1000
0000
0000
0001
,
0000
0100
0000
0001
0100
0001
0100
0001
,
1000
0010
1000
0010
1000
0000
0001
0010
,
0000
0001
0000
1000
0100
1000
0100
1000
,
0100
0000
0010
0000
,
2002
0000
3003
0000
,
0001
0000
1000
0000
0100
0010
0001
1000
,
0010
0000
0100
0000
0001
0010
0001
0100
,
0010
0000
1000
0000
0100
0010
0001
0000
,
0100
0000
0010
0000
1000
0001
0010
0100
,
1000
0000
0001
0000
0110
0000
1000
0001
,
1000
0001
1000
0000
0110
0000
0001
0000
,
1100
1000
0101
0001
,
1001
0000
0200
0300
,
0110
0000
0001
0000
1000
0010
0100
0000
,
0101
1100
0110
1001
,
0110
0000
1000
0000
0100
0010
0001
0000
,
0011
1010
0110
1001
,
0110
0000
1000
0000
0001
0100
0010
0000
,
1010
1001
0011
1001
,
0110
0000
0001
0000
1000
0100
0010
0000
,
0001
1000
0001
1000
0001
1000
0001
1000
,
0001
0000
0000
0000
,
0000
0000
0000
0000
,
0000
0000
0000
0000
,
0000
0000
0000
0000
,
1001
0000
0000
0000
;

//--------------- dance-single - forcednature ----------------
#NOTES:
     dance-single:
     forcednature:
     Hard:
     14:
     0,0,0,0,0:
0000
0000
0000
0000
,
0000
0000
0000
0000
,
0000
0000
0000
0000
,
1001
0000
0000
0000
,
1100
0000
0101
0000
,
1001
0001
0100
0010
,
1000
0000
0100
0000
0010
0000
0000
0000
0100
0000
0000
1000
0001
0000
0100
0000
,
0010
0100
1000
0100
,
0001
0000
0010
0000
0100
1000
0100
1100
,
1001
0001
1000
0010
0100
0001
0100
0010
,
1000
0100
0010
0100
1000
0001
0100
0110
,
0010
1000
0001
1000
0100
0010
0001
0100
,
0010
1000
0001
1000
0100
1100
1000
1001
,
0202
0000
0000
0000
,
0000
0000
0000
0000
,
0303
0000
0000
0000
,
1000
0000
0001
0000
1000
0000
0001
0000
1000
0010
0000
1000
0010
0000
1000
0000
,
0100
0000
0000
0000
,
0001
0000
1000
0000
0001
0000
1000
0000
0001
0010
0000
0001
0010
0000
0001
0000
,
0100
0000
0000
0000
,
0001
0000
0100
0000
0001
0000
0100
0000
0010
1000
0000
0010
1000
0000
0001
0000
,
1000
0000
0100
0000
0010
0000
0001
0000
0000
0100
0000
0000
0001
0000
0000
0000
,
1000
0000
0100
0000
1000
0000
0100
0000
0010
0001
0000
0010
0001
0000
0100
0000
,
0010
0000
1000
0000
0001
0000
1000
0000
0000
0100
0000
0000
1000
0000
0000
0000
,
0010
0000
0100
0000
0010
0000
0100
0000
0001
1000
0000
0001
1000
0000
0100
0000
,
0010
0000
1000
0000
0010
0000
0001
0000
0000
1000
0000
0000
0001
0000
0000
0000
,
1000
0000
0100
0000
1000
0000
0100
0000
0010
0001
0000
0010
0001
0000
0100
0000
,
1001
0000
0000
0000
,
1001
0001
0010
0100
1000
0001
0010
0100
,
1000
0100
0010
0100
1000
0010
0001
0010
,
0100
0001
1000
0010
0100
0001
1000
0010
,
0100
0001
1000
0100
0010
1000
0010
0001
,
0100
0010
1000
0001
0100
0010
1000
0001
,
0010
0000
0100
0000
1000
0000
0001
0000
0101
0000
0000
1001
0000
0000
1010
0000
,
1000
0001
0010
0100
1000
0001
0010
0100
,
1000
0001
0100
0010
1000
0001
0100
1000
,
0100
0010
1000
0001
0010
0100
1000
0001
,
0100
0000
0010
0000
1000
0000
0001
0000
0011
0000
0000
0110
0000
0000
1100
0000
,
1000
0100
0010
0001
0100
0010
1000
0010
,
0100
0001
0100
0010
0001
0010
1000
0100
,
0010
0001
1000
0010
0100
0001
1000
0100
,
0010
0000
0001
0000
0010
0000
0100
0000
1100
0000
0000
1001
0000
0000
0101
0000
,
1001
1000
0000
0100
0001
0100
0000
0010
,
1000
0010
0001
0100
0001
0101
1000
1100
,
1000
1000
0001
0000
0001
0001
1000
0000
,
0001
0000
0100
0010
0100
0000
0001
0000
1000
0000
0100
0000
0010
0000
0000
0000
,
0001
0001
0100
0000
1000
1000
0100
0000
,
1001
0000
0000
0000
0001
0000
0000
0000
0000
0000
0000
0000
1000
0000
0001
1000
,
0001
0100
1000
0100
0001
0000
0000
0110
,
0000
1001
0000
1000
0100
0001
0100
1000
,
0010
0001
0010
1000
0100
0000
0010
0001
,
0000
0110
0000
1000
0010
0001
0010
0100
,
0110
0000
1001
0000
,
1001
0001
1000
0001
1000
0010
0100
0000
,
0001
0000
0010
0000
0001
0000
0100
0000
0010
1000
0000
0100
1000
0000
0010
0000
,
0100
0000
0001
0000
0100
0000
0010
0000
0000
1000
0000
0000
0001
0000
0000
0000
,
1000
0000
0100
0000
0010
0000
0100
0000
1000
0001
0000
0100
0001
0000
1000
0000
,
0010
0000
0100
0000
0001
0000
0100
0000
0000
0010
0000
0000
1000
0000
0000
0000
,
0001
0000
0010
0000
1000
0000
0010
0000
0100
0010
0000
0100
1000
0000
0010
0000
,
1000
0000
0001
0000
0100
0000
0010
0000
0000
0001
0000
0000
0010
0000
0000
0000
,
1000
0000
0100
0000
0010
0000
0001
0000
0100
0010
0000
0100
0010
0000
1000
0000
,
0001
0000
1000
0000
0010
0000
0100
0000
0000
0001
0000
0000
0100
0000
0000
0000
,
0010
0000
1000
0000
0001
0000
1000
0000
0100
0010
0000
0001
1000
0000
0010
0000
,
0100
0000
0010
0000
1000
0000
0001
0000
0000
0010
0100
0000
1000
0000
0000
0000
,
0010
0000
1000
0000
0001
0000
0010
0000
0100
0010
0000
0001
1000
0000
0010
0000
,
0100
0000
1000
0000
0100
0000
0001
0000
0000
0010
0100
0000
1000
0000
0000
0000
,
0010
0000
1000
0000
0001
0000
0010
0000
0100
0001
0000
0100
0010
0000
0001
0000
,
1000
0000
0010
0000
0100
0000
0001
0000
0000
0100
1000
0000
0100
0000
0000
0000
,
0001
0000
0010
0000
1000
0000
0010
0000
0100
0010
0000
0001
1000
0000
0010
0000
,
0200
0000
0000
0300
,
1001
0000
0000
0000
,
0000
0000
0000
0000
,
0000
0000
0000
0000
,
0000
0000
0000
0000
,
1001
0000
0000
0000
;

//--------------- dance-single - forcednature ----------------
#NOTES:
     dance-single:
     forcednature:
     Challenge:
     15:
     0,0,0,0,0:
0000
0000
0000
0000
,
0000
0000
0000
0000
,
0000
0000
0000
0000
,
1001
0000
0000
0000
,
0220
0000
0330
0000
,
0001
0100
0001
0010
0100
0000
1000
0000
,
0010
0000
1000
0000
0001
0000
0100
0000
0001
0000
0000
1000
0000
0000
0100
0000
,
0001
0100
1000
0010
1000
0000
0001
0000
,
0110
0000
0001
1000
0000
0100
0010
0100
,
1000
0010
0100
0010
1000
0000
0001
0000
,
0010
0000
0100
0000
1000
0000
0001
0000
0100
0000
0000
0010
0000
0000
0001
0000
,
0010
1000
0100
0010
0001
0000
0100
0000
,
0110
0000
0001
1000
0000
0100
0010
0000
,
2002
0000
0000
0000
,
0000
0000
0000
3003
,
2002
3003
0220
0330
,
1000
0000
0100
0000
0001
0000
0100
0000
0000
0010
0000
0000
0100
0000
0000
0000
,
1001
0000
0000
0000
,
0001
0000
0100
0000
1000
0000
0100
0000
0000
0010
0000
0000
0100
0000
0000
0000
,
2002
0000
0000
0000
0000
0000
0000
0000
3003
0000
0000
0000
0001
1000
0001
1000
,
0001
0000
0100
0001
0100
0000
0010
0000
1000
0001
0000
1000
0001
0000
1000
0000
,
0100
0000
1000
0000
0010
0000
0100
0000
0001
0100
0001
0000
1000
0000
0010
0000
,
0100
0000
0001
1000
0001
0000
0010
0000
0100
1000
0000
0100
1000
0000
0010
0000
,
0100
0000
0001
0000
1000
0000
0010
0000
1000
0001
1000
0000
0001
0100
0001
0000
,
0010
0000
0100
1000
0100
0000
0010
0000
0001
0100
0000
0001
0100
0000
0010
0000
,
1000
0000
0001
0000
0010
0000
0001
0000
0100
0010
0100
0000
0001
0000
1000
0000
,
0001
0000
0010
0100
0010
0000
0001
0000
1000
0100
0000
1000
0100
0000
0010
0000
,
2002
0000
0000
0000
0000
0000
0000
0000
3003
0000
0000
0000
0001
1000
0001
1000
,
0001
0010
0000
0110
0000
1000
0001
0100
,
0000
0110
0000
0001
0100
1000
0100
0001
,
0000
0110
0000
1001
0000
1000
0100
0001
,
0000
0110
0000
1001
0000
0010
1000
0100
,
0000
0110
0000
1001
0000
0010
0001
0100
,
0000
0000
0101
0000
0000
0000
1000
0000
0100
0000
0000
0001
0000
0000
0100
0000
,
0000
0110
0000
1001
0000
0010
0000
1000
,
0000
0110
0000
1001
0000
0001
0100
0010
,
0100
1000
0100
0001
0100
0010
1000
0001
,
1000
0000
0100
0000
0010
0000
0001
0000
0100
0000
0000
0010
0000
0000
1000
0000
,
0001
0010
1000
0010
0100
1000
0001
1000
,
0010
0100
0001
0100
1000
0100
0010
0100
,
0001
1000
0100
0001
0100
1000
0001
0100
,
1000
0000
0100
0000
0010
0000
1000
0000
0001
0000
0000
0010
0000
0000
0100
0000
,
1100
0001
0101
1000
,
1001
0110
0110
1001
,
0001
0100
0001
0000
1000
0100
1000
0000
,
0010
0000
0100
0001
0100
0000
0010
0000
0100
0000
1000
0000
0100
0000
0001
0000
,
0010
0000
1000
0000
0010
0000
0100
0000
0010
0000
0001
0000
1000
0001
1000
0001
,
0200
0000
0000
0000
0010
0000
0000
0000
0310
0000
0000
0000
0100
0000
0001
0100
,
0001
0010
1000
0010
0100
0000
0000
0110
,
0000
1001
0000
1000
0010
0001
0010
0100
,
1000
0100
0001
0010
1000
0000
0010
0100
,
0000
1001
0000
1000
0100
0001
0100
0010
,
0011
0000
1100
0000
,
0001
0000
1000
0000
0001
0000
1000
0000
0001
1000
0001
1000
0001
1000
0001
0000
,
1000
0000
0001
0010
0001
0000
0100
0000
0010
1000
0000
0010
0100
0000
0001
0000
,
0010
0000
1000
0000
0010
0000
0100
0000
1000
0001
1000
0000
0010
0000
0100
0000
,
0001
0000
1000
0100
1000
0000
0010
0000
0100
0001
0000
0100
0010
0000
1000
0000
,
0100
0000
0010
0001
0010
0000
0100
0000
1000
0001
1000
0000
0001
0100
0001
0000
,
0010
0000
0100
1000
0100
0000
0010
0000
0001
1000
0000
0010
1000
0000
0100
0000
,
0010
0000
0001
0100
0001
0000
1000
0000
0100
0010
0100
0000
1000
0000
0001
0000
,
0100
0000
0010
1000
0010
0000
0100
0000
0001
0010
0000
0001
0100
0000
0010
0000
,
1000
0000
0001
0000
0000
0000
0000
0000
1000
0001
1000
0001
1000
0001
1000
0000
,
0001
0000
0100
0010
0100
0000
0001
0000
1000
0100
0000
1000
0001
0000
0100
0000
,
0010
0100
0010
0000
1000
0000
0001
0010
0001
0000
1000
0010
1000
0010
1000
0000
,
0001
0000
1000
0100
1000
0000
0010
0000
1000
0001
0000
0100
0001
0000
0010
0000
,
0100
1000
0100
0000
0010
0000
0001
1000
0001
0000
0100
0001
0100
0001
0100
0000
,
0010
0000
1000
0001
1000
0000
0100
0000
0010
0001
0000
0010
0100
0000
1000
0000
,
0010
0100
0010
0000
1000
0000
0001
0010
0001
0000
0100
0010
0100
0010
0100
0000
,
0001
0000
1000
0010
1000
0000
0001
0000
0010
0100
0000
1000
0100
0000
1000
0000
,
0001
1000
0001
1000
0001
1000
0001
1000
0001
1000
0001
1000
0001
1000
0001
1000
,
0001
0000
0000
0000
,
0000
0000
0000
0000
,
0000
0000
0000
0000
,
0000
0000
0000
0000
,
1001
0000
0000
0000
;

//--------------- dance-double - forcednature ----------------
#NOTES:
     dance-double:
     forcednature:
     Easy:
     9:
     0,0,0,0,0:
00000000
00000000
00000000
00000000
,
00000000
00000000
00000000
00000000
,
00000000
00000000
00000000
00000000
,
00011000
00000000
00000000
00000000
,
00022000
00000000
00033000
00000000
,
00000100
00001000
00000010
00001000
,
00000100
00000010
00000001
00000100
,
00001000
00010000
01000000
10000000
,
00100000
10000000
00010000
10000000
,
01000000
00100000
00010000
01000000
,
00001000
00010000
00000100
00001000
,
00000001
00000100
00000010
00001000
,
00000100
00010000
00001000
00010000
,
00011000
00000000
00000000
00000000
,
00000000
00000000
00000000
00000000
,
00022000
00000000
00033000
00000000
,
00011000
00000000
00000000
00000000
00000000
00000000
00000000
00000000
00000000
00001000
00000000
00000000
01000000
00000000
00000000
00000000
,
00001000
00000000
00000000
00000000
,
00011000
00000000
00000000
00000000
00000000
00000000
00000000
00000000
00000000
00010000
00000000
00000000
00000100
00000000
00000000
00000000
,
00010000
00000000
00000000
00000000
,
00011000
00000000
00010000
00000000
00000100
00001000
00000100
00000000
,
00000010
00000001
00000100
00000010
,
00001000
00000000
00000100
00000000
00010000
00001000
00010000
00000000
,
00100000
01000000
00010000
10000000
,
01000000
00000000
00100000
00000000
00010000
01000000
00010000
00000000
,
00100000
00001000
00010000
00000010
,
00001000
00000000
00000100
00000000
00010000
00001000
00010000
00000000
,
00011000
00000000
00000000
00000000
,
00000100
00001000
00000010
00001000
,
00000100
00000000
00000010
00000000
00000001
00001000
00000001
00000000
,
00000100
00001000
00010000
01000000
,
10000000
00000000
00010000
00000000
10000000
00100000
10000000
00000000
,
01000000
00100000
00010000
01000000
,
00001000
00000000
00000000
00000000
00010000
00000000
00000000
00000000
00000100
00000000
00000000
00001000
00000000
00000000
00000100
00000000
,
00001000
00000001
00000100
00000010
,
00020000
00000000
00030000
00000000
,
00100000
10000000
01000000
00100000
,
00010000
00000000
00000000
00000000
01000000
00000000
00000000
00000000
00001000
00000000
00000000
00010000
00000000
00000000
00001000
00000000
,
00010000
00000100
00001000
00000001
,
00000100
00000000
00000010
00000000
00001000
00000001
00001000
00000000
,
00000100
00000010
00000100
00010000
,
00001000
00000000
00000000
00000000
01000000
00000000
00000000
00000000
00001000
00000000
00000000
00010000
00000000
00000000
00001000
00000000
,
00010000
00000000
00001000
00000000
,
00010000
00100000
10000000
01000000
,
00100000
01000000
00100000
00010000
,
01000000
01000000
00001000
00001000
,
00010000
00010000
00000100
00000100
,
00000110
00000000
00000000
00000000
,
00000100
00000000
00010000
00000000
00001000
00000000
00000000
01000000
,
00000000
00001000
00000000
00000000
00010000
00000000
00000100
00000000
,
00010000
00000000
00001000
00000000
00100000
00000000
00000000
00001000
,
00000000
00010000
00000000
00000000
00000010
00000000
00010000
00000000
,
00011000
00000000
00011000
00000000
,
00022000
00000000
00033000
00000000
,
00001000
00000000
00010000
00000000
01000000
00100000
01000000
00000000
,
10000000
00100000
10000000
00010000
,
01000000
00000000
00100000
00000000
00010000
00001000
00010000
00000000
,
00000100
00001000
00000001
00000100
,
00000010
00000000
00001000
00000000
00000100
00000010
00000100
00000000
,
00001000
00000001
00000100
00001000
,
00010000
00000000
00000100
00000000
00010000
00001000
00010000
00000000
,
00001000
00000000
00020000
00030000
,
00011000
00000000
00001000
00000000
00100000
00010000
00100000
00000000
,
01100000
10000000
01100000
00010000
,
01100000
00000000
00100000
00000000
00001000
01000000
00001000
00000000
,
00011000
01000000
00011000
00000100
,
00011000
00000000
00000100
00000000
00001000
00000010
00001000
00000000
,
00000110
00000001
00000110
00001000
,
00000110
00000000
00000010
00000000
00010000
00000100
00010000
00000000
,
00011000
00001000
00011000
00010000
,
00011000
00000000
00000000
00000000
,
00000000
00000000
00000000
00000000
,
00000000
00000000
00000000
00000000
,
00000000
00000000
00000000
00000000
,
00011000
00000000
00000000
00000000
;

//--------------- dance-double - forcednature ----------------
#NOTES:
     dance-double:
     forcednature:
     Medium:
     11:
     0,0,0,0,0:
00000000
00000000
00000000
00000000
,
00000000
00000000
00000000
00000000
,
00000000
00000000
00000000
00000000
,
00011000
00000000
00000000
00000000
,
00022000
00000000
00033000
00000000
,
00001000
00100000
00010000
00000000
01000000
00000000
00100000
00000000
,
10000000
00000000
01000000
00000000
00100000
00000000
00000000
00000000
01000000
00000000
00000000
10000000
00000000
00000000
00010000
00000000
,
01000000
00001000
00010000
00000000
00000100
00000000
00001000
00000000
,
00000110
00000000
00000001
00001000
00000000
00000100
00000010
00000000
,
00000001
00000100
00000001
00000000
00000010
00000000
00000100
00000000
,
00010000
00000000
00001000
00000000
00100000
00000000
00000000
00000000
00001000
00000000
00000000
00010000
00000000
00000000
00000010
00000000
,
00001000
00000100
00001000
00000000
00000001
00000000
00000100
00000000
,
00011000
00000000
00100000
00010000
00000000
01000000
10000000
00000000
,
02200000
00000000
00000000
00000000
,
00000000
00000000
03300000
00000000
,
00022000
00000000
00033000
00000000
,
00021000
00000000
00000000
00000000
00000000
00000000
00000000
00000000
00000000
00000100
00000000
00000000
00001000
00000000
00000000
00000000
,
00030010
00000000
00000000
00000000
,
00012000
00000000
00000000
00000000
00000000
00000000
00000000
00000000
00000000
01000000
00000000
00000000
00010000
00000000
00000000
00000000
,
00103000
00000000
00000000
00000000
,
00011000
00000000
00000100
00000000
00001000
00000001
00000100
00000000
,
00000010
00001000
00000100
00000000
00000010
00000001
00000100
00000000
,
00000010
00000000
00010000
00000000
00001000
00100000
00010000
00000000
,
01000000
10000000
01000000
00000000
00010000
00100000
00001000
00000000
,
00011000
00000000
00010000
00000000
00000100
00001000
00000010
00000000
,
00000100
00001000
00010000
00000000
00000100
00000010
00000001
00000000
,
00000100
00000000
00000010
00000000
00000100
00001000
00010000
00000000
,
00022000
00000000
00000000
00033000
,
00000000
00001000
00000000
00010000
00000000
01000000
10000000
01000000
,
00000000
00100000
00000000
00001000
00000100
00000010
00001000
00000001
,
00000000
00000010
00000000
00000100
00000000
00010000
00001000
00100000
,
00000000
00001000
00000000
00010000
00000000
01000000
10000000
00100000
,
00000000
01000000
00000000
00001000
00000000
00000010
00000100
00000010
,
00000000
00000000
00000001
00000000
00000000
00000000
00000100
00000000
00001000
00000000
00000000
00001000
00000000
00000000
00001000
00000000
,
00000000
00010000
00000000
01000000
00000000
00100000
00000000
00010000
,
00000000
10000000
00000000
00100000
00000000
00010000
00001000
00010000
,
00000000
00000100
00000000
00000010
00000000
00000001
00000000
00000100
,
00000000
00000000
00010000
00000000
00000000
00000000
00100000
00000000
01000000
00000000
00000000
01000000
00000000
00000000
01000000
00000000
,
00000000
10000000
00000000
00010000
00000000
01000000
00000000
00001000
,
00000000
00010000
00000000
00000100
00000000
00000010
00000001
00000010
,
00000000
00000001
00000000
00000100
00000000
00001000
00000000
01000000
,
00000000
00000000
00010000
00000000
00000000
00000000
00100000
00000000
00001000
00000000
00000000
00001000
00000000
00000000
00001000
00000000
,
00010000
00000000
00011000
00000000
,
00000100
00000010
00000001
00000100
,
00000010
00001000
00000010
00000000
00010000
00001000
00010000
00000000
,
00000000
00100000
00000000
01000000
00000000
00010000
00000000
10000000
,
00000000
01000000
00000000
00010000
00000000
00001000
00000000
00000100
,
00000002
00000000
00000003
00000000
,
00000001
00000100
00000001
00000100
00000001
00000000
00000000
00001000
,
00000000
00000100
00000000
00010000
00001000
00010000
00001000
00010000
,
00001000
00100000
00001000
00100000
00001000
00000000
00100000
00010000
,
00000000
00100000
00000000
01000000
10000000
01000000
10000000
01000000
,
10000000
00000000
10010000
00000000
,
02200000
00000000
00000000
03300000
,
10010000
00000000
00010000
00000000
01000000
00001000
00010000
00000000
,
00000100
00001000
00000010
00000000
00001000
00000100
00000010
00000000
,
00000001
00000000
00000100
00000000
00000001
00000010
00000100
00000000
,
00001000
00000010
00000100
00000000
00000001
00001000
00000100
00000000
,
00010000
00000000
00001000
00000000
00100000
00001000
00010000
00000000
,
00100000
01000000
00010000
00000000
10000000
01000000
00100000
00000000
,
01000000
00000000
10000000
00000000
00010000
01000000
00001000
00000000
,
00022000
00000000
00033000
00000000
,
00011000
00000000
00000100
00000000
00001000
00000010
00000100
00000000
,
00000101
00001100
00011000
00010100
,
00011000
00000000
00001000
00000000
00100000
00010000
01000000
00000000
,
01010000
11000000
01100000
10010000
,
11000000
00000000
00100000
00000000
00010000
01000000
00001000
00000000
,
00011000
00010100
00000110
00001001
,
00000101
00000000
00000001
00000000
00001000
00000100
00010000
00000000
,
00001000
00010000
00001000
00010000
00001000
00010000
00001000
00010000
,
00001000
00000000
00000000
00000000
,
00000000
00000000
00000000
00000000
,
00000000
00000000
00000000
00000000
,
00000000
00000000
00000000
00000000
,
00011000
00000000
00000000
00000000
;

//--------------- dance-double - forcednature ----------------
#NOTES:
     dance-double:
     forcednature:
     Hard:
     14:
     0,0,0,0,0:
00000000
00000000
00000000
00000000
,
00000000
00000000
00000000
00000000
,
00000000
00000000
00000000
00000000
,
00011000
00000000
00000000
00000000
,
00011000
00000000
00000000
00000000
,
00100000
00010000
01000000
00000000
00100000
10000000
01000000
00000000
,
00100000
00010000
01000000
00001000
00010000
00000100
00001000
00000000
,
00000010
00001000
00000100
00000000
00000010
00000001
00000100
00000000
,
00000110
00000000
00000001
00001000
00000000
00000001
00001000
00000000
,
00000001
00000100
00000001
00000010
00000100
00001000
00000010
00000000
,
00010000
00001000
00100000
00001000
00010000
01000000
00100000
00000000
,
01000000
10000000
00100000
00010000
00001000
00000010
00000100
00000000
,
00001000
00000001
00000100
00000010
00001000
00000100
00000001
00000000
,
00000220
00000000
00000000
00000000
,
00000000
00000000
00000330
00000000
,
00022000
00000000
00000000
00033000
,
00001000
00000000
00010000
00000000
00001000
00000000
00100000
00000000
00010000
10000000
00000000
00010000
10000000
00000000
00100000
00000000
,
00010000
00000000
00000000
00000000
,
00001000
00000000
00000010
00000000
00000100
00000000
00000010
00000000
00000001
00001000
00000000
00000010
00001000
00000000
00000100
00000000
,
00010000
00000000
00000000
00000000
,
00001000
00000000
00010000
00000000
00100000
00000000
01000000
00000000
00010000
10000000
00000000
01000000
10000000
00000000
00100000
00000000
,
00010000
00000000
00001000
00000000
00000010
00000000
00000100
00000000
00000000
00001000
00000000
00000000
00000001
00000000
00000000
00000000
,
00000100
00000000
00001000
00000000
00010000
00000000
00000100
00000000
00000010
00000100
00000000
00001000
00000001
00000000
00000100
00000000
,
00001000
00000000
00010000
00000000
00000100
00000000
00010000
00000000
00000000
01000000
00000000
00000000
00010000
00000000
00000000
00000000
,
00001000
00000000
00010000
00000000
01000000
00000000
00100000
00000000
00010000
10000000
00000000
00100000
10000000
00000000
01000000
00000000
,
00010000
00000000
01000000
00000000
00100000
00000000
00001000
00000000
00000000
00000100
00000000
00000000
00001000
00000000
00000000
00000000
,
00010000
00000000
00001000
00000000
00000010
00000000
00000100
00000000
00001000
00000001
00000000
00000100
00000010
00000000
00010000
00000000
,
00022000
00000000
00000000
00033000
,
00001000
00100000
00001000
00010000
00100000
01000000
00010000
10000000
,
01000000
00010000
01000000
00100000
00001000
00010000
00000010
00010000
,
00001000
00000010
00000100
00001000
00000001
00000100
00000001
00000010
,
00001000
00010000
00000100
00000010
00000001
00000100
00000001
00000010
,
00001000
00010000
00100000
01000000
00001000
00010000
00000100
00010000
,
01000000
00000000
00100000
00000000
00010000
00000000
10000000
00000000
00100000
00000000
00000000
00010000
00000000
00000000
00000100
00000000
,
00010000
00001000
00000010
00000001
00000100
00000010
00001000
00000001
,
00000010
00001000
00010000
00000010
00010000
01000000
00100000
00010000
,
10000000
00100000
00010000
00100000
01000000
00010000
00100000
00001000
,
00010000
00000000
00000100
00000000
00001000
00000000
00000100
00000000
00000001
00000000
00000000
00000100
00000000
00000000
00000010
00000000
,
00000001
00000100
00001000
00010000
00100000
00001000
00100000
01000000
,
00010000
10000000
01000000
00010000
01000000
00100000
00001000
00010000
,
00000010
00000100
00001000
00010000
00000100
00000010
00000001
00001000
,
00000001
00000000
00000100
00000000
00001000
00000000
00010000
00000000
01000000
00000000
00000000
10000000
00000000
00000000
00100000
00000000
,
01100000
00000000
00011000
00000000
,
00000110
00000101
00001100
00001001
,
00000001
00000100
00001000
00000000
00010000
01000000
10000000
00000000
,
00010000
00000000
01000000
00100000
01000000
00000000
00010000
00000000
00100000
00000000
00001000
00000000
00010000
00000000
00000000
00000000
,
00000010
00010000
00000100
00000000
00100000
00001000
01000000
00000000
,
00022000
00000000
00000000
00000000
00000000
00000000
00000000
00000000
00033000
00000000
00000000
00000000
00001000
00000000
00010000
00001000
,
00010000
00001000
00000010
00000001
00000100
00000000
00000000
00010100
,
00000000
01001000
00000000
00001000
00010000
01000000
00100000
00010000
,
10000000
00100000
01000000
00100000
00001000
00000000
00000010
00010000
,
00000000
00001000
00000000
00000010
00000001
00000100
00000010
00001000
,
00000100
00000000
00011000
00000000
,
20020000
00000000
30030000
00000000
,
00010000
00000000
01000000
00000000
00010000
00000000
00100000
00000000
00001000
00010000
00000000
00001000
00010000
00000000
00000100
00000000
,
00000010
00000000
00000001
00000000
00000100
00000000
00000010
00000000
00000000
00001000
00000000
00000000
00000001
00000000
00000000
00000000
,
00000010
00000000
00000100
00000000
00010000
00000000
00001000
00000000
01000000
00001000
00000000
00010000
00001000
00000000
00100000
00000000
,
00010000
00000000
10000000
00000000
00100000
00000000
01000000
00000000
00000000
00010000
00000000
00000000
00100000
00000000
00000000
00000000
,
00001000
00000000
00010000
00000000
00000100
00000000
00010000
00000000
00000100
00001000
00000000
00000001
00000100
00000000
00000010
00000000
,
00001000
00000000
00000100
00000000
00000010
00000000
00000100
00000000
00000000
00010000
00000000
00000000
00001000
00000000
00000000
00000000
,
00100000
00000000
00010000
00000000
10000000
00000000
00100000
00000000
10000000
00010000
00000000
01000000
00001000
00000000
00010000
00000000
,
00001000
00000000
00000100
00000000
00000010
00000000
00001000
00000000
00000000
00000100
00000000
00000000
00000010
00000000
00000000
00000000
,
00000001
00000000
00000100
00000000
00000001
00000000
00000010
00000000
00001000
00010000
00000000
00001000
00010000
00000000
00100000
00000000
,
10000000
00000000
00010000
00000000
01000000
00000000
00100000
00000000
00000000
10000000
01000000
00000000
00100000
00000000
00000000
00000000
,
00001000
00000000
00010000
00000000
00000010
00000000
00010000
00000000
00000100
00001000
00000000
00000001
00000100
00000000
00000010
00000000
,
00001000
00000000
00000100
00000000
00010000
00000000
00001000
00000000
00000000
00100000
00010000
00000000
10000000
00000000
00000000
00000000
,
00100000
00000000
10000000
00000000
00010000
00000000
01000000
00000000
00001000
00010000
00000000
00000100
00010000
00000000
00000010
00000000
,
00001000
00000000
00000001
00000000
00000010
00000000
00000100
00000000
00000000
00001000
00000001
00000000
00000100
00000000
00000000
00000000
,
00001000
00000000
00010000
00000000
00000100
00000000
00010000
00000000
00001000
00100000
00000000
00001000
00010000
00000000
00000010
00000000
,
00002000
00000000
00000000
00003000
,
00011000
00000000
00000000
00000000
,
00000000
00000000
00000000
00000000
,
00000000
00000000
00000000
00000000
,
00000000
00000000
00000000
00000000
,
00011000
00000000
00000000
00000000
;

//--------------- dance-double - forcednature ----------------
#NOTES:
     dance-double:
     forcednature:
     Challenge:
     16:
     0,0,0,0,0:
00000000
00000000
00000000
00000000
,
00000000
00000000
00000000
00000000
,
00000000
00000000
00000000
00000000
,
00011000
00000000
00000000
00000000
,
02200000
00000000
03300000
00000000
,
10000000
01000000
00010000
00001000
01000000
00000000
00100000
00000000
,
00010000
00000000
00001000
00000000
00000010
00000000
00000100
00000000
00001000
00000000
00000000
00000001
00000000
00000000
00000100
00000000
,
00001000
00010000
01000000
10000000
00100000
00000000
00010000
00000000
,
00011000
00000000
00000100
00001000
00000000
00000010
00000100
00000010
,
00000001
00000010
00001000
00000100
00010000
00000000
00001000
00000000
,
00100000
00000000
01000000
00000000
10000000
00000000
00010000
00000000
01000000
00000000
00000000
00100000
00000000
00000000
00010000
00000000
,
00001000
00000010
00000100
00010000
00000010
00000000
00000100
00000000
,
00001001
00000000
00001000
00000100
00000000
00010000
00001000
00000000
,
00220000
00000000
00000000
00000000
,
00000000
00000000
00000000
00330000
,
00022000
00033000
00002200
00003300
,
00010000
00000000
00001000
00000000
00000010
00000000
00000100
00000000
00000000
00010000
00000000
00000000
00100000
00000000
00000000
00000000
,
10010000
00000000
00000000
00000000
,
00010000
00000000
01000000
00000000
00001000
00000000
00010000
00000000
00000000
00000100
00000000
00000000
00000010
00000000
00000000
00000000
,
00002002
00000000
00000000
00000000
00000000
00000000
00000000
00000000
00003003
00000000
00000000
00000000
00001000
00000001
00001000
00000001
,
00001000
00000000
00000001
00000010
00000001
00000000
00000100
00000000
00000010
00001000
00000000
00000010
00001000
00000000
00000100
00000000
,
00010000
00000000
00001000
00000000
00100000
00000000
01000000
00000000
10000000
00100000
10000000
00000000
01000000
00000000
00100000
00000000
,
00001000
00000000
00010000
00001000
00010000
00000000
00000100
00000000
00001000
00000001
00000000
00001000
00000001
00000000
00000100
00000000
,
00001000
00000000
00010000
00000000
01000000
00000000
00100000
00000000
00010000
10000000
00010000
00000000
01000000
00010000
01000000
00000000
,
00100000
00000000
00010000
00001000
00010000
00000000
00000100
00000000
00001000
00000010
00000000
00001000
00000010
00000000
00000100
00000000
,
00000001
00000000
00000010
00000000
00000100
00000000
00010000
00000000
00001000
00100000
00001000
00000000
00010000
00000000
00100000
00000000
,
01000000
00000000
00010000
10000000
00010000
00000000
00100000
00000000
01000000
10000000
00000000
01000000
10000000
00000000
00100000
00000000
,
20020000
00000000
00000000
00000000
00000000
00000000
00000000
00000000
30030000
00000000
00000000
00000000
00010000
10000000
00010000
10000000
,
00010000
00100000
00000000
00011000
00000000
00000100
00001000
00000010
,
00000000
00000110
00000000
00000001
00000100
00001000
00010000
00000010
,
00000000
00010100
00000000
00101000
00000000
01000000
00100000
10000000
,
00000000
01100000
00000000
00011000
00000000
00100000
00001000
00010000
,
00000000
00001100
00000000
00001010
00000000
00000001
00000100
00001000
,
00000000
00000000
00000110
00000000
00000000
00000000
00010000
00000000
00001000
00000000
00000000
00100000
00000000
00000000
00010000
00000000
,
00000000
01100000
00000000
10010000
00000000
00001000
00000000
00010000
,
00000000
00001100
00000000
00000011
00000000
00000001
00000100
00001000
,
00010000
01000000
00100000
00010000
10000000
00100000
00010000
00001000
,
00000010
00000000
00000100
00000000
00001000
00000000
00000001
00000000
00000100
00000000
00000000
00000010
00000000
00000000
00000100
00000000
,
00001000
00010000
00100000
10000000
01000000
00100000
00010000
10000000
,
00100000
00010000
00001000
00000010
00000100
00010000
00001000
00000100
,
00000001
00001000
00000100
00010000
00001000
01000000
00100000
00010000
,
00001000
00000000
00100000
00000000
01000000
00000000
10000000
00000000
00100000
00000000
00000000
00010000
00000000
00000000
00001000
00000000
,
00011000
00000100
00001001
00000010
,
00011000
00010100
01001000
00011000
,
00001000
01000000
00010000
00000000
00100000
01000000
10000000
00000000
,
00100000
00000000
01000000
00010000
01000000
00000000
00100000
00000000
00010000
00000000
00001000
00000000
00000010
00000000
00000100
00000000
,
00001000
00000000
00000001
00000000
00000100
00000000
00000010
00000000
00010000
00000000
00001000
00000000
00100000
00010000
00100000
00010000
,
00200000
00000000
00000000
00000000
10000000
00000000
00000000
00000000
10300000
00000000
00000000
00000000
00100000
00000000
00010000
10000000
,
00010000
01000000
00001000
00010000
00000100
00000000
00000000
00000110
,
00000000
00001001
00000000
00000001
00000100
00001000
00010000
01000000
,
10000000
00100000
00010000
00001000
00000010
00000000
00000001
00000100
,
00000000
00011000
00000000
00001000
00010000
01000000
10000000
00100000
,
01100000
00000000
00011000
00000000
,
00000001
00000000
00001000
00000000
00000001
00000000
00001000
00000000
00000001
00001000
00000001
00001000
00000001
00001000
00000001
00000000
,
00000100
00000000
00000010
00001000
00000010
00000000
00010000
00000000
00001000
00010000
00000000
00001000
00100000
00000000
00010000
00000000
,
01000000
00000000
00100000
00000000
10000000
00000000
01000000
00000000
00100000
00010000
00100000
00000000
00001000
00000000
00010000
00000000
,
00000010
00000000
00000100
00000001
00000100
00000000
00000010
00000000
00010000
00001000
00000000
00010000
00000100
00000000
00010000
00000000
,
00001000
00000000
01000000
00010000
01000000
00000000
00100000
00000000
10000000
00010000
10000000
00000000
01000000
00100000
01000000
00000000
,
10000000
00000000
00010000
01000000
00010000
00000000
00100000
00000000
00001000
00010000
00000000
00000100
00010000
00000000
00001000
00000000
,
00000100
00000000
00000001
00001000
00000001
00000000
00000010
00000000
00000100
00001000
00000100
00000000
00010000
00000000
00001000
00000000
,
01000000
00000000
00100000
10000000
00100000
00000000
01000000
00000000
00001000
00010000
00000000
00000100
00010000
00000000
00001000
00000000
,
00000100
00000000
00000001
00000000
00000000
00000000
00000000
00000000
00001000
00000001
00001000
00000001
00001000
00000001
00001000
00000000
,
00000010
00000000
00010000
00001000
00010000
00000000
00100000
00000000
01000000
00010000
00000000
10000000
00010000
00000000
00100000
00000000
,
01000000
10000000
01000000
00000000
00100000
00000000
00010000
10000000
00010000
00000000
01000000
00001000
01000000
00001000
01000000
00000000
,
00010000
00000000
00100000
00010000
00100000
00000000
00001000
00000000
00010000
00000100
00000000
00010000
00001000
00000000
00000100
00000000
,
00000010
00001000
00000010
00000000
00000100
00000000
00000001
00000010
00000001
00000000
00001000
00000100
00001000
00000100
00001000
00000000
,
00000010
00000000
00010000
00001000
00010000
00000000
01000000
00000000
00100000
00010000
00000000
00100000
01000000
00000000
10000000
00000000
,
00010000
01000000
00010000
00000000
00100000
00000000
00001000
00010000
00001000
00000000
00010000
00000100
00010000
00000100
00010000
00000000
,
00001000
00000000
00100000
00010000
00100000
00000000
01000000
00000000
10000000
00010000
00000000
01000000
00010000
00000000
00100000
00000000
,
00001000
00010000
00001000
00010000
00001000
00010000
00001000
00010000
00001000
00010000
00001000
00010000
00001000
00010000
00001000
00010000
,
00001000
00000000
00000000
00000000
,
00000000
00000000
00000000
00000000
,
00000000
00000000
00000000
00000000
,
00000000
00000000
00000000
00000000
,
00011000
00000000
00000000
00000000
;
