#TITLE:GEOMETRIC CITY;
#SUBTITLE:~electric shock ver.~;
#ARTIST:MASAKI(ZUNTATA);
#TITLETRANSLIT:;
#SUBTITLETRANSLIT:electric shock ver.;
#ARTISTTRANSLIT:;
#GENRE:;
#CREDIT:;
#MUSIC:GEOMETRIC CITY electric shock ver..ogg;
#BANNER:GEOMETRIC CITY electric shock ver..png;
#BACKGROUND:GEOMETRIC CITY electric shock ver.-bg.png;
#CDTITLE:;
#SAMPLESTART:107.848;
#SAMPLELENGTH:15.000;
#SELECTABLE:YES;
#OFFSET:-0.002;
#BPMS:0.000=147.978
,28.000=295.957
,30.000=147.978
,60.000=295.957
,62.000=147.978
,296.000=295.957
,298.000=147.978
;
#STOPS:28.000=0.051
,28.250=0.051
,28.500=0.051
,28.750=0.051
,29.000=0.051
,29.250=0.051
,29.500=0.051
,29.750=0.051
,60.000=0.051
,60.250=0.051
,60.500=0.051
,60.750=0.152
,61.500=0.034
,61.667=0.034
,61.833=0.034
,296.000=0.051
,296.250=0.051
,296.500=0.051
,296.750=0.152
,297.500=0.034
,297.667=0.034
,297.833=0.034
;
#DISPLAYBPM:148.000;
#ORIGIN:;
#PREVIEWVID:;
#JACKET:GEOMETRIC CITY electric shock ver.-jacket.png;
#CDIMAGE:;
#DISCIMAGE:;
#BGCHANGES:;
#FGCHANGES:;

//--------------- dance-single - ----------------
#NOTES:
     dance-single:
     :
     Medium:
     11:
     0,0,0,0,0:
0000
0000
0000
0000
,
0000
0000
0000
0000
,
0000
0000
0000
0000
,
0000
0000
0000
0000
,
0000
0000
0000
0000
,
0000
0000
0000
0000
,
0000
0000
0000
0000
,
0000
0000
0000
0000
0000
0000
0000
0000
0002
0000
0000
0023
0000
0000
0130
0000
,
1000
0000
0010
0100
0001
1000
0100
0000
,
0010
0000
0001
0000
1000
0000
0010
0000
0001
0000
0010
1000
0000
0000
0100
0000
,
0010
0000
0000
0001
0100
0010
0001
0000
,
0010
0000
1000
0100
0010
0100
1000
0001
,
0100
0010
0001
0000
0010
1000
0100
0000
,
0010
0001
1000
0010
0100
0010
1000
0000
,
0001
0010
0001
0100
0010
1000
0100
0000
,
2000
0000
0000
3001
0000
0000
0200
0000
0320
0000
0000
2030
0000
0000
3001
0000
,
0010
0000
1100
0000
0010
0001
1000
0010
,
0100
0000
0011
0000
0100
1000
0001
0100
,
0010
0000
0101
0000
0010
0100
0001
1000
,
0100
0000
1010
0000
0100
0010
1000
0001
,
0010
0000
0100
0010
0001
0000
1000
0010
,
0100
0000
0000
0000
1000
0000
0100
0000
0001
0000
0000
0010
0000
0000
0100
0000
,
1000
0000
0010
0000
0100
0010
1000
0000
,
0001
0000
0010
0000
0100
0010
0001
1000
,
0010
0000
0100
0000
0001
1000
0100
0010
,
0100
1000
0010
0100
1000
0100
0001
0010
,
0200
0000
0000
0000
,
2300
0000
0000
0000
,
3020
0000
0000
0000
,
0230
0000
0000
0000
0000
0000
0000
0301
,
0001
0010
0100
0010
,
0001
1000
0010
0100
,
0010
1000
0100
0010
,
0001
0000
0100
0000
0010
0000
1000
0000
0001
0000
0000
0010
0000
0000
0100
0000
,
1000
0010
0100
0010
1000
0100
0010
0001
,
0100
0010
0100
0010
1000
0100
0010
0001
,
0100
0000
0000
0010
0000
0000
0001
0000
0000
0000
0010
0000
1000
0000
0100
0000
,
0000
0000
0010
0000
1000
0010
0001
1000
,
0010
0100
0001
1000
0000
0100
0010
0100
,
1000
0000
0000
0010
0000
0000
0100
0000
0000
1000
0000
0000
0100
0000
0001
0000
,
0010
0000
0000
0100
0000
0000
0002
0000
0000
0000
0000
0000
0103
0000
0000
0000
,
1000
0020
0230
0302
,
1003
0000
0100
0010
0100
0000
1000
0001
,
0100
0000
0010
0100
0001
0000
0010
0100
,
1000
0010
0100
1000
,
0100
0001
0010
0100
,
1000
0010
0100
1000
0100
0001
0010
1000
,
0010
0100
1000
0010
0001
0010
0100
0001
,
0010
0000
0100
0001
0100
1000
0010
0100
,
0001
0010
0100
0010
0001
1000
0010
0100
,
0000
0000
1001
1001
0000
0100
0010
1000
,
0001
0010
0100
0001
0100
1000
0010
0100
,
0010
1000
0100
0010
1000
0000
0010
0001
,
1000
1000
0010
0000
0100
0001
0010
0100
,
0000
0000
1001
1001
0000
0010
0100
1000
,
0001
0100
0010
0001
0010
1000
0100
0000
,
0010
0001
1000
0010
0100
0010
1000
0100
,
0020
0032
2003
3020
,
0130
0000
0010
1000
0001
0010
0000
1000
,
0000
0010
0001
1000
0000
0010
0001
0010
,
1000
0000
0100
0010
1000
0010
0000
0001
,
0000
0000
0100
0010
0000
0001
0000
0010
,
1000
0100
1000
0010
0100
0001
0000
0010
,
0000
0001
0100
0010
0000
1000
0100
1000
,
0001
0100
0010
0100
0000
0001
1000
0100
,
0010
0000
0000
0010
0000
0000
0010
0000
0000
0010
0000
0000
0001
0000
1000
0000
,
0010
0000
0000
0010
0000
0000
0010
0000
0000
0010
0000
0000
0100
0000
0001
0000
,
1000
0000
0100
0010
1000
0010
0100
0000
,
1000
0000
0010
0100
0010
1000
0100
0010
,
0001
0000
0100
0010
0100
0001
0010
0100
,
0001
0000
0100
1000
0010
0100
1000
0100
,
0001
0000
0100
0010
0001
0010
0100
0001
,
1000
0000
0010
0001
0010
1000
0001
0010
,
0100
0000
0010
0001
1000
0010
0100
0001
,
0020
0000
0000
0130
0000
0000
2000
0000
3001
0000
0000
0100
0000
0000
0010
0000
,
1000
0000
0100
0010
0100
1000
0001
0100
,
0010
0000
0100
0001
1000
0100
0010
1000
,
0010
0000
0001
0100
0010
0001
0010
1000
,
0001
0000
0010
0100
0001
0100
0010
0001
,
1000
0000
0010
0100
1000
0100
0010
1000
,
0001
0000
0100
0010
0001
0010
0100
0001
,
1000
0000
0100
0010
1000
0010
0100
1000
,
0010
0100
0001
1000
0000
0100
0010
0100
,
1000
0000
0010
0001
0010
1000
0001
0010
,
0100
0000
0000
0100
0000
0000
0100
0000
0000
0100
0000
0000
1000
0000
0001
0000
,
0100
0000
0010
0100
0001
1000
0000
0100
,
0000
0010
0100
1000
0000
0010
0100
0001
,
0010
0000
0000
0010
0000
0000
0010
0000
0000
0010
0000
0000
1000
0000
0001
0000
,
0010
0000
0000
0010
0000
0000
0010
0100
0000
0100
1000
0000
0010
0000
0100
0000
;

//--------------- dance-single - ----------------
#NOTES:
     dance-single:
     :
     Hard:
     16:
     0.003922,0,0.006863,0,0,4,1,1,0,0,1,0,0,0,0.003922,0,0.006863,0,0,4,1,1,0,0,1,0,0,0:
0000
0000
0000
0000
,
0000
0000
0000
0000
,
0000
0000
0000
0000
,
0000
0000
0000
0000
,
1000
0000
0100
0000
1000
0000
0000
0001
0000
0001
0100
0000
0010
0000
0000
0100
,
0001
0000
0010
0000
0100
0000
0000
1000
0000
1000
0010
0000
0100
0000
0001
1000
,
0100
0000
0010
0000
0100
0000
0000
1000
0000
1000
0010
0000
0100
0000
0001
1000
,
0001
0010
0001
0010
0100
1000
0100
1000
0020
0000
0000
0230
0000
0000
0302
0000
,
1003
0000
0100
0000
0011
0000
0100
1000
0000
0001
0100
0000
1000
0000
0100
0000
,
0010
0000
1000
0000
0100
0000
0010
0100
1000
0001
0100
0010
0100
0000
0001
0000
,
0010
0000
0001
0000
1000
0000
0010
0100
0000
1000
0100
0000
0001
0000
0010
0000
,
0001
1000
0010
0100
0010
0000
1000
0100
0000
0100
0010
0000
0001
0000
1000
0000
,
0010
0000
0100
0000
0011
0000
1000
0010
0000
0100
0001
0000
0010
0000
0100
0010
,
0001
0000
1000
0000
0010
0000
0100
0010
1000
0100
1000
0010
0100
0000
1000
0000
,
0100
0000
0001
0000
0010
0000
0100
1000
0000
1000
0010
0000
0100
0001
0100
0000
,
0001
0000
0000
1000
0000
0000
0100
0000
0000
0010
0000
0000
0000
0000
0000
0000
0000
0000
0001
0000
1000
0000
0001
0000
1000
0000
0000
0100
0000
0000
1000
0000
0000
0010
0000
0000
0100
0000
0000
0001
0000
0000
0010
0000
0000
0000
0000
0000
,
0001
0000
0010
0000
1010
0000
0000
0100
0000
0100
0010
0000
0011
0000
1000
0000
,
0010
0100
0001
1000
0100
0000
0010
0000
0000
0001
2000
0000
0000
3020
0000
0000
,
0031
0000
0010
0000
1000
0000
0100
0010
0000
0010
0001
0000
0100
0000
0010
0000
,
0001
0000
0010
0000
1000
0000
0100
0010
0100
1000
0001
0100
0020
0000
0000
0000
,
1030
0000
0100
0000
0001
0000
0100
1000
0000
0001
0100
0000
0010
0000
0100
0000
,
0001
0000
0010
0000
0100
0000
0010
0001
1000
0010
0100
0001
0000
0010
0100
0000
,
0010
0000
0001
0000
1000
0000
0010
0100
0000
0001
0010
0000
0100
0010
0001
0000
,
1000
0000
0010
0000
0100
0000
0010
0000
0000
1000
0001
0000
0010
0000
0100
0000
,
1000
0010
0001
1000
0100
0001
0010
0100
,
1000
0010
1000
0000
0011
0000
0000
0100
0000
0100
1000
0010
0100
0001
0100
0010
,
2000
0000
0000
0100
0000
0000
3200
0000
0000
0000
0000
0000
0320
0000
0000
0000
,
0000
0032
0000
0100
0203
0000
0000
0320
,
2030
0000
0000
0100
0000
0000
3020
0000
0000
0000
0000
0000
0230
0000
0000
0000
,
0000
0000
0302
0000
0000
0000
0100
0000
0023
0000
0000
0000
0000
0000
0130
1000
,
0001
0000
0100
0000
1010
0000
0100
0001
1000
0100
0010
0100
1000
0000
0010
0100
,
0001
0000
0010
0000
0100
0000
0001
0100
1000
0010
0100
0010
1000
0000
0100
0010
,
0001
0000
0100
0000
0010
0100
0001
1000
0100
0000
0001
0100
0010
0000
0001
1000
,
0001
0010
0100
0010
0100
1000
0010
0100
0001
0000
0000
0010
0000
0000
0100
0000
,
1000
0000
0010
0100
0010
1000
0001
0000
0010
0100
0010
0001
0100
0000
0010
1000
,
0001
0010
0100
0000
0001
0100
1000
0010
0200
0000
0320
0000
2030
0000
3002
0000
,
0013
0000
0100
0010
0000
0000
0001
0000
0100
1000
0100
0000
0001
0000
0010
0000
,
0100
0000
1000
0000
0010
0000
0100
0000
1000
0100
0001
0000
0010
0000
0001
0000
,
0100
0010
1000
0002
0000
0013
0100
0010
,
0001
0000
0100
0010
0000
0010
0001
0000
0010
1000
0000
1000
0100
0000
0010
0000
,
0002
0000
0000
0203
0000
0000
0320
0000
0000
0000
0130
0000
0001
1000
0100
0000
,
0010
1000
0020
0000
0032
0000
2003
0000
,
3010
0000
0100
1000
0000
0100
0001
0010
0100
0000
0010
0001
0000
0100
0010
1000
,
0002
0000
0000
0023
0000
0000
0130
0000
0002
0000
0000
0203
0000
0000
1300
0000
,
0010
0100
0020
0000
0000
0000
0000
0000
0000
0000
1030
0000
0100
0000
0010
0001
,
1000
0010
0200
0000
2300
0000
3200
0000
,
0301
0010
0100
0010
0001
0000
1000
0100
0010
0100
1000
0000
0001
0100
0010
0100
,
0001
0000
1000
0010
0100
0010
1000
0000
0001
0000
0010
0000
0100
0000
1000
0000
,
0010
0100
0001
1000
0100
0010
0100
1000
0001
0100
0010
1000
0001
0010
0100
0010
,
0001
0100
0010
0100
0001
0010
0100
1000
0010
0100
0010
1000
0100
0010
0001
1000
,
0000
0000
0000
0000
0110
0000
2002
0000
3003
0000
0010
0001
0100
0010
1000
0100
,
1000
0010
0000
0010
0100
0000
0100
0001
0000
0001
0010
0000
0100
0000
1000
0001
,
1000
0000
1000
0000
0110
0000
0001
0000
0010
0100
0000
0100
2000
0000
3001
1000
,
0001
0010
0100
0010
0001
0000
0000
1000
0010
0100
0000
0000
0001
0000
1000
0000
,
0000
0000
0000
0000
0110
0000
2002
0000
3003
0000
0100
1000
0010
0100
0001
0010
,
0001
0100
0000
0100
0010
0000
0010
1000
0000
1000
0100
0000
0010
0000
0001
0000
,
0100
0000
0010
0000
1000
0000
0001
0010
0100
0010
0001
1000
0010
0100
0001
0010
,
0002
0000
1003
0010
0100
0010
1000
0100
0010
1000
0010
0000
0001
0100
0010
1000
,
0001
0000
0000
0000
0010
0000
1000
0000
0010
0000
0001
1000
0010
0000
0100
0000
,
0010
0000
0000
0000
0000
0000
1000
0000
0000
0000
0000
0000
0100
0000
1000
0000
0100
0000
2000
0000
0000
0000
0000
0000
0000
0000
0000
0000
0000
0000
3010
0000
0000
0100
0000
0000
0001
0000
0000
1000
0000
0000
0100
0000
0000
0000
0000
0000
,
0010
0001
1000
0000
0010
0000
0100
0000
1000
0000
0200
0000
0000
0000
0302
0000
,
0000
0000
0000
0000
0013
0000
0100
0000
0001
0100
2000
0000
0000
0000
3010
1000
,
0001
0000
0010
0100
0010
0001
1000
0010
0100
0010
1000
0100
0010
0000
0001
1000
,
0010
0000
0000
0100
0000
0000
0001
0000
0000
1000
0000
0000
0100
0000
1000
0000
0100
0000
1000
0000
0000
0000
0000
0000
0010
0000
0000
0100
0000
0000
0001
0000
0000
1000
0000
0000
0100
0000
0000
0010
0000
0000
0001
0000
0000
0000
0000
0000
,
1010
0000
0000
0000
0000
0000
0100
0000
0000
0000
0000
0000
0001
0000
0000
0000
0000
0000
0010
0000
0000
0000
0000
0000
1100
0000
0000
0000
0000
0000
0010
0000
0001
0000
0010
0000
0001
0000
0000
0000
0000
0000
0100
0000
0000
0010
0000
0000
,
1000
0100
0000
0100
0010
0000
0010
0001
0000
0001
0010
0000
0100
0000
1000
0000
,
0001
0100
0000
0100
0010
0000
0010
1000
0001
0010
0001
0100
0010
1000
0100
0000
,
1000
0000
0010
0000
0100
0010
1000
0001
0010
0100
0010
0001
1000
0010
0100
0000
,
0001
0000
0010
0000
0100
1000
0001
0100
0010
1000
0100
1000
0001
0100
0010
0000
,
1000
0000
0100
0000
0010
0100
1000
0001
0100
0010
0100
0001
1000
0100
0010
0000
,
0001
0000
0100
0000
0010
0100
0001
1000
0100
0010
0100
1000
0010
0000
0001
0000
,
0010
0000
1000
0100
1000
0010
0100
0001
0010
0001
0100
0010
1000
0100
1000
0000
,
0001
0000
0100
0001
1000
0100
0010
0100
1000
0010
0100
0001
0010
0000
0100
0000
,
1000
0000
0010
0100
0010
1000
0100
0010
0001
0100
0001
0100
0001
0100
0001
0000
,
1000
0000
0000
0100
0000
0000
0010
0000
0000
0001
0000
0000
0000
0000
0000
0000
0000
0000
1000
0000
0001
0000
1000
0000
0001
0000
0000
0010
0000
0000
0100
0000
0000
0010
0000
0000
0100
0000
0000
1000
0000
0000
0002
0000
0000
0000
0000
0000
,
0103
0000
0010
0000
1000
0100
0010
1000
0010
0100
1000
0010
0100
0001
0010
0000
,
0001
1000
0010
0000
0100
0001
0010
0100
1000
0010
0100
1000
0100
0010
1000
0000
,
0100
0000
1000
0000
0001
0100
0010
0100
0001
1000
0100
1000
0010
0100
0001
0000
,
0010
0001
1000
0000
0010
0100
0001
1000
0100
0010
0100
1000
0001
0100
0010
0000
,
1000
0000
0100
0000
0010
0100
1000
0001
0100
0010
0100
0001
1000
0100
0010
0000
,
0001
0100
0001
0000
1000
0010
1000
0100
0010
0001
0100
0001
0010
0100
1000
0000
,
0010
0000
0001
0010
1000
0200
0000
0310
,
0100
1000
0010
0200
0000
0310
1000
0100
,
0020
0000
0000
0000
0031
1000
0010
0100
0010
1000
0001
0010
0100
0000
0000
0000
,
1000
0010
0000
0100
0001
0000
1000
0100
0000
0010
0001
0000
0100
0000
0010
0000
,
1000
0000
0000
0000
0100
0000
0010
0000
1000
0010
0002
0000
0000
0000
0103
0000
,
1010
0100
0011
2000
0000
3010
0100
0001
,
1000
0100
0000
1000
0100
0000
0010
0001
0000
0010
0001
0000
0100
0000
0010
0000
,
1000
0100
0000
1000
0100
0000
1000
0001
0000
0001
0010
0000
0100
0000
1000
0000
;
