#VERSION:0.83;
#TITLE:Flip-Flap-Flop;
#SUBTITLE:;
#ARTIST:あみる;
#TITLETRANSLIT:;
#SUBTITLETRANSLIT:;
#ARTISTTRANSLIT:Amir;
#GENRE:Chiptune;
#ORIGIN:;
#CREDIT:;
#BANNER:Flip-Flap-Flop.png;
#BACKGROUND:Flip-Flap-Flop-bg.png;
#PREVIEWVID:;
#JACKET:Flip-Flap-Flop-jacket.png;
#CDIMAGE:;
#DISCIMAGE:;
#LYRICSPATH:;
#CDTITLE:;
#MUSIC:Flip-Flap-Flop.ogg;
#OFFSET:-0.267279;
#SAMPLESTART:68.477806;
#SAMPLELENGTH:15.000000;
#SELECTABLE:YES;
#BPMS:0.000=190.000;
#STOPS:;
#DELAYS:;
#WARPS:;
#TIMESIGNATURES:0.000=4=4;
#TICKCOUNTS:0.000=4;
#COMBOS:0.000=1;
#SPEEDS:0.000=1.000=0.000=0;
#SCROLLS:0.000=1.000;
#FAKES:;
#LABELS:0.000=Song Start;
#BGCHANGES:;
#KEYSOUNDS:;
#ATTACKS:
;

//---------------dance-single - ----------------
#NOTEDATA:;
#CHARTNAME:;
#STEPSTYPE:dance-single;
#DESCRIPTION:;
#CHARTSTYLE:;
#DIFFICULTY:Hard;
#METER:15;
#RADARVALUES:0.692421,0.891118,0.492470,0.250555,0.185756,561.000000,504.000000,57.000000,29.000000,0.000000,0.000000,0.000000,0.000000,0.000000,0.692421,0.891118,0.492470,0.250555,0.185756,561.000000,504.000000,57.000000,29.000000,0.000000,0.000000,0.000000,0.000000,0.000000;
#CREDIT:Pandemonium X;
#NOTES:
0000
0000
0000
0000
,
0000
0000
0000
0000
,
0000
0000
0000
0000
,
0000
0000
0000
0000
,
0000
0000
0000
0000
,
1000
0100
0010
0100
,
1000
0000
0010
0000
0100
0010
1000
0001
,
0010
0001
0100
0001
,
1000
0000
0100
0000
0001
0000
0100
0000
0000
0000
0000
0000
0000
0000
0010
0001
,
1000
0010
0100
0010
,
1000
0000
0010
0000
0100
0010
1000
0100
,
0010
0001
0100
0001
,
1000
0010
0001
0010
0000
0100
0001
0000
,
0010
0001
0100
0001
,
0010
0000
0100
0000
0010
0001
1000
0010
,
1000
0100
0010
0100
,
1000
0100
0001
0100
0000
0000
0000
0000
,
0001
0000
0001
1000
0000
1000
0001
0000
,
0100
0010
1000
0001
0010
0000
1100
0000
,
1000
0100
1000
0100
0001
0100
0001
0100
,
1000
0010
0100
0001
1000
0000
0101
0000
,
0001
0100
0000
1010
0000
1000
0100
0010
,
0001
0010
0001
0100
0010
0000
1001
0000
,
0001
0010
0001
0010
1000
0010
1000
0010
,
0021
0000
0130
0110
0000
0000
0000
0000
,
1200
0000
0310
0110
0000
0000
0000
0000
,
1000
0100
0001
0100
1000
0000
1010
0000
,
0010
0000
0100
0000
0010
1000
0001
0010
,
0100
0001
0100
1000
0010
0000
0110
0000
,
1000
0001
0000
0011
0000
0001
0010
0100
,
1000
0010
0001
0010
1000
0000
0101
0000
,
0001
0000
0010
0000
0001
0010
0100
0010
,
0012
0000
1003
1001
0000
1000
0100
0010
,
0001
0010
0000
0210
0000
0000
0000
0000
,
0310
0000
0000
0000
0001
1000
0001
1000
0001
1000
0001
1000
0001
1000
0001
1000
,
0000
0100
1000
0010
0100
0000
0010
1000
,
0000
0000
0001
0100
0001
0100
0001
0100
0001
0100
0001
0100
0001
0100
0001
0100
,
0001
0000
1000
0000
0000
1000
0100
0010
,
0001
0000
0000
0000
1000
0010
1000
0010
1000
0010
1000
0010
1000
0010
1000
0010
,
1000
0010
0100
0001
1000
0000
0001
1000
,
0100
0000
0010
0100
0010
0100
0010
0100
0010
0100
0010
0100
0010
0100
0010
0000
,
0000
0100
0020
0000
0031
0010
0100
1000
,
0002
0000
0100
0000
1003
0100
0010
0100
,
0000
0010
1001
0000
0000
0100
1001
0000
,
2000
0000
3010
0100
0000
0110
0000
1001
,
0000
1000
0010
1000
0002
0023
0230
2300
,
3002
0000
0000
0000
0103
0010
0100
0010
0100
0000
0001
0000
0010
0000
0100
0000
,
0000
0110
0000
1100
0000
1000
0001
0010
,
0100
0110
0000
0010
0011
0000
0001
0101
,
0000
0100
0110
0000
0010
1010
0000
1000
,
1100
0000
0100
0110
0000
0010
0011
0000
,
1001
1001
0000
0110
0110
0000
1010
0101
,
0000
0011
1100
0000
1000
0100
1000
0001
,
0100
0000
0001
0000
1000
0010
1000
0010
0100
0001
0100
0001
0010
0001
0010
0001
,
1000
0000
0011
1000
0000
0011
2000
0000
,
0000
0000
3010
0100
0001
0000
1000
0001
,
0101
0000
0101
1000
0000
0101
2000
0000
,
0000
0000
3010
1000
0100
0000
0010
0000
,
0002
0000
0103
0000
0010
0000
1000
0200
,
0000
0310
0100
1000
0010
0000
1000
0010
,
0200
0302
0023
0230
,
0310
0001
1000
0010
0000
0100
0001
1000
,
1100
0000
1100
0001
0000
1100
0002
0000
,
0000
0000
0103
0010
1000
0000
0001
1000
,
1010
0000
1010
0001
0000
1010
0002
0000
,
0000
0013
0100
1000
0020
0000
2030
0000
,
3001
0000
0000
1000
0010
0010
0100
0010
,
0000
0200
0000
0302
0000
1003
0100
0010
,
0001
0000
0010
0000
0001
0000
1000
0001
,
0100
0000
0000
0000
0010
1000
0010
1000
0001
0100
0001
0100
0001
0010
0002
0000
,
0000
0000
0000
0000
,
1003
0100
0001
0100
1000
0000
1010
0000
,
1000
0000
0001
0000
0010
0001
0100
0001
,
1000
0010
0001
0010
1000
0000
0011
0000
,
0001
0100
1000
0100
0000
0010
1000
0000
,
0001
0010
1000
0010
0001
0000
1100
0000
,
1000
0000
0010
0000
0100
0010
1000
0001
,
1000
0100
0001
0100
1000
0000
0011
0000
,
0001
0000
0100
0000
0001
0000
1000
0000
0000
0000
0100
0000
0010
0001
0010
0001
,
0010
0100
1000
0010
0100
0000
0101
0000
,
0001
0000
0100
0000
1000
0100
0001
1000
,
0100
0010
0100
1000
0001
0000
0110
0000
,
1000
0001
0100
0001
0000
0010
0100
0000
,
0100
0010
0001
0100
0010
0000
1010
0000
,
1000
0000
0010
0000
0001
0010
1000
0001
,
0010
0100
0010
0001
1000
0000
0110
0000
,
0001
1000
0010
1000
0000
0100
0010
0000
,
0010
0100
1000
0000
0022
0000
0000
0000
0000
0000
0000
0000
0000
0000
0000
0000
,
0000
0000
0000
0000
,
0030
0000
0000
0000
0000
0000
0000
0000
0000
0000
1003
0010
0000
0000
0000
0000
;

//---------------dance-double - ----------------
#NOTEDATA:;
#CHARTNAME:;
#STEPSTYPE:dance-double;
#DESCRIPTION:;
#CHARTSTYLE:;
#DIFFICULTY:Hard;
#METER:14;
#RADARVALUES:0.625771,0.891118,0.354233,0.397432,0.133917,507.000000,466.000000,41.000000,46.000000,0.000000,0.000000,0.000000,0.000000,0.000000,0.625771,0.891118,0.354233,0.397432,0.133917,507.000000,466.000000,41.000000,46.000000,0.000000,0.000000,0.000000,0.000000,0.000000;
#CREDIT:Pandemonium X;
#NOTES:
00000000
00000000
00000000
00000000
,
00000000
00000000
00000000
00000000
,
00000000
00000000
00000000
00000000
,
00000000
00000000
00000000
00000000
,
00000000
00000000
00000000
00000000
,
00000000
00000000
00000000
00000000
,
00000000
00000000
00000000
00000000
,
00000000
00000000
00000000
00000000
,
00000000
00000000
00000000
00000000
,
10000000
01000000
00100000
01000000
10000000
00000000
00110000
00000000
,
02000000
00000000
03001000
00000000
00010000
00000100
00001000
00000010
,
00000100
00000001
00000010
00000100
00001000
00000000
00001100
00000000
,
00000100
00010000
00000000
00011000
00000000
00001000
01000000
00000000
,
00100000
10000000
01000000
00100000
00010000
00000000
11000000
00000000
,
02000000
00000000
13000000
00000000
01000000
10000000
00100000
10000000
,
00010000
00100000
00001000
00010000
00000010
00000000
00001010
00000000
,
00000010
00000100
00000001
00001000
00000000
00000100
00010000
00001000
,
00010000
00000000
00000100
00000100
00000000
00010000
00010000
00000000
,
00001000
00100000
10000000
00100000
00010000
00000000
11000000
00000000
,
01000000
00000000
00100000
00000000
00010000
00100000
00001000
00010000
,
00000100
00001000
00000010
00000100
00000001
00000000
00001001
00000000
,
00000001
00000010
00000100
00001000
00000000
00001000
00000100
00000010
,
00000001
00000100
00001000
00000100
00000010
00000000
00001010
00000000
,
00000020
00000000
00010030
00000000
00001000
00100000
00010000
10000000
,
12000000
00000000
00000000
03100000
00000000
01000000
00100000
00001000
,
00021000
00001000
00000000
00031000
00000000
00100000
00001000
00010000
,
00000010
00000100
00000001
00001000
00000100
00000000
00000011
00000000
,
00002000
00000000
00003010
00000000
00000100
00000010
00001000
00000100
,
00010000
00001000
00100000
01000000
10000000
00000000
00110000
00000000
,
10000000
01000000
10000000
00200000
00000000
01300000
00010000
10000000
,
01000000
00100000
00010000
00100000
00001000
00000000
00011000
00000000
,
00020000
00000000
00030010
00000000
00000100
00000010
00001000
00000001
,
00000020
00000000
00000000
00000130
00000000
00000010
00000001
00001000
,
00000010
00020000
00000000
00030020
00000000
00000000
00000000
00000000
,
00000130
00000000
00000000
00000000
00000001
00000010
00000001
00000010
00000001
00000010
00000001
00000010
00000001
00000010
00000001
00000000
,
00000000
00000010
00000001
00001000
00000010
00000000
00001000
00000100
,
00010000
00001000
00010000
00001000
00010000
00001000
00010000
00001000
00010000
00001000
00010000
00001000
00010000
00001000
00010000
00000000
,
00000000
00000000
00000100
00000000
00000000
00010000
00001000
01000000
,
00100000
00000000
00000000
00000000
10000000
00010000
10000000
00010000
10000000
00010000
10000000
00010000
10000000
00010000
10000000
00000000
,
00000000
01000000
10000000
00100000
01000000
00000000
00100000
10000000
,
00010000
00000000
00000000
00100000
00010000
00100000
00010000
00100000
00010000
00100000
00010000
00100000
00010000
00100000
00010000
00000000
,
00000000
00000000
00000000
00100000
00002000
00000000
00000000
00000000
00023000
00000000
00030200
00000000
00002300
00000000
00003020
00000000
,
00000230
00000000
00000001
00000000
00000310
00001000
00000100
00010000
,
00000000
00000100
00010100
00000000
00000000
01000000
01001000
00000000
,
00002000
00000000
00103000
01000000
00000000
11000000
00000000
00110000
,
00000000
00100000
00010000
01000000
00002000
00023000
00030200
00020300
,
00032000
00000000
00100000
00000000
00013000
00000100
00001000
00000010
,
00000000
00000110
00000000
00001001
00000000
00001000
00000100
00000010
,
00000001
00000101
00000000
00000100
00000110
00000000
00000010
00001010
,
00000000
00000100
00001100
00000000
00010000
00011000
00000000
00001000
,
01001000
00000000
01000000
01100000
00000000
00100000
10100000
00000000
,
10010000
10010000
00000000
00110000
00110000
00000000
00101000
00101000
,
00000000
00011000
00011000
00000000
00010000
00001000
00100000
00001000
,
00010000
00000000
00000010
00000000
00010000
00001000
00010000
00001000
00010000
00001000
00010000
00001000
00010000
00001000
00010000
00001000
,
00010000
00000000
00000100
00010000
00000000
00010000
00000020
00000000
,
00000000
00000000
00000130
00000001
00001000
00000000
00000100
00010000
,
00001000
00000000
00001000
01000000
00000000
00001000
00200000
00000000
,
00000000
00000000
01300000
00100000
00010000
00000000
10000000
00000000
,
00100000
00000000
01000000
00000000
00010000
00000000
00100000
01000000
,
00000000
00100000
00010000
10000000
00100000
00000000
01000000
00000000
,
00002000
00023000
00030200
00002300
,
00003010
00000001
00000010
00001000
00000000
00000100
00010000
00001000
,
00010000
00000000
00000100
00010000
00000000
00001000
02000000
00000000
,
00000000
00000000
03100000
10000000
01000000
00000000
00100000
00001000
,
00010000
00000000
00000010
00010000
00000000
00001000
00200000
00000000
,
00000000
00301000
00001000
00010000
00000100
00000000
00001000
00000000
,
00000010
00000000
00000000
00000100
00000100
00000010
00001000
00000001
,
00000000
00000020
00000000
00000230
00000000
00010300
00001000
01000000
,
00200000
00000000
02300000
00000000
03200000
00000000
01300000
00010000
,
00200000
00000000
00000000
00000000
00000000
00000000
00300000
02100000
,
00000000
00000000
00000000
00000000
,
03100000
00001000
00010000
00000100
00001000
00000000
00000011
00000000
,
00000002
00000000
00000103
00000000
00000010
00001000
00000100
00010000
,
00001000
00100000
00010000
01000000
00100000
00000000
10010000
00000000
,
10000000
01000000
00010000
01000000
00000000
00100000
00010000
00000000
,
00100000
00001000
00010000
00000010
00000100
00000000
00000101
00000000
,
00000002
00000000
00000013
00000000
00000100
00000010
00000001
00001000
,
00000100
00010000
00001000
00100000
00010000
00000000
11000000
00000000
,
10000000
00100000
00010000
00100000
00000000
01000000
00010000
00100000
,
00002000
00010000
00100000
00010000
,
01000000
00000000
00010000
00000000
00103000
00001000
00010000
00001000
,
00020000
00000100
00001000
00000100
,
00030100
00001000
00000100
00010000
00000000
00001000
00010000
00000000
,
00002000
01000000
00010000
01000000
,
00010000
00000000
00100000
00000000
00013000
00000010
00000100
00000010
,
00020000
00001000
00000100
00001000
,
00030100
00010000
00001000
00010000
00000000
00001000
00100000
00000000
,
01000000
10000000
00100000
00000000
02020000
00000000
00000000
00000000
00000000
00000000
00000000
00000000
00000000
00000000
00000000
00000000
,
00000000
00000000
00000000
00000000
,
00000000
00000000
00000000
00000000
00000000
00000000
00000000
00000000
00000000
00000000
03000000
00030000
00000000
00000000
00000000
00000000
;

//---------------dance-single - ----------------
#NOTEDATA:;
#CHARTNAME:;
#STEPSTYPE:dance-single;
#DESCRIPTION:;
#CHARTSTYLE:;
#DIFFICULTY:Medium;
#METER:13;
#RADARVALUES:0.545544,0.581164,0.311034,0.198716,0.004320,442.000000,406.000000,36.000000,23.000000,0.000000,0.000000,0.000000,0.000000,0.000000,0.545544,0.581164,0.311034,0.198716,0.004320,442.000000,406.000000,36.000000,23.000000,0.000000,0.000000,0.000000,0.000000,0.000000;
#CREDIT:Pandemonium X;
#NOTES:
0000
0000
0000
0000
,
0000
0000
0000
0000
,
0000
0000
0000
0000
,
0000
0000
0000
0000
,
0000
0000
0000
0000
,
1000
0100
1000
0010
,
0100
0000
0010
0000
1000
0010
1000
0001
,
0010
0100
1000
0100
,
0010
0100
1000
0001
0000
0000
0000
0000
,
2000
0100
0010
0100
,
0010
0000
0100
0000
3010
0100
0010
1000
,
0001
0010
0001
1000
,
0001
0100
0001
1000
0000
0000
0000
0000
,
0001
1000
0100
0010
,
0100
0000
1000
0000
0100
0010
0001
0100
,
0010
0100
0001
1000
,
0001
0010
0001
0100
0000
0000
0000
0000
,
0010
0000
0010
0100
0000
0100
0010
0000
,
0001
0000
1000
0001
0010
0000
1100
0000
,
0100
0000
1000
0000
0010
0100
0001
1000
,
0001
0000
0010
0100
1000
0000
1100
0000
,
0100
0100
1000
0010
0000
0100
0010
1000
,
0001
0000
0010
0001
0100
0000
1010
0000
,
1000
0000
0001
0000
0010
0001
0100
0000
,
0010
0000
0000
1001
0000
1000
0100
0001
,
0100
1000
0000
0011
0000
0001
0100
0001
,
1000
0000
0001
1000
0100
0000
0011
0000
,
0001
0000
0100
0000
0010
1000
0010
0000
,
0100
0000
0010
1000
0100
0000
1100
0000
,
1000
1000
0001
1000
0000
1000
0100
0010
,
0001
0000
0010
0001
0100
0000
1010
0000
,
0100
0000
0001
0000
1000
0001
0010
0000
,
0100
0000
0000
0011
0000
0010
0001
1000
,
0100
0100
0000
1001
0000
0000
0000
0000
,
1020
0000
0130
0001
0100
0001
0100
0001
,
0000
1000
0100
0010
0001
0000
0010
0100
,
0000
0100
1000
0100
1000
0100
1000
0100
,
0000
0000
0011
0000
0000
0010
0001
1000
,
0010
0000
0100
0001
0100
0001
0100
0001
,
0000
0100
0001
0010
0001
0000
1000
0010
,
0000
0100
0010
0100
0010
0100
0010
0100
,
0000
0000
0020
0000
1030
0100
0010
0001
,
1000
0000
0001
0000
0100
0000
0001
0010
,
0000
0100
1100
0000
0000
1000
1001
0000
,
0001
0000
0100
0001
0000
0011
0000
2100
,
0000
0000
0000
0000
3100
0010
0001
1000
,
0001
0000
1000
0000
0001
0100
0001
1000
,
0000
0001
0000
0010
0000
0100
0010
0001
,
1000
0001
0000
0100
0010
0000
1000
0001
,
0000
0100
0010
0000
1000
0010
0000
0100
,
0001
0000
1000
0010
0000
0100
0001
0000
,
1000
1000
0000
0001
0001
0000
0100
0100
,
0000
0010
0010
0000
0100
0000
0010
0000
,
1000
0002
0023
0230
,
1300
0000
0000
0011
0000
0000
0102
0000
,
0000
0000
0103
0001
1000
0000
1000
0100
,
0110
0000
0000
1100
0000
0000
1020
0000
,
0000
0000
1030
0010
0100
0000
0001
0000
,
1000
0100
1000
0010
,
0100
0001
0010
0100
,
0020
0032
0203
0320
,
0130
0010
1000
0001
0000
1000
0100
0010
,
0011
0000
0000
1100
0000
0000
0120
0000
,
0000
0000
0130
0010
0001
0000
1000
0001
,
0101
0000
0000
1010
0000
0000
2100
0000
,
0000
3100
1000
0010
0100
0000
0001
0000
,
1001
0000
0000
1000
0010
0010
1000
0001
,
0000
0011
0000
0110
0000
0100
0010
0001
,
1000
0000
0001
0000
0100
0000
0010
1000
,
0200
0000
0000
0000
0000
0000
0000
0320
,
0000
0000
0000
0000
,
0130
0000
0010
0001
1000
0000
0101
0000
,
0001
0000
1000
0000
0100
1000
0100
0000
,
1000
0000
0010
1000
0100
0000
0011
0000
,
0001
0001
1000
0001
0000
0100
0010
0000
,
1000
0000
0010
1000
0100
0000
0110
0000
,
0010
0000
0100
0000
1000
0001
1000
0000
,
0001
0000
0100
0001
0010
0000
1100
0000
,
0100
0100
1000
0010
0000
0100
0010
1000
,
1002
1000
0100
0100
,
0010
0000
0010
0000
1003
0100
0010
0001
,
0200
0010
0001
0001
,
0310
1000
0001
1000
0000
0100
0010
0000
,
0002
0100
1000
1000
,
0010
0000
0010
0000
1003
0100
0010
0100
,
2000
0100
0010
0010
,
3001
1000
0100
0010
0000
0100
1000
0000
,
0001
1000
0001
0000
0220
0000
0000
0000
0000
0000
0000
0000
0000
0000
0000
0000
,
0000
0000
0000
0000
,
0000
0000
0000
0000
0000
0000
0000
0000
0000
0000
0300
0030
0000
0000
0000
0000
;

//---------------dance-single - ----------------
#NOTEDATA:;
#CHARTNAME:;
#STEPSTYPE:dance-single;
#DESCRIPTION:;
#CHARTSTYLE:;
#DIFFICULTY:Easy;
#METER:8;
#RADARVALUES:0.309800,0.426484,0.112318,0.164157,0.000000,251.000000,238.000000,13.000000,19.000000,0.000000,0.000000,0.000000,0.000000,0.000000,0.309800,0.426484,0.112318,0.164157,0.000000,251.000000,238.000000,13.000000,19.000000,0.000000,0.000000,0.000000,0.000000,0.000000;
#CREDIT:Pandemonium X;
#NOTES:
0000
0000
0000
0000
,
0000
0000
0000
0000
,
0000
0000
0000
0000
,
0000
0000
0000
0000
,
0000
0000
0000
0000
,
1000
0100
1000
0010
,
0100
0010
1000
1000
,
0001
0010
0001
0100
,
0001
0000
0000
1010
0000
0000
1000
0000
,
0200
0000
0000
0000
,
0000
0310
0001
0010
,
0200
0000
0000
0000
,
0310
0000
0000
1001
0000
0000
0000
0000
,
1000
0001
0100
0001
,
0010
0001
1000
0100
,
0010
0100
1000
0010
,
0100
0000
0000
0110
0000
0000
0000
0000
,
1000
0000
1000
0001
0000
0000
0000
0000
,
1001
1000
0001
0001
,
0100
0010
1000
0100
,
0010
0100
1000
1000
,
0100
0000
0000
1000
0000
0000
0010
0000
,
0100
0010
1000
1000
,
0001
0010
0001
0100
,
0001
0000
0000
1000
0000
0000
0000
0000
,
0010
0000
0000
0100
0000
0000
0000
0000
,
0010
1000
0100
0100
,
1000
0010
0100
0001
,
0010
0100
0010
0010
,
0100
0000
0000
1000
0000
0000
0100
0000
,
1000
0010
0100
0100
,
0010
1000
0001
0010
,
0001
0000
0000
1000
0000
0000
0000
0000
,
0001
0000
0000
0100
0000
0000
0000
0000
,
0010
0000
2000
0000
0000
0000
0000
3000
,
0000
0001
1000
0100
,
0000
0020
0000
0000
0000
0000
0000
0030
,
0000
0100
0000
0010
,
0001
0000
2000
0000
0000
0000
0000
3000
,
0000
0001
1000
0010
,
0000
0200
0000
0000
0000
0000
0000
0300
,
0000
0010
1000
0010
,
0100
0000
0000
0000
0010
0000
0000
1000
,
0000
0000
0000
0000
,
0001
0000
0000
1000
0000
0001
0000
0100
,
0000
0000
0010
0100
,
0001
0000
0000
0000
1000
0000
0000
0100
,
0000
1000
0000
0010
0000
0000
0100
0000
,
0010
0000
0000
1000
0000
0000
0100
0000
,
0000
0001
0000
0000
0100
0000
0000
1000
,
0000
0000
0010
0000
0000
0001
0000
0000
,
0110
0000
0000
1001
0000
0000
1010
0000
,
0000
0101
0000
0000
0001
0000
0010
0000
,
0100
2000
0000
0000
,
3100
0000
0000
1000
0000
0000
0020
0000
,
0000
0130
0010
1000
,
0001
0000
0000
0010
0000
0000
0002
0000
,
0000
0013
0001
0100
,
0001
1000
0100
1000
,
0010
0100
0001
1000
,
0002
1003
2000
3001
,
1000
0000
0000
0001
0000
0000
0100
0000
,
0010
0000
0000
1000
0000
0000
0200
0000
,
0000
1300
0100
0010
,
0001
0000
0000
0010
0000
0000
0200
0000
,
0000
0310
0100
1000
,
0010
0000
0100
0000
,
0010
0000
1000
0001
,
1000
0100
1000
0010
,
0100
0000
0000
0000
0000
0000
0000
0020
,
0000
0000
0000
0000
,
0230
0000
0000
0000
,
0000
0000
0000
0000
,
0301
1000
0100
0100
,
1000
0000
0000
1010
0000
0000
0100
0000
,
0010
1000
0010
0100
,
0010
1000
0001
0010
,
0100
0010
0001
0010
,
0100
0000
0000
0011
0000
0000
0001
0000
,
2000
0000
0000
0000
,
0000
3001
1000
0100
,
2000
0000
0000
0000
,
3100
0000
0000
1100
0000
0000
0010
0000
,
0100
0010
1000
0001
,
0010
1000
0010
0001
,
0010
0100
1000
0100
,
0010
0000
0000
0011
0000
0000
0000
0000
,
0010
2002
0000
0000
,
0000
0000
0000
0000
,
0000
0000
0000
3003
;

//---------------dance-double - ----------------
#NOTEDATA:;
#CHARTNAME:;
#STEPSTYPE:dance-double;
#DESCRIPTION:;
#CHARTSTYLE:;
#DIFFICULTY:Medium;
#METER:12;
#RADARVALUES:0.524561,0.774885,0.406072,0.371513,0.004320,425.000000,378.000000,47.000000,43.000000,0.000000,0.000000,0.000000,0.000000,0.000000,0.524561,0.774885,0.406072,0.371513,0.004320,425.000000,378.000000,47.000000,43.000000,0.000000,0.000000,0.000000,0.000000,0.000000;
#CREDIT:Pandemonium X;
#NOTES:
00000000
00000000
00000000
00000000
,
00000000
00000000
00000000
00000000
,
00000000
00000000
00000000
00000000
,
00000000
00000000
00000000
00000000
,
00000000
00000000
00000000
00000000
,
00000000
00000000
00000000
00000000
,
00000000
00000000
00000000
00000000
,
00000000
00000000
00000000
00000000
,
00000000
00000000
00000000
00000000
,
10000000
00100000
01000000
00010000
,
00100000
00000000
00001000
00000000
00010000
00000100
00001000
00000010
,
00000100
00000001
00000010
00000100
,
00000010
00000001
00000000
00002200
00000000
00003000
00000300
00000000
,
00001000
00000100
00010000
00001000
,
01000000
00000000
00100000
00000000
10000000
00100000
01000000
00010000
,
00100000
00001000
00010000
00000010
,
00000100
00000010
00000000
00001010
00000000
00001000
00000100
00010000
,
00001000
00000000
00010000
00001000
00000000
00001000
00010000
00000000
,
00000100
00000000
00010000
00001000
00100000
00000000
00110000
00000000
,
00200000
01300000
20000000
30100000
,
01000000
00000000
00010000
00100000
00001000
00000000
00011000
00000000
,
00010000
00000100
00000000
00001100
00000000
00001000
00000100
00000010
,
00000001
00000000
00000010
00000001
00000100
00000000
00001010
00000000
,
00000020
00001030
00000200
00001300
,
00001200
00000000
00000000
00010300
00000000
00001000
00100000
00001000
,
00021000
00000000
00000000
00030010
00000000
00000010
00000100
00000001
,
00001000
00000000
00000100
00010000
00001000
00000000
00101000
00000000
,
00002000
01003000
00200000
10300000
,
01000000
00000000
00100000
00001000
00010000
00000000
00010100
00000000
,
00010000
00000100
00010000
00002000
00000000
00013000
00001000
00100000
,
01000000
00000000
10000000
00100000
01000000
00000000
01010000
00000000
,
00020000
00130000
02000000
13000000
,
10020000
00000000
00000000
01030000
00000000
01000000
00001000
00010000
,
00001000
00010000
00000000
00000020
00000000
00000000
00000000
00000000
,
00000230
00000000
00000310
00001000
00000010
00001000
00000010
00001000
,
00000000
00000010
00000100
00000000
00000001
00000000
00001000
00000200
,
00000000
00010300
00001000
00010000
00001000
00010000
00001000
00010000
,
00000000
00000000
00101000
00000000
00000000
00010000
01000000
00100000
,
20000000
00000000
31000000
00100000
01000000
00100000
01000000
00100000
,
00000000
01000000
10000000
00000000
00100000
00000000
01000000
00020000
,
00000000
00130000
00001000
00100000
00001000
00100000
00001000
00100000
,
00000000
00000000
00020000
00000000
01030000
00010000
00100000
00001000
,
00010000
00000000
00000100
00000000
00001000
00000010
00000100
00000010
,
00000000
00000100
00001001
00000000
00000000
00000010
00001001
00000000
,
00001010
00000000
00000100
00001100
00000000
00010100
00000000
02001000
,
00000000
00000000
00000000
00000000
03001000
00100000
00001000
00010000
,
00000020
00000000
00000130
00000000
00000010
00001000
00000100
00001000
,
00000000
00010100
00000000
00011000
00000000
00001000
00010000
00000100
,
00010000
00010000
00000000
00000010
00000010
00000000
00000100
00000100
,
00000000
00000010
00000010
00000000
00001000
00001000
00000000
00000100
,
00000100
00000000
00010000
00010000
00000000
00001000
00001000
00000000
,
00110000
00110000
00000000
11000000
11000000
00000000
10100000
10100000
,
00000000
01010000
01010000
00000000
00100000
00000000
00100000
00000000
,
00100000
00200000
00302000
00023000
,
00030100
00000000
00000000
00011000
00000000
00000000
00201000
00000000
,
00000000
00000000
00301000
01000000
00100000
00000000
10000000
00010000
,
01010000
00000000
00000000
01001000
00000000
00000000
00021000
00000000
,
00000000
00000000
00030100
00001000
00000010
00000000
00000100
00000000
,
00000001
00000000
00000010
00000000
00000001
00000000
00000100
00000010
,
00000000
00001000
00000100
00010000
00000100
00000000
00001000
00000000
,
00000020
00020030
00032000
00203000
,
00310000
00100000
01000000
10000000
00000000
01000000
10000000
00100000
,
01100000
00000000
00000000
01010000
00000000
00000000
00201000
00000000
,
00000000
00000000
00301000
00010000
00000100
00000000
00001000
00000010
,
00000110
00000000
00000000
00001010
00000000
00000000
00010200
00000000
,
00000000
00010000
00010300
00001000
00100000
00000000
01000000
00000000
,
10000000
00000000
00000000
01000000
01000000
00100000
01000000
10000000
,
00000000
10100000
00000000
01010000
00000000
01000000
00010000
00100000
,
00001000
00000000
00010000
00000000
00000100
00000000
00010000
00001000
,
00200000
00000000
00000000
00000000
00000000
00000000
00000000
00302000
,
00000000
00000000
00000000
00000000
,
00013000
00000100
00001000
00000010
00000100
00000000
00000101
00000000
,
00000001
00001000
00000100
00000010
,
00000100
00001000
00000010
00010000
00001000
00000000
00011000
00000000
,
00001000
00010000
00002000
02000000
00000000
00003000
03000000
00000000
,
00010000
01000000
00100000
10000000
01000000
00000000
01100000
00000000
,
01000000
00000000
00100000
00000000
01000000
10000000
00100000
01000000
,
00100000
01000000
00010000
00100000
00001000
00000000
00011000
00000000
,
00010000
00000100
00010000
00000010
00000000
00000100
00000010
00001000
,
00000200
00000000
00000000
00000000
,
00000300
00010000
00001000
01000000
00001000
00010000
00000010
00001000
,
00000002
00000000
00000000
00000000
,
00000013
00000001
00000200
00000020
00000000
00000300
00000030
00000000
,
00000100
00000010
00001000
00000100
,
00010000
00000000
00001000
00000000
00100000
00001000
00010000
00001000
,
01000000
00100000
10000000
01000000
,
00100000
01000000
10000000
00100000
00000000
01000000
00010000
00000000
,
00100000
00001000
00100000
00000000
00022000
00000000
00000000
00000000
00000000
00000000
00000000
00000000
00000000
00000000
00000000
00000000
,
00000000
00000000
00000000
00000000
,
00000000
00000000
00000000
00000000
00000000
00000000
00000000
00000000
00000000
00000000
00000000
00033000
00000000
00000000
00000000
00000000
;

//---------------dance-double - ----------------
#NOTEDATA:;
#CHARTNAME:;
#STEPSTYPE:dance-double;
#DESCRIPTION:;
#CHARTSTYLE:;
#DIFFICULTY:Easy;
#METER:8;
#RADARVALUES:0.319674,0.425890,0.190076,0.190076,0.000000,259.000000,237.000000,22.000000,22.000000,0.000000,0.000000,0.000000,0.000000,0.000000,0.319674,0.425890,0.190076,0.190076,0.000000,259.000000,237.000000,22.000000,22.000000,0.000000,0.000000,0.000000,0.000000,0.000000;
#CREDIT:Pandemonium X;
#NOTES:
00000000
00000000
00000000
00000000
,
00000000
00000000
00000000
00000000
,
00000000
00000000
00000000
00000000
,
00000000
00000000
00000000
00000000
,
00000000
00000000
00000000
00000000
,
00000000
00000000
00000000
00000000
,
00000000
00000000
00000000
00000000
,
00000000
00000000
00000000
00000000
,
00000000
00000000
00000000
00000000
,
20000000
00000000
00000000
00000000
,
30000000
00010000
01000000
00100000
,
02000000
00000000
00000000
03100000
,
10000000
00000000
00000000
00010000
00000000
00000000
00000000
00000000
,
00100000
00001000
00010000
00000100
,
00001000
00000010
00000100
00000001
,
00001000
00000100
00010000
00001000
,
01000000
00000000
00000000
00100000
00000000
00000000
00000000
00000000
,
10000000
00000000
10000000
00010000
00000000
00000000
00000000
00000000
,
00100000
00001000
00010000
00011000
,
00010000
00000100
00001000
00000010
,
00000100
00000001
00000010
00000110
,
00000100
00000000
00000000
00001000
00000000
00000000
00000000
00000000
,
00000100
00010000
00001000
00011000
,
00001000
01000000
00001000
00010000
,
00001000
00000000
00000000
00110000
00000000
00000000
00100000
00000000
,
01000000
00000000
00000000
11000000
00000000
00000000
00000000
00000000
,
10000000
00010000
00100000
11000000
,
01000000
10000000
00010000
00100000
,
00001000
00010000
00000100
00001100
,
00000001
00000000
00000000
00001000
00000000
00000000
00000010
00000000
,
00000100
00000010
00001000
00001100
,
00000100
00010000
00001000
00100000
,
01000000
00000000
00000000
11000000
00000000
00000000
10000000
00000000
,
00100000
00000000
00000000
01010000
00000000
00000000
00010000
00000000
,
00100000
00000000
00002000
00000000
00000000
00000000
00000000
00003000
,
00000000
00010000
00000100
00001000
,
00000020
00000000
00000000
00000000
00000000
00000000
00000000
00000030
,
00000000
00000100
00000000
00000010
,
00001000
00000000
00000200
00000000
00000000
00000000
00000000
00000300
,
00000000
00010000
00001000
01000000
,
00200000
00000000
00000000
00000000
00000000
00000000
00000000
00300000
,
00000000
01000000
00010000
00100000
,
00001000
00000000
00010000
00000000
00000100
00000000
00000000
00001000
,
00000000
00000010
00000100
00000000
00000000
00000010
00001000
00000000
,
00000100
00000000
00000000
00010000
00000000
00001000
00000000
00010000
,
00000000
00000000
00002000
02003000
,
03100000
00000000
00000000
00000000
10000000
00000000
00000000
00100000
,
00000000
01000000
00000000
00010000
00000000
00000000
00100000
00000000
,
01000000
00000000
00000000
00100000
00000000
00000000
00001000
00000000
,
00000000
00010000
00000000
00000000
00000100
00000000
00000000
00001000
,
00000000
00000000
00000010
00000000
00000000
00000100
00000000
00000000
,
00000101
00000000
00000000
00001010
00000000
00000000
00001100
00000000
,
00000000
00010100
00000000
00000000
00010000
00000000
00001000
00000000
,
00010000
00000200
00000000
00000000
,
00001300
00000000
00000000
00001000
00000000
00000000
00002000
00000000
,
00000000
00003100
00001000
00000100
,
00010000
00000000
00000000
00010000
00000000
00000000
00020000
00000000
,
00000000
00031000
01000000
00100000
,
10000000
01000000
00100000
01000000
,
10000000
00010000
00100000
01000000
,
20000000
30010000
00020000
00130000
,
00100000
00000000
00000000
00001000
00000000
00000000
00010000
00000000
,
00000010
00000000
00000000
00000010
00000000
00000000
00000020
00000000
,
00000000
00000130
00000001
00001000
,
00000100
00000000
00000000
00000100
00000000
00000000
00000200
00000000
,
00000000
00001300
00000100
00010000
,
00001000
00000000
00000000
00000000
00100000
00000000
00000000
00001000
,
00000000
00020000
00000000
00030200
00000000
00000000
00001300
00000000
,
00000010
00000100
00000001
00001000
,
00000200
00000000
00000000
00000000
00000000
00000000
00000000
00020300
,
00000000
00000000
00000000
00000000
,
00031000
01000000
00100000
01100000
,
01000000
00010000
00100000
00001000
,
00010000
00000100
00001000
00001100
,
00001000
00000000
00000000
00001001
00000000
00000000
00000000
00000000
,
00000001
00000100
00000010
00001010
,
00000100
00010000
00001000
00100000
,
00001000
01000000
00100000
10100000
,
01000000
00000000
00000000
01100000
00000000
00000000
00000000
00000000
,
20000000
00000000
00000000
00000000
,
00000000
31000000
00100000
00010000
,
00200000
00000000
00000000
00000000
,
00301000
00000000
00000000
00011000
00000000
00000000
00000000
00000000
,
00010000
00000100
00001000
00000010
,
00000100
00000001
00000010
00000100
,
00001000
00000100
00010000
00001000
,
00100000
00000000
00000000
00110000
00000000
00000000
00000000
00000000
,
01000000
10000000
00200000
00000000
00000000
00000000
00000000
00000000
,
00000000
00000000
00000000
00000000
,
00000000
00000000
00000000
00000000
00000000
00300000
00000000
00000000
;

//---------------dance-single - ----------------
#NOTEDATA:;
#CHARTNAME:;
#STEPSTYPE:dance-single;
#DESCRIPTION:;
#CHARTSTYLE:;
#DIFFICULTY:Beginner;
#METER:4;
#RADARVALUES:0.120958,0.226148,0.025919,0.000000,0.000000,98.000000,95.000000,3.000000,0.000000,0.000000,0.000000,0.000000,0.000000,0.000000,0.120958,0.226148,0.025919,0.000000,0.000000,98.000000,95.000000,3.000000,0.000000,0.000000,0.000000,0.000000,0.000000,0.000000;
#CREDIT:Pandemonium X;
#NOTES:
// measure 0
0000
0000
0000
0000
,  // measure 1
0000
0000
0000
0000
,  // measure 2
0000
0000
0000
0000
,  // measure 3
0000
0000
0000
0000
,  // measure 4
0000
0000
0000
0000
,  // measure 5
0000
0000
0000
0000
,  // measure 6
0000
0000
0000
0000
,  // measure 7
0000
0000
0000
0000
,  // measure 8
0000
0000
0000
0000
,  // measure 9
0010
0000
0000
0000
,  // measure 10
0000
0100
0000
0000
,  // measure 11
0010
0000
0000
0000
,  // measure 12
1000
0000
0000
0000
,  // measure 13
0001
0000
0000
0000
,  // measure 14
1000
0000
0000
0000
,  // measure 15
0010
0000
0000
0000
,  // measure 16
0100
0000
0000
0000
,  // measure 17
0001
0000
0000
0000
,  // measure 18
1000
0000
0000
0000
,  // measure 19
0001
0000
1000
0000
,  // measure 20
0010
0000
0000
0000
,  // measure 21
0100
0000
0000
0000
,  // measure 22
0010
0000
0000
0000
,  // measure 23
1000
0000
0100
0000
,  // measure 24
1000
0000
0000
0000
,  // measure 25
0001
0000
0000
0000
,  // measure 26
0100
0000
0000
0000
,  // measure 27
0010
0000
0000
0000
,  // measure 28
1000
0000
0000
0000
,  // measure 29
0001
0000
0000
0000
,  // measure 30
1000
0000
0000
0000
,  // measure 31
0010
0000
0000
0000
,  // measure 32
1000
0000
0000
0000
,  // measure 33
0001
0000
0000
0000
,  // measure 34
0100
0010
0000
0000
,  // measure 35
0000
0100
0000
0000
,  // measure 36
0001
0000
0000
0000
,  // measure 37
0000
1000
0000
0010
,  // measure 38
1000
0100
0000
0000
,  // measure 39
0000
0010
0000
0000
,  // measure 40
0001
0000
0000
0000
,  // measure 41
0000
1000
0000
0000
,  // measure 42
0001
0000
1000
0000
,  // measure 43
0000
0000
0000
0000
,  // measure 44
0010
0000
0000
0000
,  // measure 45
0000
0000
0100
0000
,  // measure 46
0010
0000
0000
0000
,  // measure 47
0000
0000
0000
0000
,  // measure 48
1000
0000
0000
0001
,  // measure 49
0000
0000
0100
0000
,  // measure 50
0000
0010
0000
0000
,  // measure 51
1001
0000
0000
0110
,  // measure 52
0000
0000
0001
0000
,  // measure 53
1000
0010
0000
0000
,  // measure 54
0100
0000
0000
0100
0000
0000
0100
0000
,  // measure 55
0000
0000
0000
0000
,  // measure 56
0010
0000
0000
0010
0000
0000
0010
0000
,  // measure 57
0000
0000
0000
0000
,  // measure 58
1000
0000
0000
0000
,  // measure 59
0001
0000
0000
0000
,  // measure 60
0100
0000
0010
0000
,  // measure 61
1000
0000
0000
0000
,  // measure 62
0001
0000
0000
0001
0000
0000
0001
0000
,  // measure 63
0000
0000
0000
0000
,  // measure 64
1000
0000
0000
1000
0000
0000
1000
0000
,  // measure 65
0000
0000
0000
0000
,  // measure 66
0010
0000
0000
0000
,  // measure 67
0100
0000
0000
0000
,  // measure 68
0001
0000
1000
0000
,  // measure 69
0010
0000
0000
0000
0000
0000
0000
0100
,  // measure 70
0000
0000
0000
0000
,  // measure 71
0010
0000
0000
0000
,  // measure 72
1000
0000
0000
0000
,  // measure 73
0001
0000
0000
0000
,  // measure 74
0010
0000
0000
0000
,  // measure 75
0001
0000
0000
0000
,  // measure 76
1000
0000
0000
0000
,  // measure 77
0010
0000
0000
0000
,  // measure 78
1000
0000
0000
0000
,  // measure 79
0100
0000
0000
0000
,  // measure 80
0000
0010
0001
1000
,  // measure 81
0010
0000
0000
0000
,  // measure 82
0100
0000
0000
0000
,  // measure 83
0010
0000
0000
0000
,  // measure 84
0000
0000
0100
0000
,  // measure 85
0010
0000
0000
0000
,  // measure 86
1000
0000
0000
0000
,  // measure 87
0010
1001
0000
0000
;
