#TITLE:Chariot;
#SUBTITLE:;
#ARTIST:USAO;
#TITLETRANSLIT:;
#SUBTITLETRANSLIT:;
#ARTISTTRANSLIT:;
#GENRE:;
#CREDIT:;
#MUSIC:Chariot.ogg;
#BANNER:Chariot-bn.png;
#BACKGROUND:Chariot-bg.png;
#CDTITLE:;
#SAMPLESTART:112.511;
#SAMPLELENGTH:15.000;
#SELECTABLE:YES;
#OFFSET:1.864;
#BPMS:0.000=128.000
,112.000=64.000
,112.250=128.000
,112.500=256.000
,113.000=128.000
,178.000=64.000
,178.250=128.000
,178.500=256.000
,179.000=128.000
,302.000=64.000
,302.250=128.000
,302.500=256.000
,303.000=128.000
;
#STOPS:112.000=0.938
,302.000=0.938
;
#DISPLAYBPM:128.000;
#BGCHANGES:;
#FGCHANGES:;

//--------------- dance-single - ----------------
#NOTES:
     dance-single:
     :
     Beginner:
     3:
     0,0,0,0,0:
0000
0000
0000
0000
,
0000
0000
0000
0000
,
0000
0000
0000
0000
,
0000
0000
0000
0000
,
1001
0000
0000
0000
,
1000
0000
1000
0000
,
0001
0000
0001
0000
,
0200
0300
0200
0300
,
0100
0000
0010
0000
,
1000
0000
0100
0000
,
0001
0000
0010
0000
,
1000
0000
1000
0000
,
1001
0000
0000
0000
,
0001
0001
0001
0000
,
1000
1000
1000
0000
,
0001
0000
0001
0000
,
0100
0000
0100
0000
,
0001
0001
0001
0000
,
1000
1000
1000
0000
,
0001
0000
0001
0000
,
0020
0000
0000
0030
,
0000
0001
0000
0001
,
0000
1000
0000
1000
,
0000
0001
0000
0001
,
0000
1000
0000
0010
,
0000
0100
0000
0100
,
0000
0010
0000
0010
,
0000
0100
0000
0100
,
0000
0000
0002
0003
,
0200
0300
2000
3000
,
0200
0300
0002
0003
,
0200
0300
2000
3000
,
0200
0300
0001
0000
,
0010
0000
1000
0000
,
0010
0000
0001
0000
,
0010
0000
1000
0000
,
0010
0000
0002
0000
,
0000
0000
0000
0000
,
0000
0003
1000
0000
,
1000
0000
0010
0000
,
0100
0000
0001
0000
,
0001
0001
1000
0000
,
1000
1000
0001
0000
,
0001
0001
1000
0000
,
0000
0000
0000
0000
,
1000
0000
0001
0000
,
0001
0000
0020
0030
,
0020
0030
0020
0030
,
0100
0000
1000
0000
,
0010
0000
0001
0000
,
0100
0000
1000
0000
,
1000
0000
1001
0000
,
0000
0000
0001
0000
,
0110
0000
1000
0000
,
0110
0000
0001
0000
,
0110
0000
1000
0000
,
0110
0000
0001
0000
,
0100
0000
1000
0000
,
0010
0000
0001
0000
,
0001
0000
2000
0000
,
0000
3000
0001
0000
,
0100
0000
1000
0000
,
0100
0000
0001
0000
,
0010
0000
1000
0000
,
0010
0000
0001
0000
,
0100
0000
1000
0000
,
0100
0000
0001
0000
,
0010
0000
1000
0000
,
0010
0000
0001
0001
,
0001
0000
1000
1000
,
1000
0000
0010
0000
,
0100
0000
0010
0000
,
0100
0000
0001
0001
,
0001
0000
1000
1000
,
1000
0000
0100
0000
,
0010
0000
0110
0000
,
1001
0000
0000
0000
;

//--------------- dance-single - ----------------
#NOTES:
     dance-single:
     :
     Easy:
     8:
     0,0,0,0,0:
0000
0000
0000
0000
,
0000
0000
0000
0000
,
0000
0000
0000
0000
,
1000
0000
0000
0010
0000
0000
0000
0000
0100
0000
0000
0001
0000
0000
0000
0000
,
1001
0000
0000
0000
0000
0010
0100
0000
,
0110
2000
3200
0310
,
0002
0000
0010
0000
1003
0001
1000
0000
,
0010
0101
0010
1100
,
0010
0000
0000
0000
0100
0000
0000
0200
0000
0000
0000
0000
0301
0000
0000
0000
,
0110
2000
3200
0302
,
2003
0000
3020
0000
0032
0000
1003
0001
,
1000
0000
0000
0000
0010
0000
0000
0100
0000
0100
0000
0100
0000
0000
0000
0000
,
1001
0000
0000
0000
,
0001
0010
0000
1000
0100
0000
0001
0010
,
0100
0000
1000
0000
0001
0010
0001
0000
,
0100
1010
0100
0011
,
0100
0000
0000
0000
0010
0000
0000
0020
0000
0000
0000
0000
1030
0000
0000
0000
,
0001
0100
0000
1000
0010
0000
0001
0100
,
0010
0000
1000
0000
0001
0010
0001
0000
,
1000
0000
0000
0000
0010
0000
0000
0100
0000
0100
0000
0100
0000
0000
0000
0000
,
0002
0000
0000
0003
,
1000
0100
0010
1000
,
0010
0001
1000
0010
,
0100
0010
0100
0000
0001
0000
1000
0000
,
0100
0000
0010
0000
0001
1000
0001
0000
,
1000
0010
0100
1000
,
0100
0001
1000
0100
,
0010
0100
0010
0000
0001
0000
1000
0000
,
1001
0000
0010
0000
2000
0000
3100
0010
,
2000
0000
3020
0000
0032
0000
0103
0010
,
0002
0000
0023
0000
2030
0000
3100
0010
,
2000
3020
0032
1000
,
0010
0000
1003
0000
0001
0100
0001
0000
,
0100
1000
0200
0301
,
1000
0000
0100
0000
1000
0100
1000
0000
,
0100
0000
0000
0000
0001
0000
0000
0000
0100
0000
0010
0000
0001
0000
0000
0002
,
0000
0003
2000
0000
,
0000
0000
0000
0000
,
0000
0000
0000
0000
3000
0000
0000
0000
0001
0000
0000
0001
0000
0000
0000
0000
,
0100
0000
0000
0010
0000
0000
0000
0000
0100
0000
0010
0000
1000
0000
0000
2000
,
0000
3000
0001
0001
,
0100
0100
1000
1000
,
0010
0000
0010
0000
0001
0100
1000
0000
,
1000
0010
0001
0000
1001
0000
0000
0000
,
0000
0000
0000
2001
,
3200
0310
0002
0010
,
1003
0000
0000
1000
0000
0000
1000
0000
0010
0000
0000
0000
0101
0000
0000
0000
,
0010
0000
0000
0000
1100
0000
0000
0000
0010
0000
0000
0000
0100
0000
0000
0200
,
0000
0301
1000
0002
,
0023
2030
3002
2003
,
3010
0001
0010
0000
0001
1000
0001
0000
,
0100
0010
0110
0000
,
0000
0000
0000
0000
0000
0000
0000
0000
1000
0000
0000
1000
0000
0000
1000
0000
,
0100
0000
0010
0000
0100
0000
0000
0000
0001
0000
0000
0001
0000
0000
0001
0000
,
0100
0000
0010
0000
0100
0000
0000
0000
1000
0000
0000
1000
0000
0000
1000
0000
,
0010
0000
0100
0000
0010
0000
0000
0000
0001
0000
0000
0001
0000
0000
0001
0000
,
0010
0100
0010
0000
1000
0000
0002
0000
,
0023
2030
3002
2003
,
3010
0000
0001
0000
0010
0000
0000
0000
0001
0000
1000
0000
0001
0000
0000
0100
,
0000
0100
0000
0100
0000
0000
0000
0000
0020
0000
0000
0000
0000
0000
0000
0000
,
0000
0030
1000
0100
,
0001
0100
0001
0000
1000
0000
0010
0000
,
0001
0010
0001
0000
1000
0000
0010
0000
,
0001
0000
0010
0000
0001
0000
0000
0000
0010
0000
0100
0000
0001
0000
0000
0002
,
0000
0003
0001
0100
,
1000
0100
1000
0000
0001
0000
0010
0000
,
1000
0010
1000
0000
0001
0000
0010
0000
,
1000
0000
0010
0000
1000
0000
0000
0000
0010
0000
0100
0000
1000
0000
0000
2000
,
0000
0000
3000
0000
0001
0100
0000
1000
,
0010
0000
0001
0100
0010
0000
1000
0000
,
0001
0010
0001
0000
1000
0000
1000
0000
,
0100
0100
0010
0010
,
0001
0001
1000
0000
0001
0010
0000
1000
,
0100
0000
0001
0010
0100
0000
1000
0000
,
0001
0100
0001
0000
1000
0000
0100
0000
,
0001
0010
0110
0000
,
1001
0000
0000
0000
;

//--------------- dance-single - ----------------
#NOTES:
     dance-single:
     :
     Medium:
     13:
     0,0,0,0,0:
0000
0000
0000
0000
,
0000
0000
0000
0000
,
0000
0000
0000
0000
,
0001
0000
0000
0100
0000
0100
0000
0000
1000
0000
0100
0010
0000
0100
0010
0000
,
1001
0000
0000
0001
0000
0000
0010
0000
0100
0000
0110
0000
1001
0000
0000
0000
,
0110
0000
1000
1000
0100
0001
0100
0010
,
0002
0000
0010
0000
2003
0000
0010
0000
3001
0000
0010
0100
0000
0100
0000
0000
,
2000
0000
0000
3100
0000
0000
0001
0000
2000
0000
0000
3010
0000
0000
0001
0000
,
1000
0000
0010
0000
0200
0000
0000
1000
0000
0000
0310
0000
0100
0000
0001
0000
,
1000
1000
0001
0010
1000
0010
0001
0010
,
1000
0010
0001
0010
1000
0010
0001
0001
,
0100
0000
0000
0000
0010
0000
0000
1010
0000
0011
0000
1010
0000
0000
1000
0000
,
1001
0000
0000
0110
,
1000
0100
0001
1000
0100
0001
1000
0100
,
0001
1000
0100
1000
0001
0001
0100
0100
,
0010
0000
0000
1000
0000
1000
0000
0000
0001
0000
0010
0000
0100
0000
0001
0000
,
0100
0010
0001
1000
0010
0110
1001
0000
,
0001
0100
1000
0001
0100
1000
0001
0100
,
1000
0001
0100
0001
1000
1000
0100
0100
,
0010
0000
0000
0001
0000
0001
0000
0000
1000
0000
0010
0000
0100
0000
0001
0000
,
1000
0100
0001
1000
0020
1000
0100
0031
,
1001
0000
0000
0000
1000
0000
0000
0000
0010
0100
0000
0002
0000
0000
1003
0000
,
0100
0000
0000
0100
0000
0000
0100
0000
0010
0100
0000
0100
0000
0000
1000
0000
,
0001
0000
0001
0000
0100
0000
0000
0000
0010
0100
0000
0002
0000
0000
1003
0000
,
0100
0000
0000
0100
0000
0000
0100
0000
0010
0001
0000
1000
0100
0000
1000
0000
,
1001
0000
0000
0000
0001
0000
0000
0000
0100
0010
0000
2000
0000
0000
3001
0000
,
0010
0000
0000
0010
0000
0000
0010
0000
0100
0010
0000
0010
0000
0000
0001
0000
,
1000
0000
1000
0000
0010
0000
0000
0000
0100
0010
0000
1000
0000
0000
0001
0000
,
1001
0000
0000
0000
0220
0000
0330
0000
1000
0100
0000
1000
0100
0000
0020
0000
,
1000
0000
0000
0000
0100
0000
0000
0000
0031
0100
0000
0001
0100
0000
0020
0000
,
0001
0000
0000
0000
0100
0000
0000
0000
1030
0100
0000
1000
0100
0000
0020
0000
,
1000
0000
0000
0000
0100
0000
0000
0000
0031
0000
0000
1000
0200
0000
0000
0000
,
0320
0000
0000
0000
0031
0000
1000
0000
0010
0100
0000
0010
0100
0000
1000
0000
,
0100
0000
0001
0000
1000
0000
0100
0000
0010
0100
0000
0010
0100
0000
0001
0000
,
0100
0000
1000
0000
0001
0000
0100
0000
0010
0100
0000
0010
0100
0000
1000
0000
,
0100
0000
0001
0000
1000
0000
0100
0000
0020
0000
0230
0000
0302
0000
0103
0010
,
0000
0010
0000
0000
0110
0000
0000
0000
0001
0000
0100
0000
0001
0000
0000
0000
,
0100
1000
0100
0000
1000
0010
1000
0000
,
0010
0001
0010
0000
0001
0100
0001
0000
,
0100
1000
0100
0000
0001
0100
1000
0001
,
0100
0000
1000
0000
1001
0000
0000
0000
0001
0000
0000
0010
0000
0010
0000
0010
,
0000
0010
0000
0010
0000
0000
0000
0000
1000
0000
0000
0010
0000
0010
0000
0000
,
0010
0000
0010
0000
0010
0000
0000
0000
0001
0100
0000
0010
0000
0010
0000
0000
,
1000
0100
0000
0002
0000
0000
0103
0000
0110
0000
0000
0000
0000
0000
0000
0000
,
0000
0000
0000
0000
2000
0000
3001
0001
,
0100
1000
0100
0010
2000
0010
3002
0010
,
1003
0000
0000
1100
0000
0000
0101
0000
0001
0000
0001
0000
1000
0000
0100
0000
,
0002
0000
0000
0103
0000
0000
1000
0000
0001
0000
0100
0000
1000
0100
0000
0010
,
0000
0010
1000
0000
0001
0000
0000
0000
1001
0000
0000
0000
1000
0000
0010
0000
,
0001
0010
1000
0010
0002
1000
0013
0100
,
0001
0000
0101
0000
1000
0000
1100
0000
0001
0000
0100
0000
0010
0000
0000
1010
,
0000
0011
0000
1010
0000
0000
1000
0000
1001
0000
0000
0000
0001
0000
0000
0010
,
0000
0000
0100
0000
1100
0000
0000
0000
1001
0000
0000
1000
0000
0000
1000
0000
,
0010
0100
0010
0100
2000
0000
0000
0000
3100
0000
0010
0100
0000
0010
0100
0000
,
0101
0000
0001
1000
0200
0000
0000
0000
0310
0000
0000
0010
0000
0000
0010
0000
,
0001
0010
0001
0010
0001
0010
0001
0010
0200
0000
0000
0000
1300
0001
1000
0000
,
0010
0100
0010
0100
0000
0000
0000
0000
1001
0000
0000
0000
0001
0000
0100
0000
,
1000
0100
0001
0100
2000
0001
3100
0010
,
1000
0000
0001
0000
0010
0000
0100
0000
1000
0000
1000
0000
0001
0000
0000
0101
,
0000
1100
0000
0101
0000
0000
0100
0000
0010
0000
1000
0000
0100
0000
0010
0000
,
0001
0000
1000
0000
1001
0000
0000
0000
0002
0000
0000
0103
0000
0000
0010
0000
,
1000
0010
0000
0002
0000
0000
0013
0000
0200
0000
0000
0301
0000
0000
1000
0000
,
0001
0000
0010
0001
0000
0010
0001
0000
2000
0000
0000
3010
0000
0000
0100
0000
,
0001
0100
0000
2000
0000
0000
3100
0000
0010
0000
0100
0000
0001
0000
0100
0010
,
0000
0010
0000
0000
1000
0000
0001
0000
1000
0000
1000
0000
0100
0000
0010
0000
,
0001
0010
0000
2000
0000
0000
3010
0000
0200
0000
0000
1300
0000
0000
0001
0000
,
1000
0000
0010
1000
0000
0010
1000
0000
0002
0000
0000
0013
0000
0000
0100
0000
,
1000
0100
0000
0002
0000
0000
0103
0000
0020
0000
0230
0000
2300
0000
3100
0010
,
0000
0010
0000
0000
0001
0000
1000
0000
0001
0000
0010
0000
1000
0000
0001
0000
,
0010
1000
0001
0010
1000
0001
0010
0001
,
1000
0000
1000
0000
0010
0000
0010
0000
0100
0000
0000
0100
0000
0000
0001
0000
,
0010
0000
0000
0010
0000
0000
0001
0000
0100
0000
0000
0100
0000
0000
0001
0000
,
1000
0100
1000
0000
0011
0000
0000
0000
1000
0000
0010
0000
0001
0000
1000
0000
,
0010
0001
1000
0010
0001
1000
0010
1000
,
0001
0000
0001
0000
0010
0000
0010
0000
0100
0000
0000
0001
0000
0000
1000
0000
,
0010
0000
0000
0001
0000
0000
1000
0000
1001
0000
0000
0000
0000
0000
0000
0000
,
0110
0000
0000
0000
;

//--------------- dance-single - ----------------
#NOTES:
     dance-single:
     :
     Hard:
     16:
     0,0,0,0,0:
0000
0000
0000
0000
,
0000
0000
0000
0000
,
0000
0000
0000
0000
,
0001
0000
1000
0010
0000
0010
0000
0100
0001
0000
1000
1000
0000
0001
0001
0000
,
0110
0000
0000
1000
0000
0000
0100
0010
0001
0000
0011
0000
1100
0000
0000
0000
,
1001
0000
0000
0000
0000
0000
0000
0000
0000
0000
0000
0000
0001
0000
0000
0100
0000
0000
0001
0000
0000
0000
0000
0000
2000
0000
0000
0000
0000
0000
3100
0000
0000
0001
0000
0000
0000
0000
0000
0100
0000
0000
1000
0000
0001
0000
1000
0000
,
0002
0000
0203
0000
1300
0100
0002
0000
1003
0000
0001
0001
0000
0010
0100
0000
,
2000
0000
0000
3001
0010
0000
0200
0000
1300
0001
0000
0001
0010
0000
0100
0100
,
2000
0000
3001
0001
0100
0010
0000
0001
0000
0010
1000
0010
0100
0000
0001
0000
,
1010
0000
0100
0000
0001
1000
0100
0010
0000
1000
0100
0010
0000
1000
0010
0100
,
0000
1000
0010
0100
0000
1000
0100
0010
0000
1000
0100
0010
0001
0000
1000
1000
,
0010
0000
0000
0000
1000
0001
0010
0100
0000
0100
0000
0100
0000
0100
1000
0001
,
1001
0000
0000
0000
0000
0000
0000
0000
0000
0000
0000
0000
0110
0010
0100
0000
,
1000
0100
0010
0100
0001
1000
0010
0100
0010
0001
1000
0010
1000
0001
0100
0010
,
0001
1000
0100
0010
1000
0001
0010
0100
0002
0000
0103
1000
0001
1000
0010
0100
,
0002
0000
0000
1003
0100
0000
0020
0000
0031
1000
0000
1000
0100
0000
0010
0010
,
0002
0000
1003
1000
0010
0100
0000
1000
0000
0100
0001
0100
0020
0000
0030
0000
,
0100
0000
0100
0000
1000
0001
0010
0100
0010
1000
0001
0100
0001
1000
0100
0010
,
1000
0001
0100
0010
0001
1000
0010
0100
2000
0000
3100
0001
1000
0001
0010
0100
,
1000
0000
1000
0000
0001
0000
0100
0010
0000
0010
0000
0010
0000
0010
1000
0001
,
0010
0000
0100
0000
0010
0000
0100
0000
0000
1000
0000
0000
0001
0000
0000
0100
0000
0000
0010
0000
0000
0200
0000
0000
1000
0000
0000
0000
0000
0000
0010
0000
0000
0000
0000
0000
0301
0000
0000
0000
0000
0000
0110
0000
0000
0000
0000
0000
,
1000
0000
0010
0000
1001
0000
0000
0000
1000
0100
0010
0000
0001
0010
0001
0010
,
0001
0000
1000
0010
0100
0000
0000
0000
0001
0100
0010
0000
0001
0000
0011
0000
,
0010
0000
1000
0001
0010
0000
0000
0000
0001
0010
0000
0010
0001
0000
1000
0010
,
0100
0001
0000
0100
0001
0010
0100
1000
0001
0100
0000
1000
0010
0000
1001
0000
,
1100
0000
0100
0000
0020
0000
0130
0000
1000
0100
0001
0000
0101
0000
0000
0000
,
0100
1000
0001
0000
1000
0010
1000
0010
1000
0000
0001
0010
0100
0000
0000
0000
,
1000
0001
1000
0010
0100
0000
0000
0100
0010
0100
0010
0000
1000
0000
0001
0000
,
1001
0000
0000
0000
2100
0000
0000
0000
3001
0100
0000
0100
1000
0000
0010
0000
,
0002
0000
0000
0000
0100
0000
0000
0000
1003
0100
0000
0100
0001
0000
0010
0000
,
2000
0000
0000
0000
0100
0000
0000
0000
3001
0100
0000
0100
1000
0000
0010
0000
,
0002
0000
0000
0000
0100
0000
0000
0000
1003
0000
0000
0100
0002
0000
0000
0000
,
0203
0000
0000
0000
1300
0000
0001
1000
0001
0100
0000
0100
1000
0000
0010
0000
,
0001
0000
0000
0000
0000
0000
0000
0100
0000
0000
0000
0000
0010
0000
0000
0000
0000
0000
0000
0100
0000
0000
0000
0000
0010
0000
0000
0000
0000
0000
0000
0000
0000
0000
0000
0000
1000
0000
0000
0000
0000
0000
0000
0000
0000
0000
0000
0000
0001
0000
0000
0000
0000
0000
0010
0000
0000
0000
0000
0000
0000
0000
0000
0000
0000
0000
0010
0000
0000
0000
0000
0000
1000
0000
0000
0000
0000
0000
0000
0100
0000
0000
0000
0000
0010
0000
0000
0000
0000
0000
0000
0000
0000
0000
0000
0000
,
1000
0000
0000
0000
0000
0000
0000
0000
0000
0000
0000
0000
0001
0000
0000
0000
0000
0000
0000
0100
0000
0000
0000
0000
0001
0000
0000
0000
0000
0000
0000
0000
0000
0000
0000
0000
1000
0000
0000
0000
0000
0000
0000
0000
0000
0000
0000
0000
0001
0000
0000
0000
0000
0000
0100
0000
0000
0000
0000
0000
0000
0000
0000
0000
0000
0000
0100
0000
0000
0000
0000
0000
1000
0000
0000
0000
0000
0000
0000
0000
0000
0000
0000
0000
0010
0000
0000
0000
0000
0000
0000
0000
0000
0000
0000
0000
,
0001
0000
0000
0000
0000
0000
0000
0100
0000
0000
0000
0000
0010
0000
0000
0000
0000
0000
0000
0100
0000
0000
0000
0000
0010
0000
0000
0000
0000
0000
0000
0000
0000
0000
0000
0000
1000
0000
0000
0000
0000
0000
0000
0000
0000
0000
0000
0000
0002
0000
0000
0000
0000
0000
0000
0000
0000
0000
0000
0000
0023
0000
0000
0000
0000
0000
0000
0000
0000
0000
0000
0000
0230
0000
0000
0000
0000
0000
0000
0000
0000
0000
0000
0000
0301
0000
0000
0000
0000
0000
0100
0000
0000
0000
0000
0000
,
0000
0200
0000
0000
1300
0000
0000
0000
0001
0000
0100
0000
0100
0000
0000
0010
,
0000
0010
0000
0010
0000
0000
0000
0000
1000
0000
0100
0000
0100
0000
0000
0010
,
0000
0010
0000
0010
0000
0000
0000
0000
0001
0000
0000
0001
0000
1000
0010
0100
,
0000
0010
0000
0002
0000
0000
0013
0000
0100
0001
1000
0010
0100
0000
0100
0001
,
1000
0010
0100
0000
0110
0000
0010
0100
0001
0000
0000
1000
0000
1000
0000
0100
,
0000
0100
0000
0010
0010
0000
0010
0000
0001
0001
0000
1000
0000
1000
0000
0010
,
0010
0000
0010
0100
0000
0000
0100
0000
0001
0001
0000
1000
0000
1000
0100
0100
,
0010
0001
0100
0010
1000
0100
0010
0001
1001
0000
0000
0000
0000
0000
0000
0000
,
0000
0000
0000
0000
0000
0000
2000
0000
0000
0000
0000
0000
3020
0000
0000
0000
0000
0000
0031
0000
0000
0010
0100
0010
,
0100
0000
0000
0001
0000
0000
0000
0000
0000
0100
0000
0000
0000
0000
0000
0010
0000
0000
1000
0000
0001
0000
1000
0000
0002
0000
0000
0000
0000
0000
0023
0000
0000
0000
0000
0000
1030
0000
0000
0010
0000
0000
0002
0000
0000
0000
0000
0000
,
1003
0000
0001
0110
0000
0110
1000
0001
0010
0000
0010
0000
0100
0000
1000
0000
,
0001
1000
0000
1000
0020
0000
0130
0100
0001
1000
0100
0100
0020
1000
0000
0130
,
0000
0010
0100
0000
2000
0000
0000
0000
3010
0000
0000
0000
1000
0001
0100
0010
,
0000
0001
0100
0010
0000
0001
0010
0100
0000
0001
0020
0000
1000
0000
0130
0100
,
0000
1000
0001
0000
0100
0000
0010
0010
1000
0000
0110
0000
0001
1000
0100
0010
,
0000
0010
0000
0010
0000
0010
0001
1000
1001
0000
0000
0000
0101
0000
0100
0100
,
0010
0000
1000
0000
0001
0010
0100
2000
0001
0000
0000
0010
0000
0000
3010
0000
,
1000
0000
0010
0000
0010
0000
0010
0000
1000
0000
0001
0000
0010
0000
0100
0000
1000
0000
0001
0010
0001
0000
0000
0000
1000
0000
0001
0010
0001
0000
1000
0000
,
0010
0000
0000
0000
0100
0000
0100
0000
0002
0000
0000
0000
0000
0000
0000
0000
1003
0000
0000
0000
0000
0000
0001
0000
0010
0000
0100
0010
0100
0000
1000
0000
,
0001
0000
0100
0000
0100
0000
0100
0000
0100
0000
0100
0000
0100
0000
0100
0000
0002
0000
0000
0000
0003
0000
0000
0000
1000
0100
1000
0100
1000
0000
0001
0000
,
0100
0010
0100
0010
1000
0000
0001
0000
1001
0000
0000
0000
1000
0001
0010
0100
,
0000
0001
0010
0100
0000
0001
0100
0010
0000
0001
0100
0010
1000
0001
0010
0100
,
1000
0010
0100
0001
1000
0000
0100
0100
0010
0000
0010
0000
0001
1000
0010
0100
,
0000
0100
0000
0100
0000
0100
0001
1000
0100
0000
0010
0000
0001
0000
1000
0010
,
0100
0000
0101
0000
1010
0000
0000
0000
2000
0000
0000
3001
0000
0010
0100
1000
,
0001
0100
0000
2000
0000
0000
3100
0000
0002
0000
0000
1003
0000
1000
0100
0010
,
0001
0000
0100
0001
0000
1000
0020
0000
0100
0000
0000
0130
0000
0010
0100
0001
,
1000
0100
0000
0002
0000
0000
0103
0000
1000
0000
0010
0000
0100
0000
1000
0100
,
0000
0100
0000
0000
0001
1000
0100
0010
0001
0010
0001
1000
0000
0100
0010
0001
,
1000
0010
0000
0002
0000
0000
0013
0000
2000
0000
0000
3001
0000
0001
0010
0100
,
1000
0000
0010
1000
0000
0001
0200
0000
0010
0000
0000
0310
0000
0100
0010
1000
,
0001
0010
0000
2000
0000
0000
3010
0000
0002
0000
0203
0000
0320
0000
0031
0010
,
0100
0010
1000
0000
1001
0000
0001
0000
1000
0100
0010
0100
0001
1000
0010
0100
,
0010
0001
1000
0010
1000
0001
0100
0010
0001
1000
0100
0010
1000
0001
0010
0100
,
0002
0000
0103
1000
0001
1000
0010
0100
0001
0000
0000
0001
0000
0010
0100
0010
,
1000
0000
0000
1000
0000
0010
0100
0010
0001
0000
0000
0001
0000
1000
0001
0010
,
0100
0100
0100
0000
1000
0000
1001
0000
0001
0100
0010
0100
1000
0001
0010
0100
,
0010
1000
0001
0010
0001
1000
0100
0010
1000
0001
0100
0010
0001
1000
0010
0100
,
2000
0000
3100
0001
1000
0001
0010
0100
1000
1000
0000
0001
0000
0001
0100
0100
,
0010
0010
0000
1000
0000
0001
0010
0100
0001
0000
0000
0000
1000
0010
0100
1000
,
1001
0000
0000
0000
;

//--------------- dance-single - ----------------
#NOTES:
     dance-single:
     :
     Challenge:
     17:
     0,0,0,0,0:
0000
0000
0000
0000
,
0000
0000
0000
0000
,
0000
0000
0000
0000
,
0001
1000
0100
0100
1000
0001
0100
0010
1000
0001
0010
0010
0001
1000
0010
0100
,
0101
0000
0000
0001
1000
0000
0100
0100
0010
0000
0001
0001
0010
0100
1000
0000
,
1001
0000
0000
0000
0000
0000
0000
0000
0001
0000
0100
0000
020M
0000
0000
0000
1300
0000
0000
0100
0010
0000
0100
0000
0000
0000
0010
0000
0001
0000
1000
0010
,
2000
0000
3020
0000
0031
0010
2000
0000
3001
0000
0100
010M
0000
1000
0200
0000
,
0310
0100
0000
1000
0002
0000
0100
0000
0013
0100
0000
1000
0002
0000
0103
010M
,
2000
0000
3010
M010
0002
1000
0000
0103
0000
0010
0100
0001
2000
0000
3000
0000
,
1100
0000
0000
0000
0011
0000
0000
0000
0001
0000
1000
0010
1000
0000
0100
0000
0000
0000
0100
0000
0010
0000
0001
0000
0000
0000
0001
0000
1000
0000
0010
0000
,
0000
0000
0010
0000
0100
0000
0001
0000
0000
0000
0001
1000
0001
0000
0010
0000
0000
0000
0010
0000
0100
0000
1000
0100
1000
0000
0000
0000
0100
0000
M100
0000
,
0001
0000
0000
0000
1000
0001
0100
M10M
0000
M10M
0000
M10M
0000
M10M
0010
1000
,
1001
0000
0000
0000
000M
0000
00M0
0000
000M
0000
0000
0000
M000
0000
0000
0000
00M0
0000
0000
0M00
0000
0000
0M00
0000
0001
0000
1000
0100
1000
0000
0000
0000
,
0100
1000
0001
0010
0100
01M0
0001
1000
0010
0100
01M0
1000
0001
0010
0100
0010
,
1000
0001
1000
0010
0001
1000
0010
0100
2000
0000
3100
0001
1000
0010
1000
0001
,
0010
0100
0000
1000
0002
0000
0100
0000
0013
0100
0000
1000
0002
0000
0103
010M
,
2000
0000
3010
M010
0002
1000
0000
0103
0000
0010
0100
0001
2000
0000
3000
0000
,
1100
0000
0011
0000
0010
0M10
1000
0001
0100
0010
0M10
0001
1000
0100
0010
0100
,
0001
1000
0001
0100
1000
0001
0100
0010
0002
0000
0013
1000
0001
0100
0001
1000
,
0100
0000
0100
0000
0011
0000
0010
M01M
0000
M01M
0000
M01M
0000
M01M
0100
1000
,
0001
0000
0100
0010
0100
0000
0010
0000
0010
0000
1000
0000
1000
0000
0001
0000
0010
0000
0100
0000
1000
0000
0020
0000
0100
0000
0000
0000
0031
0000
0000
0000
,
0011
0000
0010
0000
1001
0000
0000
0000
1000
0100
0010
0000
0001
0010
0001
0010
,
0001
0000
1000
0010
0100
0000
0000
0000
0001
0100
0010
0000
0100
0000
11M0
0000
,
0001
0000
1000
0100
0010
0000
0000
0000
0001
0010
0000
0010
0001
0000
1000
0010
,
0100
0001
0000
0100
0001
0010
0100
1000
0001
0100
0000
1M00
0010
0000
1001
0000
,
1100
0000
0100
0000
0020
0000
0130
0000
1000
0100
0001
0000
0101
0000
0000
0000
,
0100
1000
0001
0000
1000
0010
1000
0010
1000
0000
0001
0010
0100
0000
0000
0000
,
1000
0001
1000
0010
0100
0000
0000
0100
0010
0100
0010
0000
1000
0000
0001
0000
,
1001
0000
0000
0000
MMMM
0000
0000
0000
40M0
0100
00M0
3100
0020
0000
1000
0000
,
0100
0000
0000
0000
0032
0000
0000
0000
4M03
0010
0M00
3010
0200
0000
1000
0000
,
0010
0000
0000
0000
0302
0000
0000
0000
40M3
0100
00M0
3100
0020
0000
1000
0000
,
0100
0000
0000
0000
0032
0000
0000
0000
2003
0000
0000
3010
0200
0000
0000
0000
,
1000
0000
0000
0000
0301
0000
1000
0100
M040
0001
M000
0031
1000
0000
0001
0000
,
0100
0000
0000
0000
0000
0000
0000
0010
0000
0000
0000
0000
0000
0000
0000
0000
0000
0000
0000
0100
0000
0000
0000
0000
0010
0000
0000
0000
0000
0000
0000
0000
0000
0000
0000
0000
1000
0000
0000
0000
0000
0000
0000
0000
0000
0000
0000
0000
0M04
0000
0000
0000
0000
0000
0010
0000
0000
0000
0000
0000
0M00
0000
0000
0000
0000
0000
0013
0000
0000
0000
0000
0000
0100
0000
0000
0000
0000
0000
0000
1000
0000
0000
0000
0000
0001
0000
0000
0000
0000
0000
0000
0000
0000
0000
0000
0000
,
0100
0000
0000
0000
0000
0000
0000
0000
0000
0000
0000
0000
0100
0000
0000
0000
0000
0000
0000
0010
0000
0000
0000
0000
1000
0000
0000
0000
0000
0000
0000
0000
0000
0000
0000
0000
0001
0000
0000
0000
0000
0000
0000
0000
0000
0000
0000
0000
M040
0000
0000
0000
0000
0000
0001
0000
0000
0000
0000
0000
M000
0000
0000
0000
0000
0000
0031
0000
0000
0000
0000
0000
1000
0000
0000
0000
0000
0000
0000
0000
0000
0000
0000
0000
0001
0000
0000
0000
0000
0000
0000
0000
0000
0000
0000
0000
,
0100
0000
0000
0000
0000
0000
0000
0010
0000
0000
0000
0000
0000
0000
0000
0000
0000
0000
0000
0100
0000
0000
0000
0000
0010
0000
0000
0000
0000
0000
0000
0000
0000
0000
0000
0000
1000
0000
0000
0000
0000
0000
0000
0000
0000
0000
0000
0000
0002
0000
0000
0000
0000
0000
0000
0000
0000
0000
0000
0000
0023
0000
0000
0000
0000
0000
0000
0000
0000
0000
0000
0000
0230
0000
0000
0000
0000
0000
0000
0000
0000
0000
0000
0000
0301
0000
0000
0000
0000
0000
0100
0000
0000
0000
0000
0000
,
0000
0200
0000
0000
1300
0000
0000
0000
0001
0000
0100
0000
0100
0000
0000
0010
,
0000
0010
0000
0010
0000
0000
0000
0000
1000
0000
0100
0000
0100
0000
0000
0010
,
0000
0010
0000
0010
0000
0000
0000
0000
0001
0000
0000
0001
0000
1000
0010
0100
,
0000
0010
0000
0002
0000
0000
0013
0000
0100
0001
1000
0010
0100
0000
0100
0001
,
1000
0010
0100
0000
0110
0000
0010
0100
0001
0000
0000
1000
0000
1000
0000
0100
,
0000
0100
0000
0010
0010
0000
0010
0000
0001
0001
0000
1000
0000
1000
0000
0010
,
0010
0000
0010
0100
0000
0000
0100
0000
0001
1000
0100
0100
1000
0001
0100
0010
,
1000
0001
0010
0010
0001
1000
0010
0100
0101
0000
M000
0M00
M000
0000
000M
0000
,
0M00
0000
0000
0000
0000
0000
0000
0000
0000
0000
0000
0000
0000
0000
0000
0000
0000
0000
00M0
0000
0000
0000
0000
0000
0000
0000
0000
0000
0000
0000
0000
0000
0000
0000
0000
0000
00M0
0000
0000
0000
0000
0000
0000
0000
0000
0000
0000
0000
0000
0000
0000
0000
0000
0000
0000
0000
0000
0000
0000
0000
0000
0000
0000
0000
0000
0000
0000
0000
0000
0000
0000
0000
0000
0000
0000
0000
0000
0000
0000
0000
0000
0000
0000
0000
0000
0000
0000
0000
0000
0000
0000
0000
0000
0000
0000
0000
0220
0000
0000
0000
0000
0000
0000
0000
0000
0000
0000
0000
0000
0000
0000
0000
0000
0000
0000
0000
0000
0000
0000
0000
0000
0000
0000
0000
0000
0000
0000
0000
0000
0000
0000
0000
0000
0000
0000
0000
0000
0000
0000
0000
0000
0000
0000
0330
1MM1
0000
0000
0000
0000
0000
0000
0000
0000
0000
0000
0000
0000
0000
0000
0000
0000
0000
0000
0000
0000
0000
0000
0000
0001
0000
0000
0000
0000
0000
0000
0000
0000
0000
0000
0000
1000
0000
0000
0000
0000
0000
0100
0000
0000
0000
0000
0000
,
1000
0000
0001
0000
0000
0000
0001
0000
0000
0000
0100
0000
0001
0000
1000
0100
2000
0000
0000
0000
3200
0000
0000
0000
0301
0000
0100
0000
2000
0000
0000
0000
,
3001
0000
0000
0000
1000
0000
0110
0000
0000
0000
0110
0000
0001
0000
0100
0010
0100
0000
0000
0000
0100
0000
0000
0000
0002
0000
0000
0000
1000
0000
0000
0000
,
0013
0100
0000
1000
0002
0000
0103
010M
1000
0001
0100
010M
2000
0001
0000
3010
,
0000
0000
0100
0000
0010
0000
0100
0000
0001
0000
0000
0000
1000
0000
0000
0000
1100
0000
0000
0000
0100
0000
0010
0000
0001
0000
1000
0100
1000
0000
0010
0000
,
0000
0010
0100
0001
0000
0001
1000
0100
0000
0100
0002
0000
1000
0000
0103
0010
,
0001
1000
0100
0000
1000
0000
0010
M010
0001
0000
1001
0000
1000
0001
0100
M10M
,
0000
M10M
0000
M10M
0000
M10M
0010
1000
1001
0000
0000
0000
4100
3000
0100
M100
,
0001
0000
0100
0000
0001
1000
0010
0200
0001
0000
0000
0010
0000
0000
0310
0000
,
1000
0000
0010
0000
M010
0000
0010
0000
0100
0000
0001
0000
1000
0000
0100
0000
0010
0000
0001
0010
0001
0000
1000
0000
0010
0000
0100
0010
0100
0000
0001
0000
,
0101
0000
0000
0000
0100
0000
010M
0000
2000
0000
0000
0000
0000
0000
0000
0000
3001
0000
0000
0000
0000
0000
0010
0000
0100
0000
1000
0100
1000
0000
0001
0000
,
0100
0000
0010
0000
0M10
0000
0010
0000
0010
0000
0010
0000
0010
0000
0010
0000
2000
0000
0000
0000
0000
0000
3001
0000
0010
0100
0010
0100
0010
0000
0001
0000
,
1000
0000
0010
0000
0M10
0000
0010
0000
1000
0000
0000
0000
0001
0000
0000
0000
1001
0000
0000
0000
0000
0000
0000
0000
1000
0000
0001
0100
0001
0000
0010
0000
,
0000
0000
0010
0000
0100
0000
1000
0000
0000
0000
1000
0001
1000
0000
0010
0000
0100
0000
0000
0000
0010
0000
1000
0010
1000
0000
0010
1000
0010
0000
0100
0000
,
0001
0000
1000
0000
0100
0000
0010
0100
0010
0000
0000
0000
0100
0000
01M0
0000
0001
0000
0000
0000
1001
0000
0000
0000
1000
0000
0001
0000
0100
0000
M10M
0000
,
0000
M10M
0000
M10M
0000
M10M
0010
1000
0001
0000
0040
0030
0001
0000
1000
0010
,
0100
0000
0101
0000
1010
0000
0000
0000
2000
0000
0000
3001
0000
0100
0010
1000
,
0001
0010
0000
2000
0000
0000
3010
0000
0002
0000
0000
1003
0000
1000
0010
0100
,
0001
0000
0010
0001
0000
1000
0200
0000
0010
0000
0000
0310
0000
0100
0010
0001
,
1000
0010
0000
0002
0000
0000
0013
0000
1000
0000
0100
0000
0010
0000
1000
0010
,
0000
0010
0000
0000
0001
1000
0010
0100
0001
0100
0001
1000
0000
0010
0100
0001
,
1000
0100
0000
0002
0000
0000
0103
0000
2000
0000
0000
3001
0000
0001
0100
0010
,
1000
0000
0100
1000
0000
0001
0020
0000
0100
0000
0000
0130
0000
0010
0100
1000
,
0001
0100
0000
2000
0000
0000
3100
0000
0002
0000
0023
0000
0230
0000
0301
0100
,
0010
0100
1000
0000
1001
0000
0001
0000
0100
0001
1000
0010
0100
01M0
1000
0001
,
0010
0100
01M0
0001
1000
0010
0100
0010
0001
1000
0001
0010
1000
0001
0010
0100
,
0002
0000
0103
1000
0001
0010
0001
1000
0010
0000
0000
0010
0000
0100
01M0
0100
,
0001
0000
0000
0001
0000
0100
010M
0100
0010
0000
0000
0010
0000
1000
0001
0010
,
0100
01M0
0100
0000
1001
0000
1000
0100
0010
0001
1000
0100
0010
0M10
1000
0001
,
0100
0010
0M10
0001
1000
0100
0010
0100
0001
1000
0001
0100
1000
0001
0100
0010
,
0002
0000
0013
1000
0001
0100
0001
1000
0100
M100
0001
0010
0100
1000
0001
1000
,
0010
M010
0001
0100
0010
1000
0001
0010
1000
0000
0000
0000
0001
0100
1000
0010
,
0110
0000
0000
0000
;
