#VERSION:0.83;
#TITLE:CASKADE;
#SUBTITLE:;
#ARTIST:Freezepond;
#TITLETRANSLIT:;
#SUBTITLETRANSLIT:;
#ARTISTTRANSLIT:;
#GENRE:;
#CREDIT:;
#MUSIC:CASKADE.ogg;
#BANNER:CASKADE-bn.png;
#BACKGROUND:CASKADE-bg.png;
#CDTITLE:;
#SAMPLESTART:55.679;
#SAMPLELENGTH:15.000;
#SELECTABLE:YES;
#OFFSET:-0.036;
#BPMS:0.000=138.000;
#STOPS:;
#SPEEDS:0.000=1.000=0.000=0;
#SCROLLS:0.000=1.000;
#TICKCOUNTS:0.000=4;
#TIMESIGNATURES:0.000=4=4;
#LABELS:0.000=Song Start;
#COMBOS:0.000=1;
#ORIGIN:;
#PREVIEWVID:;
#JACKET:CASKADE-jacket.png;
#CDIMAGE:;
#DISCIMAGE:;
#BGCHANGES:;
#FGCHANGES:;

//--------------- dance-single - ----------------
#NOTEDATA:;
#STEPSTYPE:dance-single;
#DESCRIPTION:;
#DIFFICULTY:Beginner;
#METER:3;
#RADARVALUES:0,0,0,0,0;
#NOTES:
0000
0000
0000
0000
,
0000
0000
0000
0000
,
0000
0000
0000
0000
,
0000
0000
0000
0000
,
0000
0000
0000
0000
,
0000
0000
0000
0000
,
0000
0000
0000
0000
,
0000
0000
0000
0000
,
1000
0000
1000
0000
,
0001
0000
0001
0000
,
0100
0000
0100
0000
,
0010
0000
0010
0000
,
1000
0000
0100
0000
,
0010
0000
0001
0000
,
1000
0000
0010
0000
,
0100
0000
0001
0000
,
1000
0000
0100
0000
,
1000
0000
0100
0100
,
0001
0000
0100
0000
,
0001
0000
0100
0100
,
1000
0000
0010
0000
,
1000
0000
0010
0010
,
0001
0000
0010
0000
,
0001
0000
0010
0010
,
1000
0000
0100
0000
,
0010
0000
0100
0000
,
1000
0000
0001
0000
,
0100
0000
1000
0000
,
0100
0000
0001
0000
,
1000
0000
0010
0000
,
0100
0000
0010
0000
,
1000
0000
0000
0000
,
0001
0001
0000
0000
,
0010
0010
0000
0000
,
0100
0100
0000
0000
,
1000
1000
0000
0000
,
0001
0001
0000
0000
,
0100
0100
0000
0000
,
0010
0010
0000
0000
,
1000
1000
0000
0000
,
0100
0000
0010
0000
,
0100
0000
1000
0000
,
0001
0000
0010
0000
,
1000
0000
0010
0000
,
0001
0000
1000
0000
,
0010
0000
0100
0000
,
0010
0000
1000
0000
,
0100
0000
0010
0000
,
0001
0000
0100
0000
,
0010
0000
0001
0000
,
0010
0000
1000
0000
,
0100
0000
0010
0000
,
1000
0000
0010
0000
,
0001
0000
1000
0000
,
0010
0000
0100
0000
,
1000
0000
0100
0000
,
0001
0001
0000
0000
,
0100
0100
0000
0000
,
0010
0010
0000
0000
,
1000
1000
0000
0000
,
0001
0001
0000
0000
,
0010
0010
0000
0000
,
0100
0100
0000
0000
,
1000
1000
0000
0000
,
0001
0001
0001
0000
,
1000
1000
1000
0000
,
0010
0010
0010
0000
,
0100
0100
0100
0000
,
0001
0001
0001
0000
,
0010
0010
0010
0000
,
0100
0100
0100
0000
,
1000
1000
1000
0000
,
1001
0000
0000
0000
;

//--------------- dance-single - ----------------
#NOTEDATA:;
#STEPSTYPE:dance-single;
#DESCRIPTION:;
#DIFFICULTY:Easy;
#METER:8;
#RADARVALUES:0,0,0,0,0;
#NOTES:
0000
0000
0000
0000
,
0000
0000
0000
0000
,
0000
0000
0000
0000
,
0000
0000
0000
0000
,
1000
0000
0200
0000
,
0310
0000
2000
0000
,
3010
0000
0002
0000
,
0103
0000
0020
0000
,
1030
0100
1000
0100
,
0010
0001
0010
0001
,
1000
0010
1000
0010
,
0100
0001
0100
0001
,
1000
0100
1000
1000
,
0001
0100
0001
0001
,
1000
0010
1000
1000
,
0001
0010
0001
0000
,
1000
0010
0100
0011
,
0100
1000
0001
0110
,
1000
0100
0010
0101
,
0010
1000
0001
0110
,
0001
0010
0100
1010
,
0100
0001
1000
0110
,
0001
0100
0010
1100
,
0010
1000
0001
0110
,
1000
0001
0010
1000
,
0010
0001
0110
1001
,
0100
0010
1000
0001
,
0010
0100
1001
0110
,
1000
0001
0100
1000
,
0100
0001
0110
1001
,
0010
0001
1000
0010
,
0100
0001
0000
0000
,
1000
0100
1000
0000
0010
0000
1100
0000
,
0001
0010
0001
0000
0100
0000
0011
0000
,
1000
0010
1000
0000
0100
0000
1010
0000
,
0001
0100
0001
0000
0010
0000
0101
0000
,
1000
0100
1000
0000
0010
0000
0101
0000
,
0001
0010
0001
0000
0100
0000
1010
0000
,
1000
0010
1000
0000
0100
0000
0011
0000
,
0001
0100
0001
0000
0010
0000
0002
0000
,
1003
0110
0011
1000
,
0010
0100
0011
1100
,
0010
0100
0001
1000
,
0100
0001
0100
1000
,
0101
0010
1100
0001
,
1000
0010
0100
0011
,
1001
1010
0100
0001
,
0010
0000
0100
0000
1000
0001
1000
0001
,
1000
0010
1100
0110
,
0001
0101
1100
0010
,
1100
1100
0010
0010
,
0001
1000
0010
0001
,
0010
1000
0001
0001
,
1000
0011
0100
1000
,
0010
0100
0001
1000
,
0200
0000
0320
0000
,
0031
0100
0010
0000
0001
0000
1100
0000
,
0001
0010
0100
0000
1000
0000
0101
0000
,
1000
0010
0100
0000
1000
0000
0011
0000
,
1000
0100
0010
0000
0001
0000
1010
0000
,
0100
0001
1000
0000
0100
0000
0011
0000
,
0100
1000
0001
0000
0100
0000
1010
0000
,
0010
0001
1000
0000
0010
0000
0101
0000
,
0010
1000
0001
0000
0010
0000
1100
0000
,
0001
0010
1000
0000
0011
0000
0110
0000
,
1000
0100
0001
0000
0110
0000
1100
0000
,
0001
0100
1000
0000
0101
0000
0110
0000
,
1000
0010
0001
0000
0110
0000
1001
0000
,
0010
0001
1000
0010
0100
0000
0011
0000
,
0100
1000
0001
0100
0010
0000
1100
0000
,
0010
0100
0001
1000
0100
0000
1010
0000
,
0100
0010
1000
0001
0010
0000
0101
0000
,
2000
0000
0000
0000
,
3000
0000
0000
0000
;

//--------------- dance-single - ----------------
#NOTEDATA:;
#STEPSTYPE:dance-single;
#DESCRIPTION:;
#DIFFICULTY:Medium;
#METER:11;
#RADARVALUES:0,0,0,0,0;
#NOTES:
0000
0000
0000
0000
,
0000
0000
0000
0000
,
0000
0000
0000
0000
,
0000
0000
0000
0000
,
1000
0100
0020
0000
,
0031
0100
0020
0000
,
1030
0010
0200
0000
,
0301
0010
0200
0000
,
1300
1010
0001
0011
,
0100
0000
0010
0000
0001
0010
1000
0001
,
0010
1010
1000
1100
,
0010
0000
1001
0000
0100
0000
0010
0001
,
1000
0000
1100
0000
0001
0100
0010
1000
,
0001
0000
0101
0000
1000
0100
0010
0001
,
0100
1001
0010
0110
,
1000
1001
0020
0000
,
1030
0100
1000
0000
0001
0100
0010
0000
,
0001
0010
1000
0000
0001
0010
0001
0010
,
0001
0000
0100
1000
0100
0000
0010
1000
,
0100
0000
0010
0001
0100
0000
0010
1000
,
0001
0010
0100
0000
0001
0100
1000
0000
,
0010
0100
0010
0000
1000
0100
1000
0100
,
1000
0000
0001
0100
1000
0000
0100
0010
,
1000
0000
0100
0010
0001
0000
0100
0010
,
0100
0000
0011
0000
0100
1000
0001
0000
,
0100
0000
0110
0000
1000
0001
0010
0000
,
1000
0000
0101
0000
0010
1000
0001
0000
,
0010
0000
1100
0000
0010
0001
1000
0010
,
0100
0001
0010
0000
1100
0000
0001
0000
,
0100
0010
1000
0000
0011
0000
1000
0000
,
0100
0010
0001
0000
1010
0000
0001
0000
,
0010
1001
0000
0000
,
0100
0010
1000
0001
0020
0000
1000
0000
,
0130
1000
0001
0100
0010
0020
0001
0000
,
0130
0001
0010
0100
1000
1000
2000
0000
,
3010
0100
0001
1000
0100
0010
0001
1000
,
0100
0010
1000
0010
0002
0000
1000
1000
,
0013
0001
1000
0010
0200
0000
0302
0000
,
0013
0100
0010
0001
2000
3020
0032
0023
,
1030
0100
0010
0001
1000
0001
1000
0001
,
0100
0011
1000
0110
,
0001
0000
1010
0000
0100
0001
1000
0100
,
0010
0000
0101
0000
0010
1000
0001
0000
,
0110
0000
1000
0000
0001
0100
1000
0100
,
0001
1100
0010
0101
,
0010
0000
1100
0000
0010
0001
1000
0010
,
0100
0000
0011
0100
1000
0000
0110
0001
,
1000
0000
0101
0010
1000
0001
1000
0001
,
0100
1100
0010
0101
,
1000
0011
0100
1010
,
0001
0110
1000
1001
,
0010
0000
1001
0000
0100
0010
1000
0001
,
0010
0000
1100
0000
0010
0001
1000
0010
,
1000
0000
0011
0000
0100
0100
1000
1000
,
0001
0100
0010
0100
0001
0010
0100
1000
,
0010
0000
0101
0000
1000
1000
1000
1000
,
0001
0010
0100
1000
0020
0000
0001
0000
,
1030
0100
0010
0001
0100
0200
1000
0000
,
0301
0010
0100
0010
0001
0100
0010
0000
,
1000
0100
0010
0100
1000
0001
1000
0001
,
1000
0000
0010
0000
0100
0000
0001
0000
0020
0000
0000
0030
0020
0030
0020
0000
,
0031
0100
0010
1000
0200
0000
0320
0000
,
0031
0100
0010
0100
0002
0023
2030
3020
,
0031
1000
0010
0100
1000
0100
0001
1000
,
0010
0100
0001
1000
0100
0000
0011
0000
,
0100
1000
0001
0100
0010
0000
1001
0000
,
0100
0010
1000
0001
0010
0000
1100
0000
,
0010
0001
1000
0010
0100
0000
1001
0100
,
0010
0001
1000
0010
0100
0000
0101
0000
,
0010
0100
0001
1000
0100
0000
1001
0000
,
0100
1000
0001
0100
0010
0000
1010
0000
,
0100
0010
1000
0001
0010
0100
1000
0001
,
2002
0000
0000
0000
,
3003
0000
0000
0000
;

//--------------- dance-single - ----------------
#NOTEDATA:;
#STEPSTYPE:dance-single;
#DESCRIPTION:;
#DIFFICULTY:Hard;
#METER:15;
#RADARVALUES:0.004461,0,0.007806,0,0,4,1,1,0,0,1,0,0,0,0.004461,0,0.007806,0,0,4,1,1,0,0,1,0,0,0;
#CHARTNAME:;
#CHARTSTYLE:;
#CREDIT:;
#NOTES:
0000
0000
0000
0000
,
0000
0000
0000
0000
,
0000
0000
0000
0000
,
0000
0000
0000
0000
,
0000
0000
0000
0000
,
0000
0000
0000
0000
,
0000
0000
0000
0000
,
0000
0000
0000
0000
,
1000
0001
0100
0010
,
1000
0001
0010
0100
,
0010
0001
1000
0010
,
0100
0001
0100
0010
,
1000
0100
0010
1000
,
0010
0001
0100
1000
,
0001
0010
1000
0100
,
0001
0100
0010
0000
,
0001
1000
0010
0100
0000
0001
1000
0100
,
0000
0000
0010
0000
1000
0000
0010
0000
0000
0000
0001
0000
0100
1000
0100
0000
,
0000
0001
0010
0100
0000
0010
1000
0010
,
0000
0000
0100
0000
1000
0000
0010
0000
0000
0000
0100
0000
0001
0010
0100
0000
,
1000
0010
0100
1000
0000
0100
0001
0010
,
0000
0000
0001
0000
1000
0000
0010
0000
0000
0000
0100
0000
1000
0100
0010
0000
,
0000
1000
0100
1000
0000
0010
0100
0001
,
0000
0000
0010
0000
0001
0000
1000
0000
0000
0000
0010
0000
0100
0001
1000
0000
,
0100
0010
0100
0001
0100
1000
0010
0100
,
0001
0000
1000
0000
0100
0000
0010
0000
1000
0000
0010
0000
0100
1000
0001
0000
,
0100
0010
1000
0001
0010
1000
0001
0100
,
1000
0000
0010
0000
0100
0000
0010
0000
1000
0000
0001
0000
0010
0001
1000
0000
,
0010
0100
0001
0010
1000
0010
0001
1000
,
0010
0000
0100
0000
1000
0000
0100
0000
0010
0000
1000
0000
0100
0010
0001
0000
,
1000
0010
0100
1000
0100
0001
0100
0010
,
1000
0100
0010
0001
0000
0000
0000
0000
,
1000
0010
0100
0001
1000
0010
0100
0001
0020
0000
0100
0000
0000
0000
1000
0000
,
0031
0100
0010
1000
0001
0100
0010
1000
0001
0010
0001
0000
0100
0000
0010
0000
,
1000
0100
0010
0001
1000
0100
0010
0001
1000
0010
1000
0010
2000
0000
0100
0000
,
3001
0010
0100
1000
0001
0010
0100
1000
0010
0100
0010
0100
0001
1000
0002
0000
,
1003
0000
0000
0100
0000
0000
1000
0000
0000
0001
0000
0000
0100
0000
0000
0001
0000
0000
0010
0000
0000
0100
0000
0000
2000
0000
0000
0000
0000
0000
3020
0000
0000
0000
0000
0000
0430
0000
0004
0000
0000
0000
0000
0000
0000
0000
0300
0000
,
1003
0010
1000
0001
0010
0001
0100
0010
2000
0000
0100
0000
3002
0000
0100
0000
,
1003
0000
0000
0010
0000
0000
0100
0000
0000
0010
0000
0000
1000
0000
0000
0001
0000
0000
0010
0000
0000
0100
0000
0000
4000
0000
0040
0000
0000
0000
0000
0000
0000
0000
0000
0000
0000
0000
0000
0000
0000
0000
0000
0000
0000
0000
3000
0000
,
1030
0000
0000
0100
0000
0000
0010
0000
0000
0100
0000
0000
1000
0000
0000
0001
0000
0000
0100
0000
0000
0010
0000
0000
1000
0000
0000
0001
0000
0000
1000
0000
0000
0001
0000
0000
0400
0000
0040
0000
0000
0000
0000
0000
0000
0000
0300
0000
,
1030
0100
0001
0100
0010
0100
1000
0001
,
0200
0000
0000
0000
1000
0000
0310
1000
0001
0000
0010
0000
0100
1000
0001
0000
,
0020
0000
0000
0000
1000
0000
0130
1000
0001
0000
0100
0000
1000
0000
0100
0000
,
0002
0000
0000
0000
1000
0000
0000
0000
0103
0010
1000
0001
0010
0100
0010
0001
,
0200
0000
0000
0000
0000
0000
0000
0000
0301
0010
0001
0100
0010
0100
0001
0010
,
0002
0000
0000
0000
0000
0003
0001
1000
0010
0000
0001
0000
0010
0000
1000
0000
,
0200
0000
0000
0000
0000
0000
0310
0001
2000
0000
0000
0000
0000
0000
3010
0100
,
2000
0000
0000
0000
0000
0000
3100
0001
0010
0001
1000
0010
0100
0001
0010
0100
,
2000
0000
0000
0000
3001
0100
0010
0100
,
0002
0000
0000
0000
0000
0000
0013
0100
1000
0000
0010
0000
0100
0000
1000
0000
,
0200
0000
0000
0000
0000
0000
0301
0010
0001
0000
0100
0000
1000
0000
0100
0000
,
0002
0000
0000
0000
0000
0000
0000
0000
1003
0010
1000
0010
1000
0010
0100
0001
,
0020
0000
0000
0000
0000
0000
0000
0000
0130
0010
0001
1000
0010
0100
0001
1000
,
0200
0000
0000
0000
0000
0000
0310
1000
0010
0000
0001
0000
0100
0000
0010
0000
,
1000
0100
0010
0100
1000
0010
0100
0001
0010
0001
0100
0010
1000
0100
0010
0001
,
0200
0000
0000
0000
0000
0000
0000
0000
0000
0300
0000
0000
0010
0000
1000
0000
0001
0000
0010
0000
1000
0000
0010
0000
0001
0000
1000
0000
0001
0000
1000
0000
,
0010
0100
0001
1000
0100
0010
0100
1000
0020
0000
0100
0000
0001
0000
0100
0000
,
1030
0100
1000
0010
0100
0001
0010
0001
1000
0010
1000
0000
0200
0000
0010
0000
,
1300
0001
0100
0010
0100
0001
0010
0100
1000
0001
0100
0001
1000
0000
0100
0000
,
0010
0001
1000
0010
0100
0001
0010
0001
1000
0010
1000
0010
0100
0001
0200
0000
,
0310
0000
0000
1000
0000
0000
0001
0000
0000
0010
0000
0000
0100
0000
0000
0010
0000
0000
0001
0000
0000
1000
0000
0000
0020
0000
0000
0000
0000
0000
0230
0000
0000
0000
0000
0000
0304
0000
4000
0000
0000
0000
0000
0000
0000
0000
0003
0000
,
3100
1000
0001
0100
1000
0100
0001
1000
0020
0000
0001
0000
0230
0000
1000
0000
,
0301
0000
0000
0010
0000
0000
0100
0000
0000
0010
0000
0000
0100
0000
0000
1000
0000
0000
0010
0000
0000
0100
0000
0000
0004
0000
0040
0000
0000
0000
0000
0000
0000
0000
0000
0000
0000
0000
0000
0000
0000
0000
0000
0000
0000
0000
0003
0000
,
0130
1000
0010
0100
0010
1000
0100
0010
0001
1000
0001
1000
0001
1000
0001
1000
,
0010
0100
0010
1000
0100
1000
0001
0100
0002
0000
0010
0000
2003
0000
0010
0000
,
3100
0010
0100
1000
0001
0100
0010
0100
0001
0010
0001
0000
0100
0000
0010
0000
,
1000
0100
1000
0001
0100
0010
1000
0100
0010
0001
0010
0001
0010
0000
0100
0000
,
1000
0010
1000
0100
0010
0001
0100
0001
0010
0100
0010
0100
1000
0001
2000
0000
,
3010
0000
0000
0100
0000
0000
0001
0000
0000
1000
0000
0000
0100
0000
0000
0001
0000
0000
0100
0000
0000
1000
0000
0000
0020
0000
0000
0000
0000
0000
0001
0000
0000
0000
0000
0000
4030
0000
0400
0000
0000
0000
0000
0000
0000
0000
3000
0000
,
0310
0001
1000
0010
0001
0010
1000
0100
2000
0000
0010
0000
3002
0000
0010
0000
,
1003
0000
0000
0100
0000
0000
1000
0000
0000
0010
0000
0000
1000
0000
0000
0001
0000
0000
0010
0000
0000
0001
0000
0000
4000
0000
0040
0000
0000
0000
0000
0000
0000
0000
0000
0000
0000
0000
0000
0000
0000
0000
0000
0000
0000
0000
3000
0000
,
0130
0001
0010
0100
1000
0010
0100
0001
1000
0001
1000
0001
1000
0001
1000
0001
,
2000
0000
0000
0000
,
3000
0000
0000
0000
;
