#TITLE:CALAMITY PHOENIX;
#SUBTITLE:;
#ARTIST:96;
#TITLETRANSLIT:;
#SUBTITLETRANSLIT:;
#ARTISTTRANSLIT:;
#GENRE:;
#CREDIT:;
#BANNER:CALAMITY PHOENIX.png;
#BACKGROUND:CALAMITY PHOENIX-bg.png;
#JACKET:CALAMITY PHOENIX-jacket.png;
#LYRICSPATH:;
#CDTITLE:;
#MUSIC:CALAMITY PHOENIX.ogg;
#OFFSET:-1.059000;
#SAMPLESTART:64.235001;
#SAMPLELENGTH:15.000000;
#SELECTABLE:YES;
#BPMS:0.000000=170.000000
;
#STOPS:
;
#BGCHANGES:0.000=CALAMITY PHOENIX.avi=1.000=0=0=0=StretchNoLoop====,
99999.000=-nosongbg-=1.000=0=0=0=StretchNoLoop====
;
#KEYSOUNDS:;
#ATTACKS:;

//--------------- dance-single - t7r ----------------
#NOTES:
     dance-single:
     t7r:
     Beginner:
     4:
     0,0,0,0,0:
0000
0000
0000
0000
,
0000
0000
0000
0000
,
0000
0000
0000
0000
,
0000
0000
0000
0000
,
0000
0000
0000
0000
,
0001
0000
0000
0000
,
1000
0000
0000
0000
,
0010
0000
0010
0000
,
0010
0000
0000
0000
,
0100
0000
0000
0000
,
0100
0000
0000
0000
,
0010
0000
0000
0000
,
0010
0000
0000
0000
,
1000
0000
0000
0000
,
1000
0000
0000
0000
,
0001
0000
0000
0000
,
0001
0000
0000
0000
,
1000
0000
1000
0000
,
0001
0000
0001
0000
,
0100
0000
0100
0000
,
0010
0010
0000
1000
,
0000
0000
0000
0001
,
0000
0000
0000
0010
,
0000
0000
0000
0100
,
0000
0000
0000
0010
,
0000
0000
0000
0001
,
0000
0000
0000
1000
,
0000
0000
0000
0010
,
0000
0000
0000
0100
,
0000
0100
0000
0100
,
0000
0000
0000
0010
,
0000
0010
0000
0010
,
0000
0000
0000
1000
,
0000
1000
0000
1000
,
0000
0000
0000
0001
,
0000
0001
0000
0001
,
0000
0000
0000
0010
,
0000
0000
0000
0100
,
0000
0000
0000
0010
,
0000
0000
0000
0001
,
0000
1000
0000
1000
,
0000
0000
0000
0001
,
0000
0000
0000
0100
,
0000
0100
0000
0010
,
0000
0010
0000
1000
,
0000
1000
0000
0001
,
0000
0001
0000
0100
,
0000
0100
0000
0010
,
0000
0010
0000
1000
,
0000
1000
0000
0100
,
0000
0100
0000
0010
,
0000
0010
0000
0001
,
0000
0001
0000
1000
,
0000
1000
0000
0001
,
0000
0001
0001
0000
,
1000
1000
0000
0010
,
0000
0010
0010
0000
,
0100
0100
0000
0001
,
0000
0001
0001
0000
,
1000
1000
0000
0100
,
0000
0100
0100
0000
,
0010
0010
0000
0001
,
0000
1000
0000
1000
,
0000
0001
0000
0100
,
0000
0010
0000
0010
,
0000
1000
0000
0001
,
0001
0001
0000
0010
,
0010
0010
0000
0100
,
0100
0100
0000
1000
,
0000
1000
0000
0001
,
0000
0001
0000
1001
,
0000
0000
0000
0010
,
0000
0100
0000
0000
0110
0000
0000
0000
,
1001
0000
0000
1001
;

//--------------- dance-single - t7r ----------------
#NOTES:
     dance-single:
     t7r:
     Easy:
     8:
     0,0,0,0,0:
0000
0000
0000
0000
,
0000
0000
0000
0000
,
0000
0000
0000
0000
,
0000
0000
0000
0000
,
0000
0000
0000
0000
,
1000
0000
0000
0001
0000
0000
0100
0000
,
0000
0010
0000
0000
1000
0001
0000
0000
,
1000
0100
0010
0001
,
1000
0010
0100
0001
,
1001
0001
0001
0001
,
1000
0100
0010
0001
,
1001
1000
1000
1000
,
0001
0100
0010
1000
,
1010
0010
0010
0010
,
1000
0010
0100
0001
,
0101
0100
0100
0100
,
0001
0010
0100
1000
,
0001
0000
0000
0100
0000
0010
0000
1000
,
0000
0100
0010
0001
,
0000
1000
0000
0000
0001
0000
0002
0000
,
0000
0000
0000
1003
,
0100
0001
0100
1000
,
0000
0020
0030
0200
,
0300
0020
0030
2000
,
3000
0002
0003
1000
,
0010
0001
0010
1000
,
0000
0002
0003
2000
,
3000
0200
0300
0020
,
0030
0002
0003
1000
,
0100
1100
0000
0001
,
0100
0101
0000
1000
,
0010
1010
0000
0001
,
0010
0000
0011
0000
0000
0000
0001
1000
,
0001
1000
0001
0000
0000
0000
1000
0100
,
1000
0100
1000
0000
0000
0000
0010
0100
,
0010
0100
0010
0000
0000
0000
0100
0001
,
0100
0001
0100
0000
0010
0000
2000
0000
,
0000
3001
0010
0002
,
0000
1003
0010
2000
,
0000
3100
0001
0200
,
0000
0310
0001
0200
,
0000
0310
1000
0020
,
0000
0130
0001
2000
,
0000
3200
0000
0320
,
0000
0031
1000
0002
,
0103
0000
1000
0000
0100
0002
0000
0000
,
1003
0000
0001
0000
0010
2000
0000
0000
,
3010
0001
0100
0020
,
0000
1030
0001
2001
,
3010
0000
0001
0000
0010
2000
0000
0000
,
3001
0100
0010
2000
,
3100
0002
0103
0010
,
0000
0110
0000
0000
1001
0000
0010
0000
,
0100
0100
0000
0000
0110
0000
1001
0000
,
0001
1000
0000
0001
1000
0000
0000
0100
,
0000
0010
0000
0001
0000
1000
0001
0000
,
0100
0010
0000
0100
0010
0000
0000
1000
,
0000
0001
0000
0100
0000
0010
1000
0000
,
0001
0010
0000
0001
0010
0000
0000
0100
,
0000
0010
0000
0001
0000
1000
0010
0000
,
1000
0100
0000
1000
0100
0000
1000
0000
,
0001
0000
0100
0010
0100
0000
0001
0010
,
0001
0010
0001
0000
0000
0000
1000
0010
,
1000
0010
1000
0000
0000
0000
0001
0100
,
0001
0100
0001
0000
0000
0000
1000
0100
,
1000
0000
0001
1000
0001
0000
1000
0100
,
0000
1100
0000
1100
0000
0000
0001
0100
,
0000
0101
0000
0101
0000
0000
1000
0010
,
0000
1010
0000
1010
0000
0000
0001
0001
,
0000
1000
1000
0000
0010
0010
0000
0100
,
0100
0000
0001
1000
0000
0000
2002
0000
,
0000
0000
3003
0110
,
0000
0110
0000
0000
0101
0000
0000
0000
,
1010
0000
0000
2002
,
0000
0000
0000
3003
;

//--------------- dance-single - t7r ----------------
#NOTES:
     dance-single:
     t7r:
     Medium:
     13:
     0,0,0,0,0:
0000
0000
0000
0000
,
0000
0000
0000
0000
,
0000
0000
0000
0000
,
0000
0000
0000
0000
,
0000
0000
0000
0000
,
1000
1000
0000
0001
0001
0000
0100
0100
,
0000
0010
0010
0000
0100
0210
0000
0301
,
1000
0100
0010
0001
0100
0010
1000
0010
,
0100
0001
0010
0100
1000
1002
0000
1003
,
0100
0000
1000
0010
0100
0001
1000
0000
,
0001
0010
0100
1000
0001
1000
0010
0100
,
0110
0000
0100
0001
1000
0010
0100
0000
,
0001
0010
0100
1000
0100
0001
0100
1000
,
1001
0000
0001
0100
0010
1000
0001
0000
,
1000
0100
0010
0001
1000
0001
0100
0010
,
0110
0000
0010
1000
0001
0100
0010
0000
,
1000
0100
0010
0001
0010
1000
0010
0001
,
1000
0100
0001
1000
0010
0100
0000
1000
,
0010
0001
1000
0100
0010
0000
1000
0100
,
0100
0001
0100
0100
0010
0001
2000
0000
,
0000
0000
0000
3001
,
0100
0000
1000
0000
0100
0000
0000
0010
0000
0000
1000
0000
0100
0000
0000
0001
,
0000
0100
0020
0000
0031
0000
2000
0000
,
3001
0100
1000
0000
0001
0100
2000
0000
,
3010
0000
0100
0000
1000
0001
1000
0000
,
0100
0000
0001
0000
0100
0000
0000
0010
0000
0000
0001
0000
0100
0000
0000
0000
,
0010
0000
1000
0000
0001
0000
2000
0000
0000
0000
0000
0000
3001
0000
0000
1000
0000
0000
0002
0000
0000
0000
0000
0000
,
1003
0100
0002
0000
1003
0100
0002
0000
,
0013
0000
0000
2002
0000
0000
3003
0000
0000
0010
0000
0010
,
1000
0000
1000
0100
0000
0100
0010
0000
0010
0001
0000
0001
,
0100
0000
0100
0010
0000
0010
1000
0000
1000
0010
0000
0010
,
1000
0000
1000
0100
0000
0100
0010
0000
0010
0001
0000
0001
,
1000
0000
0000
0000
0000
0000
0000
0000
1000
0000
0000
0000
0001
0000
0000
0000
0000
0000
1000
0000
0000
0001
0000
0000
1000
0000
0000
0000
0000
0000
1001
0000
0000
0000
0000
0000
0010
0000
0000
0000
0000
0000
1000
0000
0000
0000
0000
0000
,
0100
0001
0100
1000
0010
0001
0010
1000
,
0100
0001
0100
1000
0010
0001
0010
0000
,
0100
0001
0000
0100
1000
0000
0100
0010
,
1000
0000
0001
0010
0100
1000
0002
0000
,
0103
0000
1000
0100
0001
2000
0000
0000
,
3100
0000
0010
0001
0010
2000
0000
0000
,
3010
0000
0100
1000
0100
0001
0200
0000
,
0000
0310
0002
0000
1003
0000
2001
0000
,
3010
0000
0001
0010
1000
0002
0000
0000
,
1003
0200
1300
0012
,
0103
2010
3100
1002
,
1003
0000
0001
0100
0010
1000
0001
0100
,
1000
0100
0001
0100
0010
1000
0001
0010
,
1000
0010
0001
0010
0100
1000
0002
0000
,
0103
0000
1000
0100
0001
1000
0200
0000
,
0301
0100
0010
0001
1000
0000
1001
0100
,
0001
0100
1000
0100
0010
0001
1000
0010
,
0001
0010
1000
0010
0100
0001
2000
0000
,
3100
1000
0020
0000
0130
0001
0010
0000
,
0100
0110
0000
0001
1001
0000
0110
0000
,
1000
0000
1001
0000
0000
0000
0001
0000
1001
0000
0001
1000
0001
0000
0000
0000
,
1000
0100
0001
1000
0100
0000
0010
1000
,
0010
0001
0010
0110
0000
0001
1001
0000
,
0001
0100
1000
0001
0100
0000
0010
0001
,
0010
0000
1000
0000
0010
0100
0010
0000
0001
0000
1000
0000
1001
0000
0000
0000
,
1100
0000
0100
1000
0100
0000
1000
0000
0001
0000
0000
0000
1000
0000
0010
0000
,
0001
1000
0010
0110
0000
0001
1001
0000
,
0101
0000
0100
0001
0100
0000
0001
0000
1000
0000
0000
0000
0001
0000
0010
0000
,
1000
0000
0001
0000
0010
0100
0010
0000
1000
0000
0100
0000
1000
0001
1000
0000
,
0001
0000
0000
0000
0100
0000
0001
0100
0000
0001
0100
0000
0001
1000
0001
0000
,
1000
0000
0000
0000
0100
0000
1000
0100
0000
1000
0100
0000
1000
0010
1000
0000
,
0010
0000
0000
0000
1000
0000
0010
0100
0000
0010
0100
0000
0001
0010
0001
0000
,
0010
0000
0000
0000
0001
0000
1000
0001
1000
0000
1001
0000
0100
0000
0001
0000
,
0010
1000
0010
0001
0100
0001
1000
0100
,
0001
0100
1000
1000
0001
0001
0010
0001
,
0100
0000
1000
0000
0100
0000
0001
0000
0010
0000
0001
0000
1000
0010
1000
0000
,
0000
0000
0001
0010
0001
0000
0000
0000
1000
0100
1000
0000
0000
0000
0001
0100
,
0001
0000
1000
2002
0000
3003
0220
0000
,
0000
0000
0330
0101
,
0000
1100
0000
0000
0011
0000
0000
0000
,
2002
0000
3003
0220
,
0000
0000
0000
0330
;

//--------------- dance-single - t7r ----------------
#NOTES:
     dance-single:
     t7r:
     Hard:
     17:
     0,0,0,0,0:
0000
0000
0000
0000
,
0000
0000
0000
0000
,
0000
0000
0000
0000
,
0000
0000
0000
0000
,
0000
0000
0000
0000
,
1000
0001
1000
0000
0000
0000
0001
1000
0001
0000
0000
0000
0100
0010
0100
0000
,
0000
0000
0010
0100
0010
0000
0000
0000
0100
0000
0210
0000
0000
0000
0301
0000
,
1000
0000
0100
1000
0100
0000
1000
0000
0001
0100
0001
0000
1000
0000
0010
1000
,
0010
0000
1000
0000
0001
0010
0001
0000
1000
0000
1001
0000
0001
1000
0001
1000
,
0001
0000
0000
0000
0101
0000
0001
0010
0100
0000
1000
0000
0100
0000
0001
0000
,
0100
0000
0010
0000
0001
0000
1000
0001
0010
0000
0110
0000
0001
0000
1000
0000
,
1001
0000
0000
0000
1100
0000
1000
0010
0100
0000
0001
0000
0100
0000
1000
0000
,
0100
0000
0010
0000
1000
0000
0001
1000
0010
0100
0010
0000
1000
0000
0001
0000
,
1001
0000
0000
0000
0011
0000
0001
0100
0010
0000
1000
0000
0010
0000
0001
0000
,
0010
0000
0100
0000
0001
0000
1000
0001
0100
0000
0110
0000
0001
0000
1000
0000
,
1001
0000
0000
0000
1010
0000
1000
0100
0010
0000
0001
0000
0010
0000
1000
0000
,
0010
0000
0100
0000
1000
0000
0001
1000
0100
0010
0100
0000
1000
0000
0001
0000
,
1000
0100
1000
0001
1000
0000
0001
0100
0010
0000
1000
0010
0100
0000
0001
0010
,
0001
1000
0001
0000
0100
0001
0010
0000
0100
1000
0010
0000
1000
0000
0001
1000
,
0010
0100
0001
0000
1000
0100
0010
0001
1000
0000
0001
1000
0002
0000
0000
0000
,
0000
0000
0000
0000
0000
0000
1003
0100
,
0001
0000
0100
0010
0001
0000
0010
1000
0000
0010
0001
0010
0100
0000
0001
0100
,
0000
1000
0100
0000
0020
0000
0000
0000
0130
0000
0000
0000
2000
0000
0000
0000
,
3010
0000
0001
0010
1000
0000
0001
0000
0010
0000
1000
0000
0010
0000
0100
1000
,
0001
0000
0000
0000
0100
0010
0100
0000
0001
1000
0001
1000
0001
0000
0100
0000
,
1000
0000
0000
0000
0000
0000
0100
0000
0000
0010
0000
0000
1000
0000
0000
0000
0000
0000
0010
0000
0000
0001
0000
0000
0000
0000
0000
0010
0000
0000
1000
0000
0000
0000
0000
0000
0010
0000
0000
0000
0000
0000
0000
0000
0100
0000
0000
0000
,
0001
0000
0100
0000
1000
0000
0200
0000
0000
0000
0000
0000
0310
0000
0000
1000
0000
0000
0200
0000
0000
0000
0000
0000
,
0301
0000
0100
0000
0010
0000
0001
0010
0000
1000
0010
0000
0001
0000
0100
0010
,
1000
0000
0000
0001
0100
0001
1000
0000
1000
0001
0100
1000
,
0100
0010
1000
0001
0100
1000
0100
0010
1000
0001
0010
0100
,
0010
1000
0010
0001
0010
0100
0010
1000
0010
0001
0100
0010
,
0001
0010
0100
0001
0100
0010
0001
0010
0100
0001
0010
1000
,
0001
0000
0000
0000
1000
0000
0000
0000
0010
0000
0000
0000
0001
0000
0000
0000
0000
0000
0100
0000
0000
0000
0000
0000
0001
0000
0000
1000
0000
0000
0001
0000
0000
1000
0000
0000
0001
0000
0000
0000
0000
0000
1000
0000
0000
0000
0000
0000
,
0100
1000
0010
0000
1000
0000
0001
0000
0100
0001
0010
0000
0001
0000
1000
0000
,
0010
1000
0100
0000
1000
0000
0001
0000
0010
0001
0100
0000
0001
0010
0100
1000
,
0001
0000
1000
0010
0100
0001
1000
0001
1000
0000
0001
1000
0001
0100
0001
0000
,
1000
0100
1000
0000
0001
0010
0100
1000
0100
0010
0001
0000
1002
0000
0000
0000
,
0103
0000
0010
1000
0100
0000
0001
0000
0100
0000
0020
0000
0000
0000
0000
0000
,
0031
0000
1000
0010
0001
0020
0000
0000
,
0230
0000
0000
0000
0301
0100
0010
1000
0001
0010
0100
1000
0002
0000
0000
0000
,
1003
0000
0010
0100
0001
0000
1000
0000
0100
0000
0000
0000
2100
0000
0000
0000
,
3001
0000
0100
0001
0010
0000
1000
0000
0010
0000
0200
0000
0000
0000
0000
0000
,
0000
0000
0000
0000
2300
0000
0000
0000
3002
0000
0000
0000
1003
0000
0100
0010
,
0001
0000
0100
0000
0010
0000
1000
0001
0010
0000
0000
0000
0001
0000
0100
0010
,
1000
0000
0001
0000
1000
0100
0010
0001
0010
0100
1000
0000
1001
0000
0010
0000
,
1000
0001
0100
0000
0001
1000
0100
0000
1000
0001
0010
0000
0100
0000
1000
0000
,
0001
1000
0010
0000
1000
0001
0010
0000
0001
1000
0100
0000
1000
0000
0001
0000
,
1000
0010
0100
0000
0010
1000
0010
1000
0001
0010
0100
1000
0100
0000
0010
0000
,
0001
1000
0010
0000
0100
0000
0010
0000
1000
0001
0010
0000
0110
0000
0001
0000
,
1000
0100
0001
0000
0100
0010
0001
0000
1000
0100
0001
0000
0100
0000
0010
0000
,
0001
0100
1000
0000
0100
0010
1000
0000
0001
0100
1000
0000
0100
0000
0010
0000
,
1000
0001
0010
0000
0100
0000
0010
0000
0001
1000
0010
0000
0100
0010
0100
0010
,
0100
0010
0100
0010
0100
0010
0100
0010
0100
0010
0100
0010
1000
0001
1000
0001
,
1000
0001
1000
0001
1000
0001
1000
0001
1000
0000
0001
1000
0001
0000
0000
0000
,
0011
0000
0001
0100
0010
0000
1000
0000
0010
0000
0001
0000
1000
0000
0100
0000
,
0001
0000
1000
0001
0100
0000
0110
0000
0001
0000
1000
0000
1001
0000
0000
0000
,
1010
0000
1000
0100
0010
0000
0001
0000
0010
0000
1000
0000
0001
0000
0100
0000
,
1000
0000
0001
1000
0010
0100
0010
0000
1000
0000
0001
0000
1001
0000
0000
0000
,
0101
0000
0001
0010
0100
0000
1000
0000
0100
0000
0001
0000
1000
0000
0100
0000
,
0001
0000
1000
0001
0010
0000
0110
0000
0001
0000
1000
0000
1001
0000
0000
0000
,
1100
0000
1000
0010
0100
0000
0001
0000
0010
0000
1000
0000
0001
0000
0010
0000
,
1000
0000
0001
1000
0100
0010
0100
0000
0010
0000
0110
0000
1000
0000
0001
0100
,
1000
0000
0001
0100
1000
0000
0001
0100
0000
0100
1000
0000
0100
0000
1000
0100
,
0001
0000
1000
0100
0001
0000
1000
0100
0000
0100
0001
0000
0010
0000
0001
0010
,
1000
0000
0001
0010
1000
0000
0001
0010
0000
0010
1000
0000
0001
0000
1000
0010
,
0001
0010
0100
0000
1001
0000
0001
1000
0001
1000
0001
0000
1000
0000
0100
0000
,
1000
0010
1000
0010
0100
0000
0001
0010
0000
0001
1000
0000
0001
0000
0100
0000
,
0001
0010
0001
0010
0001
0000
1000
0100
0000
1000
0001
0000
0100
0000
0010
0000
,
1000
0100
0010
0001
1000
0000
0001
0100
0001
1000
0001
1000
0010
0100
0010
0100
,
0000
0000
0010
1000
0010
1000
0000
0000
0001
0100
0001
0100
0000
0000
0001
1000
,
0001
1000
0000
0000
0100
0000
2020
0000
0000
0000
3030
0000
2002
0000
0000
0000
,
0000
0000
0000
0000
0000
3003
0220
0000
,
0330
0202
0000
0303
2200
0000
0000
3300
,
0022
0000
0000
0000
0000
0033
2002
0000
,
0000
0000
0000
3003
;
