#VERSION:0.83;
#TITLE:Beep Beep I'm A Sheep (The Living Tombstone Remix);
#SUBTITLE:;
#ARTIST:LilDeuceDeuce, TomSka & BlackGryph0n;
#TITLETRANSLIT:;
#SUBTITLETRANSLIT:;
#ARTISTTRANSLIT:;
#GENRE:;
#CREDIT:;
#MUSIC:Beep Beep I'm A Sheep (The Living Tombstone Remix).ogg;
#BANNER:Beep Beep I'm A Sheep (The Living Tombstone Remix)-bn.png;
#BACKGROUND:Beep Beep I'm A Sheep (The Living Tombstone Remix)-bg.png;
#CDTITLE:;
#SAMPLESTART:64.761;
#SAMPLELENGTH:15.000;
#SELECTABLE:YES;
#OFFSET:1.906;
#BPMS:0.000=126.000;
#STOPS:;
#ORIGIN:;
#PREVIEWVID:;
#JACKET:Beep Beep I'm A Sheep (The Living Tombstone Remix)-jacket.png;
#CDIMAGE:;
#DISCIMAGE:;
#BGCHANGES:;
#FGCHANGES:;

//--------------- dance-single - ----------------
#NOTEDATA:;
#STEPSTYPE:dance-single;
#DESCRIPTION:;
#DIFFICULTY:Beginner;
#METER:2;
#RADARVALUES:0,0,0,0,0;
#NOTES:
0000
0000
0000
0000
,
0000
0000
0000
0000
,
0000
0000
0000
0000
,
1000
1000
0000
0000
,
0000
0000
0000
0000
,
0001
0001
0000
0000
,
0000
0000
0000
0000
,
1001
1001
0000
0000
,
1000
1000
0000
0000
,
1001
1001
0000
0000
,
0001
0001
0000
0000
,
2000
0000
0000
0000
,
0000
0000
0000
0000
,
0000
0000
0000
0000
,
0000
0000
0000
0000
,
3000
0000
0001
0000
,
0001
0000
0001
0000
,
0100
0000
0010
0000
,
0010
0000
0010
0000
,
1000
0000
0001
0000
,
0001
0000
0001
0000
,
0010
0000
0100
0000
,
0100
0100
0000
0000
,
1000
1000
0000
0000
,
0100
0000
0100
0000
,
0001
0001
0000
0000
,
0100
0000
0100
0000
,
1001
1001
0000
0000
,
0001
0001
0000
0000
,
1001
1001
0000
0000
,
1000
1000
0000
0000
,
0010
0010
0000
0000
,
0100
0000
0001
0000
,
0010
0010
0000
0000
,
0100
0100
0000
0000
,
0010
0010
0000
0000
,
0100
0000
1000
0000
,
0010
0010
0000
0000
,
0200
0000
0000
0300
,
0200
0000
0000
0000
,
0300
0000
0000
0000
,
0110
0000
0001
0000
,
1000
0000
1000
0000
,
0100
0000
0100
0000
,
0010
0000
0010
0000
,
0110
0000
1000
0000
,
0001
0000
0001
0000
,
0100
0000
0100
0000
,
0010
0010
0000
0000
,
0000
1000
0000
0100
,
0000
0001
0000
0100
,
0000
1000
0000
0100
,
0000
0001
0000
0100
,
0000
1000
0000
0010
,
0000
0001
0000
0010
,
0000
1000
0000
0001
,
0001
0000
0000
0000
,
1000
0000
0100
0000
,
0010
0000
0100
0000
,
0001
0000
0100
0000
,
0010
0000
0001
0000
,
1000
0000
0010
0000
,
0100
0000
0010
0000
,
0001
0000
0010
0000
,
0100
0000
0001
0000
,
1000
0000
0100
0000
,
0001
0000
1000
0000
,
0010
0000
0001
0000
,
1000
0000
0100
0000
,
0010
0000
0100
0000
,
0001
0000
0100
0000
,
0010
0000
0001
0000
,
1000
0000
0010
0000
,
0200
0000
0300
0000
;

//--------------- dance-single - ----------------
#NOTEDATA:;
#STEPSTYPE:dance-single;
#DESCRIPTION:;
#DIFFICULTY:Easy;
#METER:7;
#RADARVALUES:0,0,0,0,0;
#NOTES:
0000
0000
0000
0000
,
0000
0000
0000
0000
,
0000
0000
0000
0000
,
1100
0101
1000
0001
,
0100
0010
0100
0000
0010
0000
0000
0000
,
1010
0011
1000
0001
,
0010
0100
0010
0000
0100
0000
0000
0000
,
1100
0101
1000
0001
,
0010
0010
0001
0000
1000
0000
0000
0000
,
1100
0101
1000
0001
,
0100
0100
0001
0000
1000
0000
0000
0000
,
0200
000M
000M
000M
,
000M
000M
000M
000M
,
000M
000M
000M
000M
,
00M0
M000
00M0
000M
,
2300
3001
0100
0010
,
2000
0000
3001
0000
0010
0100
0010
0000
,
0002
1003
0010
0100
,
0002
0000
2003
0000
3100
0010
0100
0010
,
0002
1003
0010
0100
,
0002
0000
1003
0000
0100
0010
0100
0000
,
2000
3001
0100
0010
,
2000
0000
3002
0000
0013
0100
0010
0100
,
1000
0001
0100
0010
,
1000
0010
1000
0000
0001
0000
0000
0000
,
1000
0001
0010
0100
,
1000
0100
1000
0000
0001
0000
0000
0000
,
0101
1100
0001
1000
,
0100
0100
1000
0000
0001
0000
0000
0000
,
0011
1010
0001
1000
,
0010
0010
1000
0000
0001
0000
0000
0000
,
0011
0011
0000
0000
,
0010
0100
1000
0000
0010
0100
1000
0000
,
1100
1100
0000
0000
,
0001
0001
0100
0000
0010
0000
0000
0000
,
1010
1010
1000
0001
,
0010
0100
1000
0000
0010
0100
1000
0000
,
1001
1001
0001
0100
,
0020
2030
3200
0302
,
0023
0000
0000
0000
,
0030
0000
0000
0000
,
1002
0000
0013
0000
,
0100
0000
0000
0100
1000
0100
0000
0100
,
1000
0000
0001
0000
0101
0000
0100
0010
,
0100
0000
0001
1000
0100
0010
0001
0000
,
2001
0000
3010
0000
,
0100
0000
0000
0100
0001
0100
0000
0100
,
0001
2000
3200
0320
,
0031
0101
0110
1010
,
1001
0000
0000
0001
0000
0010
0000
1000
,
0000
0100
0000
0001
0000
0010
0000
1000
,
0000
0100
0000
0001
0000
1000
0000
0100
,
0000
0000
1000
0001
0100
0010
1000
0000
,
0001
0000
1001
0000
0000
1000
0000
0010
,
0000
0001
0000
0100
0000
1000
0000
0001
,
0000
0200
0302
2003
,
3200
0302
0023
2030
,
3001
0000
0010
0000
0100
0010
0001
0000
,
1000
0010
0100
0001
,
0010
0000
0100
0010
0001
0000
1000
0000
,
0010
0100
0001
0000
0100
0010
1000
0000
,
0001
0010
0100
1000
,
0001
0100
0010
0000
0200
0000
0300
0000
,
1000
0100
0001
0010
,
0100
0010
0001
0000
1000
0000
0010
0000
,
1000
0010
0100
0000
0001
0010
0100
0000
,
1000
0010
0100
0000
0001
0010
0100
0000
,
1000
0100
0001
0000
0001
0100
1000
0000
,
1000
0100
0010
0000
0002
0000
0003
0000
,
1000
0010
0001
0010
,
1000
0010
0100
0010
1000
0000
0001
0000
,
0010
0100
1000
0000
0100
0010
0001
0000
,
1000
0010
1000
0010
0100
0000
0010
0000
,
0220
0000
0330
0000
;

//--------------- dance-single - ----------------
#NOTEDATA:;
#STEPSTYPE:dance-single;
#DESCRIPTION:;
#DIFFICULTY:Medium;
#METER:11;
#RADARVALUES:0,0,0,0,0;
#NOTES:
0000
0000
0000
0000
,
0000
0000
0000
0000
,
0000
0000
0000
0000
,
1100
0000
0101
0000
1000
0100
1000
0000
,
0001
0100
0010
0000
0110
0000
1000
0000
,
1010
0000
0011
0000
1000
0010
1000
0000
,
0001
0010
0100
0000
0110
0000
1000
0000
,
1100
0000
0000
0000
0101
0000
0000
0000
1100
0000
0000
0100
0000
0000
0100
0000
,
1000
1000
0001
0000
0101
0000
0100
0000
,
1010
0000
0000
0000
0011
0000
0000
0000
1010
0000
0000
0010
0000
0000
0010
0000
,
1000
1000
0001
0000
0010
0100
1000
0001
,
0200
M000
M000
M000
,
M000
M000
M000
M000
,
M000
M000
M000
M000
,
00M0
000M
00M0
M000
,
0310
0000
1000
0010
1000
1000
0000
0001
,
0010
0100
1000
0000
0001
0000
0011
0000
,
1010
0000
1000
0001
0100
0001
1000
0000
,
0100
1000
0100
0000
0100
0001
0100
0000
,
1100
0000
1000
0001
0010
0001
1000
0000
,
0010
1000
0010
0000
0010
0001
0010
0000
,
1010
0000
1000
0001
0010
0100
1000
0000
,
0001
0001
0100
0000
0010
0100
0001
1000
,
0200
0000
1300
0000
0001
0100
0001
0000
,
1000
1000
0100
0000
0001
0001
0100
0000
,
0020
0000
0031
0000
1000
0010
1000
0000
,
0001
0001
0010
0000
0110
0000
1001
0000
,
0101
0000
0000
0000
1100
0000
0000
0000
0101
0000
0000
0100
0000
0000
0100
0000
,
0001
0001
1000
0000
0100
0100
0010
0000
,
0011
0000
0000
0000
1010
0000
0000
0000
0011
0000
0000
0010
0000
0000
0010
0000
,
0001
0001
1000
0000
1010
0000
0101
0000
,
1001
0000
0110
0000
1000
0000
0001
0010
,
0100
1000
0020
0100
0000
1030
0010
0100
,
0101
0000
0000
0000
1100
0000
0000
0000
0101
0000
0000
0100
0000
0000
0100
0000
,
0001
0001
1000
0100
0010
0000
0001
0000
,
0011
0000
1010
0000
0001
0010
0100
1000
,
0001
0100
0020
1000
0000
0130
0010
1000
,
0001
0010
0100
1000
0100
0010
0001
1000
,
0020
0032
0203
2300
,
3020
0000
0000
0000
,
0030
0000
0000
0000
0000
0000
0100
0100
,
2001
0000
0000
0000
3100
0000
0010
0001
,
1000
0000
0000
1000
0000
0000
1000
0000
0010
0000
0100
0000
0000
0000
0100
0000
,
0002
0000
0103
0010
2000
0000
3100
0010
,
0001
1000
0010
0100
1000
0100
0002
0000
,
2003
0000
3100
0020
,
0031
0000
0000
0001
0000
0000
0001
0000
0100
0000
0010
0000
0000
0000
0010
0000
,
2000
3200
0302
0203
,
1300
0100
0001
0100
1000
0100
0001
0100
,
1000
0000
0001
0101
0000
1100
0000
0101
,
0000
1100
0000
0101
0000
0100
0010
1000
,
0001
0011
0000
1010
0000
0011
0000
1010
,
0000
1000
0100
0010
1000
0010
0002
0000
,
1003
0000
2001
0000
3010
0100
0000
0101
,
0000
1100
0000
0101
0000
0100
0010
1000
,
0001
0010
0200
0000
2300
0000
3002
0000
,
0203
2300
3020
0032
,
1003
0100
0010
0100
1000
0001
0100
0010
,
1000
0010
0100
0001
1000
0000
0100
0010
,
2000
0000
3010
0001
1000
0001
0100
0000
,
0010
0100
0001
0000
0010
0100
1000
0000
,
0010
0001
0010
0000
0010
1000
0010
0000
,
0100
1000
0100
0010
2000
0000
3001
0010
,
0100
0001
1000
0010
0100
1000
0001
0100
,
0010
1000
0100
0010
0001
0000
1001
0000
,
1000
0010
0001
1000
0001
0010
1000
0001
,
1000
0010
0001
1000
0001
0010
1000
0001
,
1000
0100
0001
0100
1000
0100
0001
0100
,
1000
0001
0100
0010
2000
0000
3001
0000
,
1000
0100
0001
1000
0010
1000
0001
0100
,
1000
0001
0100
0000
0020
0000
1030
0000
,
0001
0010
1000
0000
0001
0100
1000
0000
,
0010
0100
0001
0010
0100
1000
0010
0100
,
0220
0000
0330
0000
;

//--------------- dance-single - ----------------
#NOTEDATA:;
#STEPSTYPE:dance-single;
#DESCRIPTION:;
#DIFFICULTY:Hard;
#METER:14;
#RADARVALUES:0,0,0,0,0;
#NOTES:
0000
0000
0000
0000
,
0000
0000
0000
0000
,
0000
0000
0000
0000
,
1100
0000
0000
0000
0101
0000
0000
0000
1100
0000
1000
0100
0010
0000
0000
0000
,
0001
0000
1000
0000
0001
0000
0100
0010
0000
1000
0000
1000
0000
0000
0000
0000
,
1010
0000
0000
0000
0011
0000
0000
0000
1010
0000
1000
0010
0100
0000
0000
0000
,
0001
0000
1000
0000
0001
0000
0010
0100
0000
1000
0000
1000
0000
0000
0000
0000
,
2200
0000
3300
0000
0202
0000
0303
0000
1100
0000
1000
0100
0000
0100
0001
0000
,
0010
0000
0010
0000
1000
0000
0010
0100
0000
0001
0000
0001
0000
0000
0000
0000
,
0202
0000
0303
0000
2200
0000
3300
0000
0101
0000
0001
0100
0000
0100
1000
0000
,
0010
0000
0000
0000
0000
0000
0010
0000
0000
0000
0000
0000
0001
0000
0000
0000
0000
0000
0010
0000
0000
0100
0000
0000
1000
0000
0000
0000
0000
0000
0001
0000
0000
0000
0000
0000
0100
0000
0000
0000
0010
0000
1000
0000
0000
0000
0010
0000
,
2000
00M0
00M0
00M0
,
00M0
00M0
00M0
00M0
,
00M0
00M0
00M0
00M0
,
3002
0023
2030
3200
,
0302
0000
1003
0001
0020
0100
0000
1030
,
0010
0000
0001
0000
1000
0000
0010
0200
0001
0000
0010
0000
0301
0000
0000
0000
,
2010
0000
0000
0000
3001
0000
1000
0000
0100
0000
0010
0100
1000
0000
0001
0000
,
0100
0000
0010
0000
0001
0010
0000
0020
1000
0000
0100
0000
1030
0000
0000
0000
,
0012
0000
0000
0000
1003
0000
0001
0000
0100
0000
0010
0100
0001
0000
1000
0000
,
0100
0000
0010
0000
1000
0010
0000
0020
0001
0000
0100
0000
0031
0000
0000
0000
,
2001
0000
0000
0000
3010
0000
0100
0000
0001
0000
1000
0100
0010
0000
0001
0000
,
0100
0000
0100
0000
1000
0000
0010
0100
0010
0000
0001
0000
0110
0000
1000
0000
,
2001
0000
0000
0000
3100
0000
0000
0000
1000
0000
0001
0100
0000
0100
1000
0000
,
0010
0000
0010
0000
0001
0000
1000
0002
0010
0000
0013
0000
0100
0000
0000
0000
,
2000
0000
0000
0000
3010
0000
0000
0000
1000
0000
0001
0010
0000
0010
1000
0000
,
0100
0000
0000
0100
0000
0000
0001
0000
0000
0100
0000
0010
0000
0000
0000
0110
0000
0000
1001
0000
0000
0000
0000
0000
,
1100
0000
0000
0000
0101
0000
0000
0000
1100
0000
1000
0100
0000
0100
0001
0000
,
0010
0000
0010
0000
1000
0000
0001
2000
0010
0000
3010
0000
0100
0000
0000
0000
,
0101
0000
0000
0000
1100
0000
0000
0000
0101
0000
0001
0100
0000
0100
1000
0000
,
0010
0000
0000
0010
0000
0000
0001
0000
0000
0010
0000
0100
0000
0000
0000
0110
0000
0000
1001
0000
0000
0000
0000
0000
,
1010
0000
0000
0000
0101
0000
0000
0000
1010
0000
0000
0000
1000
0010
0100
0000
,
0002
0100
1003
0010
2000
0100
3001
0010
,
0011
0000
0000
0000
1010
0000
0000
0000
0011
0000
0001
0010
0000
0010
1000
0000
,
0100
0000
0100
0000
0001
0000
0100
0010
0000
1000
0000
1000
0000
1000
0001
0000
,
2000
0000
0100
0000
3002
0000
0100
0000
1003
0000
0001
0000
0010
0100
1000
0000
,
0002
0010
1003
0100
2000
0010
3001
0100
,
0001
0000
1000
0100
0000
1000
0100
0000
1000
0100
0000
1000
0100
0000
0010
0001
0000
0010
0001
0000
0010
0001
0000
0010
,
0002
0203
2300
3020
,
0032
0000
0000
0000
,
0003
0000
0000
0000
0000
0000
0011
1100
,
1002
0000
0000
0000
0000
0000
0000
0000
0103
0000
0010
0000
1000
0010
0100
0002
,
1000
0000
0000
0000
0000
0000
0000
0000
0000
0000
0000
0000
0000
0010
0000
0000
0000
0000
0000
0000
0000
0000
0000
0000
1000
0000
0000
0000
0000
0000
0000
0000
0013
0000
0000
0000
0000
0000
0000
0000
0000
0000
0000
0000
0010
0000
0000
0000
0100
0000
0000
0000
1000
0000
0000
0000
0000
0000
0000
0000
1000
0000
0000
0000
,
0002
0000
0100
1003
1100
0002
0100
1003
,
0001
0000
0010
0000
0100
0001
0100
0000
0010
0000
0002
0000
1000
0000
0000
0000
,
0203
0000
0000
0310
0110
1000
0002
0000
,
0010
0000
0000
0000
0000
0000
0000
0000
0000
0000
0000
0000
0000
1000
0000
0000
0000
0000
0000
0000
0000
0000
0000
0000
0010
0000
0000
0000
0000
0000
0000
0000
1003
0000
0000
0000
0000
0000
0000
0000
0001
0000
0000
0000
0000
0000
0000
0000
0200
0000
0000
0000
0000
0000
0000
0000
0010
0000
0000
0000
0000
0000
0000
0000
,
0320
0000
0000
2030
0000
0000
3002
0000
0000
0013
0100
0010
,
1000
0010
0011
1000
0011
0100
0011
1000
,
0010
0000
0000
0000
1001
0000
0021
0000
0130
0000
1010
0000
1000
0010
0100
0001
,
1000
1200
0310
0201
0310
1200
0310
0201
,
0310
2001
3200
0010
1300
0002
0100
1003
,
0001
0000
0010
0000
0100
0001
0100
0000
0010
0000
0001
0000
2000
0000
0000
0000
,
3010
0100
0102
0000
2003
0100
3002
0100
,
1003
0021
0130
1020
0130
0021
0130
1020
,
0130
0000
0000
0001
0000
0000
2001
0000
0000
0000
0000
0000
3002
0000
0000
0000
0000
0000
0103
0000
0010
0000
0100
0000
,
2000
3200
0302
2003
,
3100
0000
1000
0100
1000
0001
0000
0001
0000
0100
0000
0010
0000
1000
0000
0010
,
0100
0000
0001
0100
0001
1000
0000
0100
0000
0100
0010
0000
0001
0010
0100
0002
,
0000
0000
0103
0010
0100
1000
0001
0020
0000
0000
0031
1000
0100
0000
1000
0000
,
0001
0100
0010
1000
0000
0001
0000
1000
0100
0010
0002
0000
1000
0000
0000
0000
,
0103
0000
0001
0100
0000
0010
0000
0100
0000
0001
0000
1000
0000
0100
0010
0001
,
1000
0000
0010
0100
0010
0000
0100
2000
0000
0000
0000
0000
3100
0010
0100
0001
,
1000
0000
0200
0001
0000
0310
0001
0000
0200
1000
0000
0310
1000
0000
0001
1000
,
0100
0000
0010
0000
0001
0000
0000
0001
1000
0010
0000
0010
0100
0000
0001
0000
,
1000
0100
0010
0001
1000
0010
0100
0000
0001
0100
0010
1000
0000
0001
0100
0010
,
1000
0001
0000
0010
0000
0100
0010
0001
1000
0000
0100
0010
0001
1000
0000
0001
,
0100
0010
0100
1000
0000
0100
0000
0001
0100
0010
0100
1000
0000
0100
0000
0001
,
1000
0000
0100
0000
0010
0100
0000
0002
0000
0000
0203
0000
0000
0000
1300
0000
,
0010
0000
2000
0010
3000
0002
0010
0003
2000
0010
3000
0001
0000
1000
0010
1000
,
0001
0000
0010
0100
0010
0001
0000
1000
0000
0010
0000
0100
0020
0000
0000
0000
,
1030
0001
0000
0010
0000
0100
0010
0001
1000
0100
1000
0001
0000
0100
0010
0000
,
2000
0000
3020
0000
0032
0000
0203
0000
1300
0000
0001
0010
0100
0000
1000
0000
,
2002
0000
3003
0000
;

//--------------- dance-single - ----------------
#NOTEDATA:;
#STEPSTYPE:dance-single;
#DESCRIPTION:;
#DIFFICULTY:Challenge;
#METER:15;
#RADARVALUES:0.003971,0,0.006948,0,0,4,1,1,0,0,1,0,0,0,0.003971,0,0.006948,0,0,4,1,1,0,0,1,0,0,0;
#NOTES:
0000
0000
0000
0000
,
0000
0000
0000
0000
,
0000
0000
0000
0000
,
1100
0000
0000
0000
0101
0000
0000
0000
1100
0000
0001
0100
0010
0000
0000
0000
,
1000
0000
0000
0000
0000
0000
1000
0000
0000
0000
0000
0000
0001
0000
0000
0000
0000
0000
0010
0000
0000
0100
0000
0000
0000
0000
0000
1000
0000
0000
0000
0000
0000
1000
0000
0000
0000
0000
0000
0001
0000
0000
0100
0000
0010
0000
0100
0000
,
0010
0000
0000
0000
1001
0000
0000
0000
0011
0000
1000
0100
0010
0000
0000
0000
,
0001
0000
0000
0000
0000
0000
0001
0000
0000
0000
0000
0000
0100
0000
0000
0000
0000
0000
0010
0000
0000
0100
0000
0000
0000
0000
0000
0001
0000
0000
0000
0000
0000
0001
0000
0000
0000
0000
0000
0000
1000
0000
0100
0000
0000
0000
0020
0000
,
0002
0000
0033
0000
2020
0000
3030
0000
0011
0000
1000
0100
0010
0100
0001
0000
,
0200
0000
0000
0000
0000
0000
2300
0000
0000
0000
0000
0000
3001
0000
0000
0000
0000
0000
0100
0000
0000
0010
0000
0000
0100
0000
0000
0001
0000
0000
0000
0000
0000
0001
0000
0000
1000
0000
0000
0000
0000
0000
0100
0000
0010
0000
0200
0000
,
0020
0000
0330
0000
2002
0000
3003
0000
1010
0000
0001
0100
0010
0100
1000
0000
,
0200
0000
0000
0000
0000
0000
0302
0000
0000
0000
0000
0000
1003
0000
0000
0000
0000
0000
0100
0000
0000
0010
0000
0000
0001
0000
0000
0000
0000
0000
1000
0000
0000
0000
0000
0000
0010
0000
0000
0000
0100
0000
0010
0000
0000
0000
1000
0000
,
0002
0M00
0M00
0M00
,
0M00
0M00
0M00
0M00
,
0M00
0M00
0M00
0M00
,
0023
2030
3200
0302
,
2MM3
0000
3001
1000
0200
0010
0000
0301
,
0100
0000
1000
0000
0001
0000
0200
0020
0000
0000
1000
0000
0331
0000
0000
0000
,
1MM2
0000
0000
0000
1003
0000
0001
0000
0010
0000
0100
0010
0001
0000
1000
0000
,
0010
0000
0100
0000
0002
1000
0000
2000
0000
0000
0010
0000
3103
0000
0000
0000
,
21M1
0000
0000
0000
3001
0000
0010
0000
1100
0000
0001
0100
0010
0000
0100
0000
,
1001
0000
1000
0000
0100
0020
0000
1000
0000
0000
0100
0000
0031
0000
0000
0000
,
1112
0000
0000
0000
1003
0000
0010
0000
0100
0000
0001
1000
0100
0000
0010
0000
,
2000
0000
0000
0000
0000
0000
3020
0000
0000
0000
0000
0000
0031
0000
0000
0000
0000
0000
1000
0000
0000
0010
0000
0000
0100
0000
0000
0000
0001
0000
0100
0000
0000
0000
0001
0000
0100
0000
0000
0000
0010
0000
1000
0000
0000
0000
0010
0000
,
2000
0000
0000
0000
3100
0000
0000
0000
1000
0000
0001
0100
0010
0100
1000
0000
,
0200
0000
0302
0000
1003
0000
0100
0010
0001
0000
0001
0000
1000
0000
0000
0000
,
0020
0000
0000
0000
0130
0000
0000
0000
0001
0000
1000
0100
0010
0100
0001
0000
,
0200
0000
0000
2300
0000
0000
3001
0000
0000
0100
0000
0010
0000
0000
0200
0001
0000
0000
0010
0000
0000
0301
0000
0000
,
0101
0000
0000
0000
1100
0000
0000
0000
0101
0000
1000
0010
0100
0010
0001
0000
,
0020
0000
2030
0000
3001
0000
0010
0100
0020
0000
0100
0000
0031
0000
0000
0000
,
1100
0000
0000
0000
0101
0000
0000
0000
1100
0000
0001
0010
0100
0010
1000
0000
,
0020
0000
0000
0032
0000
0000
1003
0000
0000
0010
0000
0100
0000
0000
0000
0110
0000
0000
1001
0000
0000
0000
0000
0000
,
1100
0000
0000
0000
0011
0000
0000
0000
1100
0000
0000
0000
0001
0100
0010
0000
,
2000
0100
3001
0010
0002
0100
1003
0010
,
1010
0000
0000
0000
0011
0000
0000
0000
1010
0000
0001
0100
0010
0100
1000
0000
,
0200
0000
0302
0000
1003
0000
0100
0010
0100
1000
0000
1000
0000
1000
0001
0000
,
0201
0000
0310
0000
1200
0000
0310
0000
0001
0000
1000
0000
0010
0100
0001
0000
,
2000
0010
3001
0100
0002
0010
1003
0100
,
1000
0000
0001
0100
0000
0001
0100
0000
0010
1000
0000
0010
1000
0000
0001
0010
0000
0001
0010
0000
0100
1000
0000
0100
,
2000
0000
0002
0000
0200
0300
0020
0030
,
0220
0000
0000
0000
,
3333
0000
0000
0000
0000
0000
1010
0101
,
2001
0000
0000
0000
0000
0000
0000
0000
0000
0000
0000
0000
0000
0000
0000
0000
0000
0000
0000
0000
0000
0000
0000
0000
0000
0000
0000
0000
0000
3001
0000
0000
0020
0000
0000
0000
0000
0000
0000
0000
0130
0000
0000
0000
0000
0000
0000
0000
0001
0000
0000
0000
0100
0000
0000
0000
0010
0000
0000
0000
0001
0000
0000
0000
,
2000
0000
0000
0000
0000
0000
0000
0000
0000
0000
0000
0000
0000
0010
0000
0000
0000
0000
0000
0000
0000
0000
0000
0000
3001
0000
0000
0000
0000
0000
0000
0000
0100
0000
0000
0000
0010
0000
0000
0000
0000
0000
0000
0000
0010
0000
0000
0000
0001
0000
0000
0000
0010
0000
0000
0000
0000
0000
0000
0000
0010
0000
0000
0000
,
2000
0000
0000
0000
0000
0000
0000
0000
0100
0000
0000
0000
0000
0000
0000
0000
3001
0000
0000
0000
0000
0000
0000
0000
0010
0000
0000
0000
0000
0020
0000
0000
0100
0000
0000
0000
0000
0000
0000
0000
0001
0000
0000
0000
0000
0000
0000
0000
0100
0000
0000
0000
0000
0000
0000
0000
0031
0000
0000
0000
0000
0000
0000
0000
,
2000
0000
3010
0000
0100
1000
0100
0000
0101
0000
0001
0000
2000
0000
0000
0000
,
3200
0000
0000
0001
0310
0001
2000
0000
,
3002
0000
0000
0000
0000
0000
0000
0000
0000
0000
0000
0000
0000
0100
0000
0000
0000
0000
0000
0000
0000
0000
0000
0000
1003
0000
0000
0000
1000
0000
0000
0000
0200
0000
0000
0000
0000
0000
0000
0000
0010
0000
0000
0000
0000
0000
0000
0000
1000
0000
0000
0000
0000
0000
0000
0000
0010
0000
0000
0000
0000
0000
0000
0000
,
1300
0000
0000
0001
0000
0000
0200
0000
0000
0000
0000
0000
0320
0000
0000
0000
0000
0000
1030
0000
0010
0000
1000
0000
,
0001
0000
0000
0000
0000
0000
0000
0000
0100
0000
0000
0000
0000
0100
0000
0000
1000
0000
0000
0000
0000
0000
0000
0000
0100
0000
0000
0000
0000
0100
0000
0000
0001
0000
0000
0000
0000
0000
0000
0000
0100
0000
0000
0000
0000
0100
0000
0000
1000
0000
0000
0000
0000
0000
0000
0000
0100
0000
0000
0000
0000
0000
0000
0000
,
0010
0000
0000
0000
1001
0000
1020
0000
0130
0000
0011
0000
0001
0010
0100
1000
,
0001
0000
0201
0000
0310
0000
1100
0000
1000
0100
1000
0100
0010
0001
0010
0001
,
1000
1020
0130
0021
0130
1020
0130
0021
,
0230
0000
0001
0000
0310
0001
1000
0000
0110
0000
1001
0000
0110
0000
0000
0000
,
2000
0010
3002
0000
0013
2100
3020
0100
,
1030
0000
0000
0001
0000
0001
0010
0000
0010
0200
0000
0000
0001
0000
0000
0010
0000
0000
1300
0000
0000
0001
0000
0000
,
0100
0000
0000
0010
0000
0000
2010
0000
0000
0000
0000
0000
3002
0000
0000
0000
0000
0000
0013
0000
0100
0000
0010
0000
,
2000
0000
0000
0000
0000
0000
3020
0000
0000
0000
0000
0000
0032
0000
0000
0000
0000
0000
1003
0010
1000
0010
1000
0010
,
0100
0000
0001
1000
0001
0010
0000
0010
0000
1000
0000
0010
0000
0100
0000
1000
,
0001
0000
0100
0010
0100
1000
0000
0100
0000
0010
0100
0000
0001
1000
0100
0002
,
0000
0000
0103
0010
0100
1000
0001
0200
0000
0000
0310
1000
0010
0000
0100
0000
,
0001
1000
0100
0010
0000
0100
0000
0001
0100
0010
0001
0000
1000
0020
0000
0000
,
0130
0000
1000
0100
0000
0010
0000
0100
0000
0001
0000
1000
0000
0100
0010
1000
,
0010
0001
1000
0010
0100
0000
1000
0200
0000
0000
0000
0000
0301
1000
0100
0010
,
1000
0010
0100
1000
0010
0100
1000
0100
0010
1000
0100
0010
1000
0010
0001
1000
,
0100
0000
0000
0000
0010
0000
0000
0000
0002
0000
0000
0010
0000
0000
1003
0000
0000
0000
0001
0000
1000
0000
0010
0000
0100
0000
0002
0000
0000
0000
0000
0000
,
1003
0000
0100
0000
0010
0000
0001
0000
1000
0000
0010
0100
0010
0000
0000
0000
1000
0000
0001
0000
0100
0000
0010
0000
1000
0000
0001
0000
0010
0000
0100
0000
,
1000
0001
0000
0001
0100
0010
1000
0100
0010
0000
0100
1000
0001
0010
0000
0010
,
0001
1000
0010
0100
0000
1000
0000
0100
0001
1000
0010
0100
0000
1000
0000
0100
,
0001
0000
1000
0000
0100
0010
0000
2000
0000
0000
3020
0000
0000
0000
0031
0000
,
0100
0000
0002
0010
0003
2000
0010
3000
0002
0010
0003
1000
0000
0001
0010
0001
,
1000
0000
0010
0100
0010
1000
1000
0001
0000
0020
0000
0000
0130
0000
0000
0000
,
1000
0100
0000
0001
0000
0100
0010
0001
1000
0010
0100
1000
0000
0100
0010
0000
,
1000
0000
0010
0000
1000
0000
0001
0000
0100
0000
0001
0000
1000
0000
0010
0000
1000
0000
0001
0000
0100
0000
0001
0000
1000
0000
0000
0000
0000
0000
0001
0000
0000
0010
0000
0000
0100
0000
0000
0000
0000
0000
1000
0000
0000
0000
0000
0000
,
2002
0000
3003
0000
;
