#TITLE:Baqeela;
#SUBTITLE:;
#ARTIST:owl * tree;
#TITLETRANSLIT:;
#SUBTITLETRANSLIT:;
#ARTISTTRANSLIT:;
#GENRE:Electro Samba;
#CREDIT:;
#BANNER:Baqeela.png;
#BACKGROUND:Baqeela-bg.png;
#LYRICSPATH:;
#CDTITLE:;
#MUSIC:Baqeela.ogg;
#OFFSET:-0.068175;
#SAMPLESTART:23.375866;
#SAMPLELENGTH:15.000000;
#SELECTABLE:YES;
#BPMS:0.000000=130.000000
;
#STOPS:
;
#BGCHANGES:;
#KEYSOUNDS:;
#ATTACKS:;

//---------------dance-single - ----------------
#NOTES:
     dance-single:
     :
     Hard:
     14:
     0.609916,0.689170,0.170209,0.205669,0.890052,602.000000,578.000000,24.000000,29.000000,0.000000,0.000000,0.609916,0.689170,0.170209,0.205669,0.890052,602.000000,578.000000,24.000000,29.000000,0.000000,0.000000:
// measure 0
0000
0000
0000
0000
,  // measure 1
0000
0000
0000
0000
,  // measure 2
0000
0000
0000
0000
,  // measure 3
0000
0000
0000
0000
,  // measure 4
0000
0000
0000
0000
,  // measure 5
1000
0000
0000
0001
0100
0010
0000
0100
0000
0010
0000
1000
0000
0100
0010
0001
,  // measure 6
0000
0000
1000
0000
0001
1000
0000
0100
0000
0010
0000
0100
0000
0010
0001
0010
,  // measure 7
0100
0000
0000
1000
0100
0010
0000
0100
0000
1000
0000
0100
0000
0010
0002
0000
,  // measure 8
0003
1000
0000
0100
0010
0001
0000
0010
0000
0100
0000
1000
0100
0000
1000
0100
,  // measure 9
1000
0000
0000
0001
0010
0000
0000
0100
1000
0000
0000
0010
1000
0000
0000
0010
,  // measure 10
0100
0000
0000
0001
1000
0000
0000
0010
0100
0000
0000
0001
0100
0000
0000
0001
,  // measure 11
1000
0000
0000
0000
0000
0000
0100
0000
0000
0000
0000
0000
0010
0000
0000
0000
0000
0000
0001
0000
0000
0000
0000
0000
0010
0000
0000
0100
0000
0000
0010
0000
0000
0100
0000
0000
1000
0000
0000
0000
0100
0000
0000
0000
0010
0000
0000
0000
,  // measure 12
0002
0000
0000
0000
0003
1000
0100
0010
,  // measure 13
0001
0000
0000
1000
0100
0000
0010
0000
0100
0000
1000
0000
0100
0000
0010
0000
,  // measure 14
0100
0000
0000
1000
0001
0000
0010
0000
0100
0000
0010
0000
0001
0000
2000
0000
,  // measure 15
3000
0000
0000
0000
0100
0000
0000
0000
0010
0000
0000
0000
0100
0000
0000
0000
0000
0000
1000
0000
0000
0100
0000
0000
0000
0000
0000
0010
0000
0000
0000
0000
0000
0001
0000
0000
1000
0000
0000
0000
0000
0000
0100
0000
0000
0000
0000
0000
,  // measure 16
0020
0000
0001
0031
0000
0100
0010
1000
,  // measure 17
0001
0000
0000
1000
0100
0000
0010
0000
0000
0000
0100
0000
1000
0000
0010
0000
,  // measure 18
0100
0000
0000
1010
0000
0000
0101
0000
0000
1100
0000
0000
0011
0000
0001
0000
,  // measure 19
0000
0000
0000
0000
1000
0000
0000
0000
0100
0000
0000
0000
1000
0000
0000
0000
0000
0000
0100
0000
0000
1000
0000
0000
0000
0000
0000
0010
0000
0000
0000
0000
0000
0100
0000
0000
0010
0000
0000
0000
0000
0000
0100
0000
0000
0000
0000
0000
,  // measure 20
0010
0000
0000
1000
0000
0000
0001
0000
0000
0100
0000
0000
0010
0000
0100
0000
0010
0000
0200
0000
0000
0000
0000
0000
,  // measure 21
0301
0000
0000
1000
0100
0000
1000
0000
0100
0000
0010
0000
0100
0000
1000
0000
,  // measure 22
0100
0000
0000
1000
0010
0000
0100
0000
0010
0000
1000
0000
0001
0000
2000
0000
,  // measure 23
3000
0000
0000
0000
0100
0000
0000
0000
0010
0000
0000
0000
0100
0000
0000
0000
0000
0000
1000
0000
0000
0100
0000
0000
0000
0000
0000
0010
0000
0000
0000
0000
0000
0001
0000
0000
1000
0000
0000
0000
0000
0000
0100
0000
0000
0000
0000
0000
,  // measure 24
0020
0000
0100
0130
0000
0010
0100
1000
,  // measure 25
0001
0000
0000
1000
0100
0000
0010
0000
0000
0000
0001
0000
0010
0000
0100
0000
,  // measure 26
1000
0000
0000
1100
0000
0000
0011
0000
0000
0101
0000
0000
1001
0000
1000
0000
,  // measure 27
0000
0000
0000
0000
0001
0000
0000
0000
0010
0000
0000
0000
0001
0000
0000
0000
0000
0000
0010
0000
0000
0001
0000
0000
0000
0000
0000
0100
0000
0000
0000
0000
0000
0010
0000
0000
0100
0000
0000
0000
0000
0000
0010
0000
0000
0000
0000
0000
,  // measure 28
1000
0000
0000
0001
0000
0000
0100
0000
0000
0010
0000
0000
1000
0000
0001
0000
1000
0000
0100
0000
0010
0000
0100
0000
,  // measure 29
2000
0000
0000
0000
3000
0000
0001
0000
0010
0001
0000
0010
0000
0000
0100
1000
,  // measure 30
0100
0000
0000
0010
0000
0000
0001
0010
0100
0000
0000
1010
0000
0000
0101
0000
,  // measure 31
0002
0000
0000
0000
0003
0000
1000
0000
0100
0010
0000
0100
0000
0000
0100
0000
,  // measure 32
0000
0000
0000
0010
0000
0000
0110
0000
0000
0000
0000
0000
0010
0000
0100
0000
0010
0000
1000
0000
0001
0000
1000
0000
,  // measure 33
0002
0000
0000
0000
1003
0000
0100
0000
0010
0001
0010
0001
0010
0000
0100
0000
,  // measure 34
2000
0000
0000
0000
3010
0000
0100
0000
0001
1000
0001
1000
0001
0000
1000
0000
,  // measure 35
0200
0000
0000
0000
0000
0000
0000
0000
0000
0000
0000
0000
0310
0000
0000
0000
0000
0000
0100
0000
0000
0000
0000
0000
1000
0000
0000
0001
0000
0000
0000
0000
0000
0100
0000
0000
0010
0000
0000
0000
1000
0000
0000
0000
0010
0000
0000
0000
,  // measure 36
0000
0100
0001
0000
1000
0000
0100
0000
0010
0001
0010
0001
0010
0001
0010
0000
,  // measure 37
0000
0000
0000
0100
0000
0000
1000
0000
0000
0000
0000
0000
0010
0000
0000
0000
0000
0000
0100
0000
0000
0000
0000
0000
0010
0000
0000
0000
1000
0000
0000
0000
0010
0000
0000
0000
0100
0000
0000
0000
0001
0000
0000
0000
0100
0000
0000
0000
,  // measure 38
0010
1000
0010
0000
0100
0001
0100
0000
1000
0100
0010
0001
0010
0001
0010
0000
,  // measure 39
0000
0100
1000
0000
0100
0000
0010
0000
0100
1000
0100
0010
0001
0010
0100
0000
,  // measure 40
0000
1000
0000
1000
0000
1000
0000
1000
0000
1000
0000
1000
0010
0000
0101
0000
,  // measure 41
0000
0001
0000
0001
0000
0001
0000
0001
0000
0001
0010
0001
0010
0000
0100
0000
,  // measure 42
2200
0000
0000
3300
,  // measure 43
1000
0000
0100
0000
1000
0010
0000
0100
0000
0001
0000
1000
0000
0100
0010
0001
,  // measure 44
0010
0000
0000
0100
1000
0100
0000
0010
0000
0001
0000
0010
0000
0100
2000
0000
,  // measure 45
3000
0010
0000
0000
0100
0001
0010
0100
0000
1000
0000
1000
0010
0000
0100
0000
,  // measure 46
0001
0000
0000
1000
0100
0010
0000
0100
0000
1000
0000
0010
0000
0100
0001
0010
,  // measure 47
0000
0000
0001
0000
1000
0001
0000
0010
0000
0100
0000
1000
0000
0100
0010
0001
,  // measure 48
1000
0000
0000
0100
1000
0100
0000
0010
0000
0001
0000
0010
0000
0100
0010
0000
,  // measure 49
0000
1100
0000
1000
0000
0011
0000
0010
0000
0001
0000
1000
0100
0000
0010
0000
,  // measure 50
0100
1000
0100
1000
0000
0100
1000
0100
0010
0001
0020
0000
0031
0010
0001
0010
,  // measure 51
0100
1000
0000
1000
0100
0000
0010
0000
0011
0000
0000
0010
0000
0000
0010
0000
,  // measure 52
0000
1000
0100
1000
0000
0100
1000
0100
0000
1000
0100
0010
0001
0010
0100
1000
,  // measure 53
0020
0000
0000
0000
0030
1000
0100
0010
,  // measure 54
0200
0000
1300
1000
0000
0001
0010
0100
,  // measure 55
2000
0000
3001
0001
0000
1000
0010
0100
,  // measure 56
0020
0000
0000
0000
0130
0000
0100
0000
0000
0000
0010
0000
1000
0000
0001
0100
,  // measure 57
0020
0000
0000
0000
1030
0000
1000
0000
0000
1100
0000
1000
0000
1000
0000
1000
,  // measure 58
0100
0000
0000
1000
0010
0000
0100
0000
0001
0000
0000
1000
0001
0000
0100
0000
,  // measure 59
0010
0000
0000
0100
0001
0000
1000
0000
0100
0000
0000
0010
0100
0000
1000
0000
,  // measure 60
0100
1000
0100
0010
0001
0010
0100
1000
0100
0010
0001
0010
,  // measure 61
0200
0000
0000
1300
,  // measure 62
0002
0000
0000
0000
0013
0000
0100
1000
0100
0000
0000
0000
1000
0000
0010
0000
,  // measure 63
0100
0000
0001
1000
0100
0010
0000
0100
0000
0010
0001
0100
0000
0010
0100
1000
,  // measure 64
0200
0000
0000
0000
1300
0000
0010
0100
0020
0000
0000
0000
1030
0000
0110
0000
,  // measure 65
0000
1000
0000
1000
0000
1000
0000
0100
0000
0100
0000
0100
0010
0000
0001
0000
,  // measure 66
2000
0000
0000
0000
3001
0000
0010
0100
1000
0000
0000
0000
0010
0000
0100
0000
,  // measure 67
0010
0000
1000
0100
0010
0001
0000
0010
0000
0100
1000
0100
0000
0010
0001
0010
,  // measure 68
0200
0000
0000
0000
0310
0000
0001
0010
0002
0000
0000
0000
1003
0000
1001
0000
,  // measure 69
0000
0001
0000
0001
0000
0001
0000
0010
0000
0010
0000
0010
0001
0000
0100
0000
,  // measure 70
0000
0110
0000
0110
0000
0110
0000
1001
0000
1001
0000
1000
0001
0000
0010
0000
,  // measure 71
0100
0000
0000
1000
0100
0000
0000
0010
0001
0000
0000
0001
0100
0000
0000
0010
,  // measure 72
1000
0000
0000
0100
1000
0000
0000
0001
0010
0000
0000
0010
0100
0000
1000
0100
,  // measure 73
0010
0000
0000
0001
0000
0000
0010
0000
0000
0000
0000
0000
0100
0000
0000
1000
0000
0000
0100
0000
0000
0000
0000
0000
0010
0000
0000
0001
0000
0000
0010
0000
0000
0001
0000
0000
0010
0000
0000
0000
0001
0000
0000
0000
0010
0000
0000
0000
,  // measure 74
0200
0000
0000
0301
;
