#TITLE:BREDLI;
#SUBTITLE:;
#ARTIST:BEMANI Sound Team "SYUNN";
#TITLETRANSLIT:;
#SUBTITLETRANSLIT:;
#ARTISTTRANSLIT:SYUNN;
#GENRE:;
#CREDIT:;
#MUSIC:BREDLI.ogg;
#BANNER:BREDLI.png;
#BACKGROUND:BREDLI-bg.png;
#CDTITLE:;
#SAMPLESTART:30.222;
#SAMPLELENGTH:15.000;
#SELECTABLE:YES;
#OFFSET:1.667;
#BPMS:0.000=128.000;
#STOPS:;
#DISPLAYBPM:128.000;
#LASTBEATHINT:1.314311;
#BGCHANGES:;
#FGCHANGES:;

//--------------- dance-single - t7r ----------------
#NOTES:
     dance-single:
     t7r:
     Beginner:
     2:
     0,0,0,0,0:
0000
0000
0000
0000
,
0000
0000
0000
0000
,
0000
0000
0000
0000
,
0000
0000
0000
0000
,
0000
0000
0000
0000
,
0010
0000
0000
0000
,
0100
0000
0000
0000
,
0001
0000
0000
0000
,
1000
0000
0000
0000
,
0001
0000
0000
0000
,
0000
0000
0000
0000
,
1000
0000
0000
0000
,
0010
0000
0000
0000
,
0100
0000
0100
0000
,
0100
0000
0000
0000
,
0010
0000
0010
0000
,
0010
0000
0000
0000
,
1000
0000
1000
0000
,
1000
0000
0000
0000
,
0001
0000
0001
0000
,
0001
0000
0000
0000
,
0100
0000
0100
0000
,
0100
0000
0000
0000
,
0010
0000
0000
0000
,
1000
0000
0000
0000
,
0001
0000
1000
0000
,
0001
0000
0000
0000
,
0100
0000
0010
0000
,
0100
0000
0000
0000
,
0000
1000
0000
0000
,
0001
0000
0000
0000
,
0001
0000
0000
0000
,
0010
0010
0010
0000
,
0100
0000
0000
0000
,
0100
0000
0000
0000
,
0010
0000
0000
0000
,
0010
0000
0000
0000
,
0001
0000
0001
0000
,
1000
0000
1000
0000
,
0010
0010
0010
0000
,
0100
0000
0000
0000
,
0001
0000
0001
0000
,
1000
0000
1000
0000
,
0010
0000
0010
0000
,
0010
0000
0000
0000
,
1000
0000
1000
0000
,
0001
0000
0001
0000
,
0010
0000
0000
0000
,
0010
0000
0010
0000
,
0100
0000
0100
0000
,
0010
0000
0010
0000
,
0001
0000
0001
0000
,
1000
0000
1000
0000
,
0010
0000
0010
0000
,
0100
0000
0100
0000
,
0010
0000
0000
0000
,
1000
1000
1000
0000
;

//--------------- dance-single - t7r ----------------
#NOTES:
     dance-single:
     t7r:
     Easy:
     6:
     0,0,0,0,0:
0000
0000
0000
0000
,
0000
0000
0000
0000
,
0000
0000
0000
0000
,
0000
0000
0000
0000
,
0000
0000
0000
0000
,
1000
0100
0010
0001
,
2000
0010
0000
3100
,
0001
0010
0100
1000
,
0002
0010
0000
0103
,
0220
0000
0000
0000
,
0000
0000
0000
0330
,
0020
0000
0000
0000
,
2030
0000
0000
0000
,
3002
0003
2000
3000
,
0020
0030
0200
0300
,
0001
0001
1000
1000
,
0010
0010
0200
0300
,
0001
1000
1000
0001
,
0010
0100
1000
0100
,
1000
0001
0001
1000
,
0010
0100
0001
0100
,
0010
0100
0100
0001
,
1000
0100
0010
0001
,
2000
0100
0000
3001
,
1000
1000
0001
0001
,
0100
0110
0001
1000
,
0010
1000
0001
1000
,
0010
0110
1000
0001
,
0010
0001
1000
0100
,
0010
1001
0100
0001
,
1000
0001
1000
0010
,
2000
0100
0000
3001
,
1000
1000
0001
0001
,
0100
0000
0100
0000
,
0010
0000
0010
0000
,
1000
0000
1000
0000
,
0001
0000
0001
0000
,
1000
1000
0001
0001
,
0010
0010
0100
0100
,
1000
0001
1000
0001
,
0100
0100
0010
1001
,
1000
0100
0010
0110
,
0001
0100
0010
0110
,
1000
0100
0001
0100
,
1000
0100
0001
0100
,
1000
0010
0100
0110
,
0001
0010
0100
0110
,
0010
0001
2000
3000
,
0010
0000
0010
0000
,
1000
0100
0001
0100
,
0001
0100
0001
0100
,
1000
0010
0001
0010
,
0001
0010
0001
0010
,
0100
0110
1000
0100
,
0001
0100
0001
0100
,
2000
0010
0000
3001
,
1000
0000
0010
0000
0100
0000
0001
1000
;

//--------------- dance-single - t7r ----------------
#NOTES:
     dance-single:
     t7r:
     Medium:
     8:
     0,0,0,0,0:
0000
0000
0000
0000
,
0000
0000
0000
0000
,
0000
0000
0000
0000
,
0000
0000
0000
0000
,
0000
0000
0000
0000
,
0100
0001
0010
1000
,
0010
0001
0100
0010
,
1000
0100
0001
0100
,
1000
0000
0000
0001
0000
0000
1000
0000
0000
0010
0000
0000
0110
0000
0000
0000
,
2002
0000
0000
0000
,
0000
0000
0000
3003
,
0020
0000
0000
0030
,
0200
0000
0000
0300
,
0002
0000
0000
0023
0000
0000
2030
0000
,
0000
3002
0000
0203
0000
0000
2300
0000
,
3001
0001
0100
0100
,
0001
1000
0001
1000
0001
0000
1000
0000
,
1001
0000
1000
1000
1000
0000
0001
0000
,
1000
0000
0100
0000
1000
0001
1000
0000
,
0001
0000
0100
0000
0001
0001
0001
0000
,
1000
0000
0010
0000
0100
0010
1000
0000
,
0010
0000
0110
0000
0001
1000
0100
0000
,
0010
0000
0001
0001
0001
0000
1000
0000
,
0001
0200
0000
0000
0010
0000
0301
0000
,
1000
1000
1000
0000
0001
0001
0001
0000
,
0100
0000
1010
0000
0001
0100
0010
0000
,
0001
0100
0010
0000
0001
0100
0010
0000
,
0110
0000
0001
0000
1000
0100
0010
0000
,
1000
0100
0010
0000
1000
0100
0010
0000
,
0110
0000
1000
0000
0001
0010
0100
0000
,
0001
0010
0100
0000
0001
0010
0100
0000
,
1000
0020
0000
0000
1000
0000
0130
0000
,
0001
0001
0001
0000
1000
0000
1000
0000
,
0010
0000
0010
1000
,
0000
1000
0001
0100
,
0010
0000
0010
0001
,
0000
0010
0100
0001
,
1000
1000
1000
0000
0100
0000
0010
0000
,
0001
0001
0001
0000
0100
0000
0010
0000
,
1000
0100
0010
1000
0010
0001
0100
0010
,
1000
1000
0001
1001
,
0101
0000
1100
0000
0101
0000
1000
0100
,
0001
0000
1100
0000
0101
0001
0100
1000
,
0100
0010
0100
0000
0100
0001
1000
0000
,
1000
0100
0010
0000
0010
0100
1000
0000
,
1010
0000
0011
0000
1010
0000
0001
0010
,
1000
0000
0011
0000
1010
1000
0010
0001
,
0010
0100
0010
0000
0010
1000
0002
0000
,
1003
1100
0001
0101
,
1001
0000
0010
0000
1000
0100
0001
0000
,
1000
0100
0001
0000
1000
0100
0001
0000
,
1001
0000
0010
0000
0001
0100
1000
0000
,
0001
0100
1000
0000
0001
0100
1000
0000
,
0110
0000
0001
0000
1000
0010
0001
0000
,
1000
0010
0001
0000
1000
0010
0001
0000
,
0100
0100
0100
0100
0010
0000
0110
0000
,
1000
1000
1000
1000
0001
0100
1000
0010
;

//--------------- dance-single - t7r ----------------
#NOTES:
     dance-single:
     t7r:
     Hard:
     13:
     0.005407,0,0.009462,0,0,4,1,1,0,0,1,0.005407,0,0.009462,0,0,4,1,1,0,0,1:
0000
0000
0000
0000
,
0000
0000
0000
0000
,
0000
0000
0000
0000
,
0000
0000
0000
0000
,
0000
0000
0000
0000
,
0010
1000
0100
0001
,
0010
0001
0100
1000
,
0100
0001
0010
1000
,
0110
0000
0000
0010
0100
0000
0010
0000
0000
1001
0000
0000
1001
0000
0000
0000
,
0220
0000
0000
0000
,
0000
0000
0000
0330
,
0020
0000
0000
0000
,
2030
0000
0000
3000
,
0001
0020
0000
1030
0002
0000
0103
2000
,
0000
3002
0000
0023
0000
0000
1030
0000
,
0010
0010
0001
0001
1000
1000
0010
0010
,
0100
0010
0100
0010
0100
0010
0100
0010
0100
0000
0000
0000
1001
0000
0000
0000
,
1100
0000
0100
0100
0001
0001
0100
0100
,
1000
0000
1000
0000
0010
0001
0000
0010
0100
0000
0001
0000
1000
0001
1000
0000
,
1010
0000
0010
0010
0001
0001
0010
0010
,
1000
1000
0110
0001
0110
0001
0110
0001
,
2000
0000
3001
0001
0010
0010
1000
1000
,
0010
0000
0010
0000
0100
1000
0000
0100
0010
0000
0100
0000
1000
0000
0001
0000
,
2000
0000
3100
0100
0001
0001
0100
0100
,
0010
0000
0001
0000
0100
0000
1000
0000
0100
0000
0000
0010
1000
0001
1000
0000
,
1001
0000
0000
0000
1100
0000
0000
0100
0001
0100
1000
0000
0100
0000
0000
0100
,
0001
0100
1000
0000
0100
0010
0000
0100
0001
0100
0010
0000
0001
2000
0000
0000
,
3010
0000
0000
0000
0110
0000
0000
0010
0001
0010
1000
0000
0010
0000
0000
0010
,
0001
0000
0010
0100
0010
1000
0000
1000
0001
0000
1000
0000
0100
0000
0000
0000
,
0010
0000
0000
0000
1001
0000
0000
1000
0100
0001
0100
0000
1000
0000
0000
1000
,
0100
0001
0100
0000
1000
0100
0000
0100
1000
0100
0001
0000
0100
0020
0000
0000
,
0031
0000
0000
0000
0101
0000
0000
0100
0001
0100
0010
0000
1000
0000
0000
0000
,
0010
0100
0010
0100
0010
0100
0010
0100
0020
0000
0000
0000
0030
0000
0000
0000
,
1001
1000
0100
0001
,
0000
0100
0100
0010
,
0001
0001
0100
1000
,
0000
0100
0100
0010
,
1000
0010
0100
1000
0100
0010
1000
0000
,
0001
0010
0100
0001
0100
0010
0001
0000
,
1000
0001
1000
0001
1000
0001
1000
0001
1000
0001
1000
0001
1000
0000
0000
0000
,
0010
0010
0100
0110
,
0001
0000
1100
0000
0101
0000
1100
0010
,
0101
0000
1100
0000
0101
0010
1000
0100
,
0001
0000
0110
0000
1000
0100
0000
0100
0001
0000
0110
0000
1000
0100
0000
0100
,
0001
0000
0110
0000
1000
0000
0100
0010
0001
0000
1000
0000
0110
0000
0000
0001
,
1000
0000
0100
0000
1010
0000
0000
0000
0011
0000
0000
0000
1010
0000
0100
0001
,
1000
1100
0101
0011
,
0001
0000
0010
0000
0001
0100
0000
0100
1000
0000
0100
0000
0110
0000
0000
0000
,
1000
0100
1001
0000
0110
0001
1000
0000
,
0010
0000
0000
0000
1000
0100
0000
0100
0001
0100
1000
0000
0100
0000
0000
0100
,
0001
0100
0010
0000
0100
0010
0000
0100
1000
0100
0001
0000
0100
0010
0000
0000
,
1001
0000
0000
0000
0001
0010
0000
0010
1000
0010
0100
0000
0110
0000
0000
0000
,
0001
0000
0100
1000
0000
0100
0000
0110
0000
0100
0010
0000
1000
0000
0000
0000
,
0001
0000
0000
0000
1001
0000
0000
1000
0100
0010
1000
0000
0010
0000
0000
0001
,
0100
0010
0001
0000
0010
1000
0000
1000
0001
0010
0100
0000
1000
0002
0000
0000
,
1003
1000
0100
0100
0001
0001
0010
0010
,
1000
0100
1000
0100
1000
0100
1000
0100
0010
0000
0001
0000
0100
0000
1001
0000
;

//--------------- dance-single - t7r ----------------
#NOTES:
     dance-single:
     t7r:
     Challenge:
     16:
     0,0,0,0,0:
0000
0000
0000
0000
,
0000
0000
0000
0000
,
0000
0000
0000
0000
,
0000
0000
0000
0000
,
0000
0000
0000
0000
,
1000
0000
0100
0000
0010
0001
0000
1000
0100
0000
0001
0000
0100
0000
0010
0000
,
0001
0000
0100
0000
1000
0100
0000
0010
1000
0000
0010
0100
0001
0000
0010
0100
,
1000
0000
0010
0000
0001
0010
0000
0100
0001
0000
1000
0000
0100
0000
0010
0000
,
0001
0000
0000
1001
0000
0000
0110
0000
1000
0010
0000
0000
0100
0001
1000
0001
,
0020
0000
0000
0000
,
0000
0000
0000
0030
,
2002
0000
0000
3000
,
0200
0000
0000
0303
,
0002
0203
2300
3002
0023
2030
3002
0203
,
2300
3002
0023
2030
3020
0130
0002
2003
,
3001
0000
0001
0010
0100
0000
0100
1000
0010
0000
0010
0100
0001
0000
0001
1000
,
0004
4000
0000
0000
0000
0000
0000
0000
3003
0000
4000
0000
3000
0001
1000
0000
,
1001
0000
1100
0100
0110
0100
1100
0100
,
0110
0000
0010
0000
0001
0100
0000
1000
0100
0010
1000
0000
0001
0010
0100
0000
,
0110
0000
0011
0010
0110
0010
0011
0010
,
0110
0010
0011
0001
1001
1000
1010
1000
,
0001
1000
0100
1000
0001
0000
0100
0000
0110
0000
0010
0000
1010
0000
0010
0000
,
0001
0010
0100
0000
0010
0000
1000
0010
0100
0010
1000
0000
0001
1000
0100
0000
,
1100
0000
0110
0100
0101
0100
1100
0100
,
1000
0000
1000
0000
0001
0000
0100
0000
0100
0000
1000
0100
0010
0100
0010
0000
,
1001
0000
0000
0000
1000
0100
0000
0001
0100
0010
0001
0000
1000
0000
0100
0001
,
0100
0010
0001
0000
1000
0100
0000
0001
0100
0010
0001
0000
1000
0020
0100
0030
,
0110
0000
0000
0000
0001
0100
0000
1000
0100
0010
1000
0000
0001
0000
0110
0000
,
1000
0001
0100
0100
1000
0100
0000
0110
0000
0000
1001
0000
0010
1000
0100
1000
,
0001
0000
0000
0000
0100
0000
0010
0000
0000
1000
0000
0000
0001
0000
0000
0010
0000
0000
0000
0000
0000
1000
0000
0000
0010
0000
0000
0100
0000
0000
1000
0000
0000
0000
0000
0000
0001
0000
0000
0000
0000
0000
0010
0000
0000
1000
0000
0000
,
0010
0100
1000
0000
0001
0000
0010
1000
0010
0100
1000
0000
0001
0200
0010
0300
,
1010
0000
0001
0000
0100
1000
0000
0100
0001
0100
0010
0000
1000
0001
0000
0010
,
0400
0040
0000
0000
0000
0000
0000
0330
0001
1000
0000
0001
1000
0100
0010
0001
,
1000
0000
0000
0000
0000
0000
0100
0000
0100
0000
0000
0100
0010
0000
0000
0000
0000
0001
1000
0000
0000
0001
0000
0000
,
0000
0000
0000
1000
0000
0000
0100
0000
1000
0000
0000
1000
0001
0000
0000
0000
0000
0100
0010
0000
0000
0100
0000
0000
,
0001
0000
0000
0000
0000
0000
0100
0000
0100
0000
0000
0100
0010
0000
0000
0000
0000
1000
0001
0000
0000
1000
0000
0000
,
0000
0000
0000
0010
0000
0000
0100
0000
0001
0000
0000
0001
0010
0000
0000
0000
0000
0100
0010
0000
0000
0100
0000
0000
,
1000
0000
0000
1000
0000
0000
0001
0000
0100
1000
0000
0100
0010
0000
0000
0010
0000
0010
1000
0000
0100
0001
0000
0000
,
0100
0000
0000
0100
0000
0000
0010
0000
0001
0010
0000
1000
0010
0000
0000
0010
0000
0100
1000
0000
0010
0100
0000
0001
,
0010
0001
0010
0001
1000
0100
1000
0100
1000
0010
1000
0010
0100
0001
1000
0001
,
0010
0000
0000
0000
1001
0000
0000
0000
0110
0000
0100
0000
1010
0000
0001
0400
,
0310
0000
1100
0000
0011
0000
1001
0010
,
0101
0000
1010
0000
1100
0110
0001
0110
,
1000
0000
0000
0110
0000
0000
0001
0000
0100
0010
0000
0001
0010
0000
0000
0110
0000
0000
1000
0000
0100
0010
0000
1000
,
0010
0000
0000
0110
0000
0000
0001
0000
0100
0001
0000
0100
1000
0000
0000
0110
0000
0000
0001
0000
0010
1000
0000
0010
,
0100
0010
1001
0000
1010
0000
0101
0110
,
1001
0000
1100
0000
0011
0000
1001
0010
,
0110
0000
1000
0000
0001
0100
0000
0100
1000
0100
0010
0000
0100
0020
0000
0030
,
1001
0010
0101
0010
1100
0010
1001
0000
,
1100
0000
0000
0000
0001
0010
0000
0001
0100
0010
0001
0000
0010
0000
1000
0001
,
0100
0010
0001
0000
0010
1000
0000
0001
0100
0010
0001
0000
0010
2000
0001
3000
,
1001
0000
0000
0000
1000
0100
0000
1000
0010
0100
1000
0000
0100
0000
0010
0000
,
1000
0001
0100
0100
1000
0100
0000
0110
0000
0000
1001
0000
0010
0100
0001
1000
,
0004
0000
0000
0000
0000
0000
0000
0000
0000
0000
1003
0000
0010
0000
0000
0000
0000
0000
0100
0000
0000
0001
0000
0000
0100
0000
0000
0100
0000
0000
1000
0000
0000
0000
0000
0000
0110
0000
0000
0000
0000
0000
0100
0000
0000
1000
0000
0000
,
0100
0100
0001
0000
0100
0010
0000
0100
0001
0100
1000
0000
0100
0020
0001
0030
,
1010
1000
1100
0100
0101
0001
0011
0010
,
1000
0001
1000
0010
0100
0000
0001
0000
1000
0000
0100
0000
0000
0000
0100
0000
1000
0000
0010
0000
0001
0000
0010
0000
0100
0000
0000
0000
1001
0000
0000
0000
;
