#VERSION:0.83;
#TITLE:Amenemhat;
#SUBTITLE:;
#ARTIST:Yesod;
#TITLETRANSLIT:;
#SUBTITLETRANSLIT:;
#ARTISTTRANSLIT:;
#GENRE:;
#ORIGIN:;
#CREDIT:;
#BANNER:Amenemhat-bn.png;
#BACKGROUND:Amenemhat-bg.png;
#PREVIEWVID:;
#JACKET:Amenemhat-jacket.png;
#CDIMAGE:;
#DISCIMAGE:;
#LYRICSPATH:;
#CDTITLE:;
#MUSIC:Amenemhat.ogg;
#OFFSET:1.494000;
#SAMPLESTART:51.153999;
#SAMPLELENGTH:15.000000;
#SELECTABLE:YES;
#BPMS:0.000=155.000;
#STOPS:;
#DELAYS:;
#WARPS:;
#TIMESIGNATURES:0.000=4=4;
#TICKCOUNTS:0.000=4;
#COMBOS:0.000=1;
#SPEEDS:0.000=1.000=0.000=0;
#SCROLLS:0.000=1.000;
#FAKES:;
#LABELS:0.000=Song Start;
#BGCHANGES:;
#KEYSOUNDS:;
#ATTACKS:
;

//---------------dance-single - ----------------
#NOTEDATA:;
#CHARTNAME:;
#STEPSTYPE:dance-single;
#DESCRIPTION:;
#CHARTSTYLE:;
#DIFFICULTY:Hard;
#METER:17;
#RADARVALUES:0.893954,0.994188,0.484970,0.351994,1.001228,800.000000,738.000000,62.000000,45.000000,104.000000,0.000000,2.000000,0.000000,0.000000,0.893954,0.994188,0.484970,0.351994,1.001228,800.000000,738.000000,62.000000,45.000000,104.000000,0.000000,2.000000,0.000000,0.000000;
#CREDIT:TonyAkita;
#NOTES:
// measure 0
0000
0000
0000
0000
,  // measure 1
0000
0000
0000
0000
,  // measure 2
1001
0000
1000
0000
0001
0000
0010
0000
0001
0000
0100
0010
1000
0000
0001
0000
,  // measure 3
1001
0000
0001
0000
1000
0000
0010
0000
1000
0000
0100
0010
0001
0000
1000
0000
,  // measure 4
1001
0000
1000
0000
0100
0000
0010
0000
0001
0000
0010
0100
1000
0000
0001
0000
,  // measure 5
0100
0000
0010
1000
0001
0000
1000
0000
0010
0100
0001
0000
1000
0001
1000
0001
,  // measure 6
1001
0000
0001
0000
0100
0000
1000
0000
0100
0000
0010
1000
0001
0000
1000
0000
,  // measure 7
1001
0000
1000
0000
0100
0000
0001
0000
0100
0000
0010
0001
1000
0000
0001
0000
,  // measure 8
1001
0000
0001
0000
0100
0000
0010
0000
1000
0000
0010
0100
0001
0000
1000
0000
,  // measure 9
0100
0010
0100
0010
0001
0000
1000
0000
0010
0100
0001
0000
1000
0000
0001
0000
,  // measure 10
1001
0000
MMMM
0000
1010
0000
0000
0011
0000
0000
1000
0000
0001
0000
1000
0000
,  // measure 11
1001
0000
MMMM
0000
0011
0000
0000
1010
0000
0000
0001
0000
1000
0000
0001
0000
,  // measure 12
0010
0100
0010
0100
1100
0000
0000
0101
0000
0000
1000
0000
0001
0000
1000
0000
,  // measure 13
1001
0000
0000
0000
0101
0000
0000
1100
0000
0000
0001
0000
0020
0000
0000
0000
,  // measure 14
0031
0000
1000
0010
0000
1000
0001
0000
1000
0010
0000
0000
0100
0001
0100
0001
,  // measure 15
1000
0000
0001
0010
0000
0001
1000
0000
0001
0010
0000
0000
0100
1000
0100
1000
,  // measure 16
0001
0100
0001
0100
0010
1000
0010
1000
0010
0100
0010
0100
0001
1000
0001
1000
,  // measure 17
1001
MMMM
0110
MMMM
1001
MMMM
1000
0001
,  // measure 18
1001
0000
0000
0000
0001
0000
0100
1000
0000
0100
0001
0100
0001
0000
1000
0000
,  // measure 19
0100
0010
0001
1000
0010
0000
0100
1000
0000
0100
0001
0100
0001
0000
1000
0000
,  // measure 20
1001
0000
0000
0000
1000
0000
0100
0001
0000
0100
1000
0100
1000
0000
0001
0100
,  // measure 21
0010
1000
0001
1000
0100
0000
0010
0000
0011
0000
0000
0000
1010
0000
0000
0000
,  // measure 22
1001
0000
0000
0000
1000
0000
0010
0001
0000
0010
1000
0010
1000
0000
0001
0000
,  // measure 23
0010
0100
1000
0001
0100
0000
0010
0001
0000
0010
1000
0010
1000
0000
0001
0000
,  // measure 24
1001
0000
0000
0000
0001
0000
0010
1000
0000
0010
0001
0010
0001
0000
1000
0010
,  // measure 25
0100
0000
0001
0000
0010
0000
1000
0000
0010
0000
0001
1000
0010
0000
0100
0000
,  // measure 26
0101
0000
0001
0000
1000
0100
0010
0001
0010
0000
0100
1000
0001
0000
1000
0000
,  // measure 27
0010
0000
0100
0001
0100
0000
0001
1000
0001
1000
0000
0100
0001
0100
1000
0100
,  // measure 28
0020
0000
0000
0031
1000
0000
0010
0100
0000
0001
0100
0001
0010
0000
0100
1000
,  // measure 29
0001
0000
1000
0010
0000
1000
0001
1000
0001
0010
0000
0001
0100
0000
0010
0000
,  // measure 30
1010
0000
1000
0000
0001
0100
0010
1000
0010
0000
0100
0001
1000
0000
0001
0000
,  // measure 31
0010
0000
0100
1000
0000
0001
0100
0001
1000
0000
0100
0010
0001
0000
1000
0000
,  // measure 32
0001
0010
0001
1000
0001
0010
0100
1000
0010
1000
0001
1000
0010
0100
0001
1000
,  // measure 33
0001
0010
0100
1000
0010
0000
0100
0000
0001
0000
0100
0000
1000
0000
0100
0000
,  // measure 34
0002
0000
1003
0010
0001
MMMM
2000
0000
,  // measure 35
3002
0000
0013
0100
2000
0000
3020
0000
,  // measure 36
2030
0000
3001
0100
1000
MMMM
0001
1000
,  // measure 37
0001
0010
0100
1000
0001
0100
0010
1000
,  // measure 38
0002
0000
1003
0010
0001
MMMM
2000
0000
,  // measure 39
3002
0000
0013
0100
1000
0100
0010
0001
,  // measure 40
2000
0000
0000
0000
3001
0000
0010
0000
1000
0000
MMMM
0000
0001
0000
1000
0010
,  // measure 41
1000
0010
0000
0001
0010
0001
0000
1000
0001
1000
0001
1000
0001
0000
0001
0000
,  // measure 42
0011
0000
1000
0010
0100
MMMM
0002
0000
,  // measure 43
2003
0000
3100
0010
0002
0000
0203
0000
,  // measure 44
0302
0000
0013
0100
1000
MMMM
0001
1000
,  // measure 45
0001
0100
0010
1000
0001
0010
0100
1000
,  // measure 46
1100
0000
0001
0100
0010
MMMM
2000
0000
,  // measure 47
3002
0000
0013
0100
1000
0100
0010
0001
,  // measure 48
2000
0000
3010
0100
0001
MMMM
1000
0001
,  // measure 49
0020
0000
0200
0330
,  // measure 50
0110
0000
0000
2200
0000
3300
MMMM
0000
0110
0000
0000
0202
0000
0303
MMMM
0000
,  // measure 51
1001
0000
0001
0010
0000
0010
1000
0000
2020
0000
3030
0000
MMMM
0000
0000
0000
,  // measure 52
0110
0000
0000
0202
0000
0303
MMMM
0000
0110
0000
0000
2200
0000
3300
MMMM
0000
,  // measure 53
1001
0000
1000
0010
0000
0010
0001
0000
0022
0000
0033
0000
MMMM
0000
0000
0000
,  // measure 54
1001
0000
1000
0010
0000
1000
0001
0000
1000
0010
0000
0000
0100
0001
0100
0001
,  // measure 55
1000
0000
0001
0010
0000
0001
1000
0000
0001
0010
0000
0000
0100
1000
0100
1000
,  // measure 56
0001
0100
0001
0100
0010
1000
0010
1000
0010
0100
0010
0100
0001
1000
0004
4000
,  // measure 57
0000
0000
0000
3003
,  // measure 58
0001
0000
1000
0001
0000
0010
0001
0010
0000
0100
0010
0100
1000
0001
1000
0100
,  // measure 59
0010
0000
0001
1000
0000
0010
1000
0010
0000
0100
0010
0100
0001
1000
0001
0100
,  // measure 60
0010
0000
1000
0001
0000
0010
0001
0010
0000
0100
0010
0100
1000
0001
1000
0100
,  // measure 61
0010
0000
0100
1000
0001
0000
0100
0010
0000
1000
0001
0000
0010
0000
0100
0000
,  // measure 62
1000
0000
0001
1000
0000
0100
1000
0100
0000
0010
0100
0010
0001
1000
0001
0010
,  // measure 63
0100
0000
1000
0001
0000
0100
0001
0100
0000
0010
0100
0010
1000
0001
1000
0010
,  // measure 64
0100
0000
0001
1000
0000
0100
1000
0100
0000
0010
0100
0010
0001
1000
0001
0010
,  // measure 65
0100
1000
0100
1000
0000
0001
0100
0001
0000
0100
0010
0100
0010
1000
0001
2000
,  // measure 66
0002
0000
0000
0000
3003
0000
MMMM
0000
1010
0000
0000
0011
0000
0000
1001
0000
,  // measure 67
MMMM
0000
0101
0000
1001
0000
1000
0100
1000
0000
0001
0100
0020
0000
0000
0000
,  // measure 68
1030
0000
0001
0010
0000
0100
1000
0100
0000
0010
0001
1000
0010
0100
0001
0100
,  // measure 69
0010
0000
1000
0001
0010
0000
0100
1000
0000
0001
0100
0000
0010
0000
1000
0000
,  // measure 70
0001
0000
1000
0010
0000
0100
0001
0100
0000
0010
1000
0001
0010
0100
0010
0100
,  // measure 71
1000
0000
0001
0100
0000
0010
1000
0010
0000
0100
0001
1000
0100
0010
0100
0010
,  // measure 72
0001
0000
1000
0010
0000
0100
0001
0100
0000
0010
1000
0001
0010
0100
0010
0100
,  // measure 73
1000
0001
1000
0010
1000
0001
1000
0100
0010
0001
1000
0001
0010
0100
1000
0001
,  // measure 74
2002
0000
3003
MMMM
1010
0000
0000
0011
0000
0000
1000
0000
0001
0000
1000
0000
,  // measure 75
2002
0000
3003
MMMM
0011
0000
0000
1010
0000
0000
0001
0000
1000
0000
0001
0000
,  // measure 76
1000
0010
0100
0001
0101
0000
0000
1100
0000
0000
0001
0000
1000
0000
0001
0000
,  // measure 77
2002
0000
3003
MMMM
1100
0000
0000
0101
0000
0000
0100
0000
0020
0000
0000
0000
,  // measure 78
0031
0000
1000
0010
0000
0001
0010
0000
1000
0010
0000
0000
0100
0001
0100
0001
,  // measure 79
1000
0000
0001
0100
0000
1000
0100
0000
0001
0100
0000
0000
0010
1000
0010
1000
,  // measure 80
0001
0010
0001
0010
0100
1000
0100
1000
0100
0010
0100
0010
0001
1000
0001
1000
,  // measure 81
1001
0000
MMMM
0000
0110
0000
MMMM
0000
1001
0000
1000
0001
0020
0000
0000
0000
,  // measure 82
0030
0000
0000
0000
;
