#VERSION:0.83;
#TITLE:Amabie;
#SUBTITLE:;
#ARTIST:BEMANI Sound Team "Coyaan";
#TITLETRANSLIT:;
#SUBTITLETRANSLIT:;
#ARTISTTRANSLIT:Coyaan;
#GENRE:;
#CREDIT:;
#MUSIC:Amabie.ogg;
#BANNER:Amabie.png;
#BACKGROUND:Amabie-bg.png;
#CDTITLE:;
#SAMPLESTART:70.000;
#SAMPLELENGTH:15.000;
#SELECTABLE:YES;
#OFFSET:-0.000;
#BPMS:0.000=168.000;
#STOPS:;
#SPEEDS:0.000=1.000=0.000=0;
#SCROLLS:0.000=1.000;
#TICKCOUNTS:0.000=4;
#TIMESIGNATURES:0.000=4=4;
#LABELS:0.000=Song Start;
#COMBOS:0.000=1;
#ORIGIN:;
#PREVIEWVID:;
#JACKET:Amabie-jacket.png;
#CDIMAGE:;
#DISCIMAGE:;
#BGCHANGES:;
#FGCHANGES:;

//--------------- dance-single - ----------------
#NOTEDATA:;
#STEPSTYPE:dance-single;
#DESCRIPTION:;
#DIFFICULTY:Challenge;
#METER:17;
#RADARVALUES:0,0,0,0,0;
#NOTES:
0000
0000
0000
0000
,
0000
0000
0000
0000
,
0000
0000
0000
0000
,
0000
0000
0000
0000
,
0000
0000
0000
0000
,
1000
0000
0001
0000
1000
0000
0010
0100
0010
0000
0100
0000
0001
1000
0100
1000
,
0001
0000
0010
0000
0100
0000
1000
0100
1000
0000
0001
0000
0100
0010
1000
0010
,
0100
0001
0100
0001
1000
0100
1000
0100
0010
0100
0010
0100
0010
0001
0010
0001
,
1000
0000
0000
0000
0000
0000
0001
0000
0100
0000
0001
0000
0100
0000
0000
0000
0000
0000
0010
0000
0000
0100
0000
0000
0001
0000
0000
0000
0000
0000
1000
0000
0000
0000
0000
0000
0101
0000
0000
0000
0000
0000
0000
0000
0000
0000
0000
0000
,
1001
0000
0000
0000
1000
0100
0010
0100
0001
0000
0100
0010
0001
0000
1002
0000
,
0000
0000
0103
0010
0100
0000
0010
0000
1000
0000
0001
0000
0000
0001
0000
0000
,
0011
0000
0000
0000
0010
0000
0010
0100
1000
0000
0001
0100
1000
0000
1200
0000
,
0000
0000
0310
0100
0001
0000
2000
0000
3101
0000
0010
0000
0000
0010
0000
0000
,
1001
0000
0000
0000
0001
0100
0010
0100
1000
0000
0100
0010
0001
0000
0021
0000
,
0000
0000
0130
0010
1000
0000
0001
0000
0010
0000
0100
0000
0000
0100
0000
0000
,
1100
0000
0000
0000
1000
0000
1000
0001
0010
0000
0001
0000
0011
0000
2100
0000
,
0000
0000
0000
0000
0000
0000
3001
0000
0000
0010
0000
0000
0001
0000
0000
0000
0000
0000
1000
0000
0010
0000
1000
0000
0010
0000
0000
0000
0000
0000
0000
0000
0000
0110
0000
0000
0000
0000
0000
0100
0000
0000
0010
0000
0000
0000
0000
0000
,
1001
0000
0000
0000
0000
0000
0000
0000
1000
0000
0100
0000
0010
0000
0100
0000
0001
0000
0000
M000
0000
0000
0001
0000
0010
0000
0000
0000
2100
0000
0000
0000
,
0000
0000
3001
0010
0001
0000
1000
0000
0012
0000
0000
1103
0000
0000
0012
0000
,
1003
0000
0000
0000
0010
0000
0010
0100
0001
0000
1000
0100
0001
0000
0201
0000
,
0000
0000
0310
0100
1000
0000
0001
0000
2000
0000
0011
0000
3011
0000
0000
0000
,
1001
0000
0000
0000
0000
0000
0000
0000
0001
0000
0100
0000
0010
0000
0100
0000
1000
0000
0000
000M
0000
0000
1000
0000
0010
0000
0000
0000
0102
0000
0000
0000
,
0000
0000
0000
0000
0000
0000
1003
0000
0000
0010
0000
0000
1000
0000
0000
0000
0000
0000
0001
0000
0010
0000
0001
0000
0020
0000
0000
0000
0000
0000
0000
0000
0000
0131
0000
0000
0000
0000
0000
0000
0000
0000
0101
0000
0000
0000
0000
0000
,
1010
0000
0000
0000
1000
0000
1000
0001
0010
0000
0001
0100
0010
0000
1001
0000
,
0000
0000
1100
0000
0000
0101
0000
0000
1100
0000
0000
0101
0000
0000
1100
0000
,
0011
0000
0000
0000
0001
1000
0001
1000
0010
0000
0110
0000
0000
0000
2001
0000
,
0000
0000
0000
0000
0000
0000
3100
0000
0000
01M0
0000
0000
0001
0000
0000
0000
0000
0000
0100
0000
0000
01M0
0000
0000
1000
0000
0000
0000
0000
0000
0001
0000
0100
0000
0001
0000
0100
0000
0000
0000
0000
0000
0000
0000
0000
0000
0000
0000
,
1010
0000
0000
0000
1000
0001
1000
0001
0010
0000
0110
0000
0000
0000
1002
0000
,
0000
0000
0103
01M0
1000
0000
0100
01M0
0001
0000
0000
0001
0000
0000
0001
0000
,
0102
0000
0000
0000
1003
0100
1000
0100
0010
0000
0110
0000
0000
0000
1002
0000
,
0000
0000
0000
0000
0000
0000
0103
0000
0000
01M0
0000
0000
1000
0000
0000
0000
0000
0000
0100
0000
0000
01M0
0000
0000
0001
0000
0000
0000
0000
0000
1000
0000
0100
0000
1000
0000
0100
0000
0000
0000
0000
0000
0000
0000
0000
0000
0000
0000
,
1000
0100
0010
0100
0001
0000
0100
0010
1000
0000
0010
0100
1000
0002
0010
0000
,
0003
0010
0001
0010
0001
0000
0010
0001
0100
0000
0000
0100
0000
0000
0100
0000
,
0110
0000
0000
0000
0001
1000
0001
1000
0100
0000
0110
0000
0000
0000
2001
0000
,
0000
0000
0000
0000
0000
0000
3010
0000
0000
0M10
0000
0000
0001
0000
0000
0000
0000
0000
0010
0000
0000
0M10
0000
0000
1000
0000
0000
0000
0000
0000
0001
0000
0010
0000
0001
0000
0010
0000
0000
0000
0000
0000
0000
0000
0000
0000
0000
0000
,
1100
0000
0000
0000
1000
0001
1000
0001
0100
0000
0110
0000
0000
0000
1002
0000
,
0000
0000
0013
0M10
1000
0000
0010
0M10
0001
0000
0000
0001
0000
0000
0001
0000
,
0041
0000
0000
0000
0030
0110
0000
2001
,
0000
0000
0000
0000
0000
0000
3010
0000
0000
0M10
0000
0000
0001
0000
0000
0000
0000
0000
0010
0000
0000
0M10
0000
0000
1000
0000
0000
0000
0000
0000
0001
0000
0010
0000
0001
0000
0010
0000
0000
0000
0000
0000
0000
0000
0000
0000
0000
0000
,
0001
0010
0100
0010
1000
0000
0010
0100
0001
0000
0100
0010
0001
0000
1001
0000
,
0000
0000
1010
0000
0000
0011
0000
0000
1010
0000
0000
0011
0000
0000
1010
0000
,
0101
0000
00M0
0000
,
00M0
0000
0000
0000
0000
0000
0000
0000
00M0
0000
0000
00M0
0000
0000
00M0
0000
,
00M0
0000
00M0
0000
,
00M0
0000
0000
0000
0000
0000
0000
0000
00M0
0000
0000
00M0
0000
0000
00M0
0000
,
0001
0000
1000
0000
0001
0000
0100
0010
0100
0000
0010
0000
1000
0001
0010
0001
,
1000
0000
0001
0010
0100
0000
0010
0100
1000
0000
0000
1001
0000
0000
0001
0100
,
0010
1000
0010
1000
0001
0010
0001
0010
0100
0010
0100
0010
0100
1000
0100
1000
,
0001
0000
0000
0000
0000
0000
1000
0000
0010
0000
1000
0000
0010
0000
0000
0000
0000
0000
0100
0000
0000
0010
0000
0000
1000
0000
0000
0000
0000
0000
0001
0000
0000
0000
0000
0000
1010
0000
0000
0000
0000
0000
0000
0000
0000
0000
0000
0000
,
1001
0000
0000
0000
0001
0010
0100
0010
1000
0000
0010
0100
1000
0000
2001
0000
,
0000
0000
3010
0100
0010
0000
0100
0000
0001
0000
1000
0100
0010
0001
0100
0010
,
1000
0000
0000
0000
0001
0010
0100
0010
1000
0000
0010
0100
0001
0000
0201
0000
,
0000
0000
0310
0100
1000
0000
0002
0000
1103
0000
0010
0000
0000
0010
0100
0001
,
1000
0000
0100
0010
0001
0000
1000
0000
0010
0100
0001
0000
0010
0000
2M10
0000
,
0000
0000
3001
0100
0010
0100
0001
1000
0100
0010
0100
0001
0100
0010
0001
1000
,
0020
0000
0000
0000
0130
0000
0100
0010
1000
0000
0001
0000
0011
0000
2100
0000
,
0000
0000
0000
0000
0000
0000
3001
0000
0000
0010
0000
0000
0001
0000
0000
0000
0000
0000
1000
0000
0010
0000
1000
0000
0010
0000
0000
0000
0000
0000
0000
0000
0000
0110
0000
0000
0000
0000
0000
0100
0000
0000
0010
0000
0000
0000
0000
0000
,
1001
0000
0000
0000
0000
0000
0000
0000
0001
0000
0010
0000
0100
0000
0010
0000
1000
0000
0000
000M
0000
0000
1000
0000
0100
0000
0000
0000
0012
0000
0000
0000
,
0000
0000
1003
0100
1000
0000
0001
0000
2100
0000
0000
3011
0000
0000
2100
0000
,
3001
0000
0000
0000
0100
0000
0100
0010
1000
0000
0001
0010
1000
0000
1002
0000
,
0000
0000
0000
0000
0000
0000
1003
0000
0000
0010
0000
0000
0001
0000
0000
0000
0000
0000
1000
0000
0000
0000
0000
0000
0010
0000
0000
0000
0000
0000
1100
0000
0000
0000
0000
0000
1100
0000
0000
0000
0000
0000
0001
0000
1000
0000
0001
0000
,
1000
0000
0100
0010
0001
0000
1000
0000
0010
0100
0010
0000
0100
1000
0002
0000
,
0000
0000
0000
0000
0000
0000
1003
0000
0100
0000
1000
0000
0100
0000
0000
0000
0000
0000
0010
0000
0100
0000
0010
0000
0200
0000
0000
0000
0000
0000
0000
0000
0000
0311
0000
0000
0000
0000
0000
0000
0000
0000
0011
0000
0000
0000
0000
0000
,
1100
0000
0000
0000
1000
0000
1000
0001
0100
0000
0001
0010
0100
0000
1001
0000
,
0000
0000
1010
0000
0000
0011
0000
0000
1010
0000
0000
0011
0000
0000
1010
0000
,
0101
0000
0001
0100
0010
0100
1000
0000
101M
0000
0000
1010
0000
0000
0102
0000
,
0000
0000
0000
0000
0000
0000
1003
0000
0000
0200
0000
0000
0010
0000
0000
0000
0000
0000
0001
0000
0000
0000
0000
0000
0310
0000
0000
0000
0000
0000
0100
0000
0010
0000
0100
0000
0010
0000
0000
0001
0000
0000
1000
0000
0000
0010
0000
0000
,
0100
0000
0000
0000
0000
0000
0001
0000
0100
0000
0001
0000
0100
0000
0000
0010
0000
0000
1000
0000
0000
0010
0000
0000
0001
0000
0000
0000
0000
0000
0010
0000
0000
0100
0000
0000
0001
0000
0000
0000
0000
0000
2001
0000
0000
0000
0000
0000
,
0000
0000
3100
0020
0001
0000
0100
0000
0032
0000
1100
0000
1103
0000
0001
0200
,
1000
0000
0310
0000
0200
0000
1000
0000
0310
0000
0100
0010
1000
0000
0001
0000
,
0010
0000
0001
0020
1000
0000
0130
0000
1000
0000
0001
0100
0010
1000
0010
1000
,
0001
0010
0100
1000
0001
0010
0100
1000
0001
0000
0000
0110
0000
0000
1001
0000
,
0000
0000
1100
0000
0000
0101
0000
0000
1100
0000
0000
0101
0000
0000
1100
0000
,
0001
0000
0100
0000
0110
0000
2000
0010
,
0000
0000
0001
0000
3001
0000
0000
0000
0101
0000
0100
0000
0000
0100
0000
0000
,
0001
0000
0010
0000
0110
0000
2000
0100
,
0000
0000
0001
0000
3001
0000
0000
0000
0011
0000
0010
0000
0000
0010
0000
0000
,
0001
0000
0100
0000
0110
0000
1000
0100
,
0000
0000
0100
0000
0010
0000
0000
0000
0001
0000
1000
0000
0000
1000
0000
0000
,
0020
0000
0000
0000
,
0000
0000
0000
0000
0030
0010
1001
0000
;
