#TITLE:realize;
#SUBTITLE:;
#ARTIST:DJ Myosuke & Kobaryo feat.MC kenta-v.ez.;
#TITLETRANSLIT:;
#SUBTITLETRANSLIT:;
#ARTISTTRANSLIT:;
#GENRE:Hardcore;
#CREDIT:TiKAL+;
#MUSIC:[Round H] - realize.ogg;
#BANNER:[Round H] - realize.png;
#BACKGROUND:[Round H] - realize-bg.png;
#CDTITLE:cdtitle.png;
#SAMPLESTART:79.201;
#SAMPLELENGTH:19.200;
#SELECTABLE:YES;
#OFFSET:-0.001;
#BPMS:0.000=200.000;
#STOPS:128.000=2.100
,249.000=2.100
;
#MENUCOLOR:;
#METERTYPE:DDR;
#LISTSORT:;
#BGCHANGES:;
#FGCHANGES:;

//--------------- dance-single - TiKAL ----------------
#NOTES:
     dance-single:
     TiKAL:
     Hard:
     9:
     0,0,0,0,0:
0000
0000
0000
0000
,
0000
0000
0000
0000
,
0000
0000
0000
0000
,
0000
0000
0000
0000
,
0000
0000
0000
0000
,
0000
0000
0000
0000
,
0000
0000
0000
0000
,
0000
0000
0000
0000
,
0000
0000
0000
0000
,
0000
0000
0000
0000
,
1000
0100
0010
0002
,
0000
0000
0003
0000
,
1000
0010
0100
0002
,
0000
0000
0003
0000
,
1000
0001
0100
0020
,
0000
0000
0030
0000
,
1000
0001
0010
0200
,
0000
0000
0300
0000
,
1000
1000
1000
1000
,
1000
1000
1000
1000
,
0001
0001
0001
0001
,
0001
0000
0001
0000
0001
1000
0001
0000
,
0100
0100
0100
0100
,
0100
0100
0100
0100
,
0010
0010
0010
0010
,
0010
0000
0010
0000
0010
0100
0010
0000
,
1000
0100
0010
0001
,
1000
0010
0100
0001
,
1000
0010
1000
0000
0001
0010
0001
0000
,
1000
0100
1000
0000
0001
0100
0001
0000
,
1000
0100
0010
0001
1000
0010
0100
0001
,
1000
0100
0010
0100
1000
0001
0100
0010
,
1000
0011
0011
0011
,
0011
0011
0011
0011
,
1000
0001
0101
0000
0101
0000
0101
0000
,
0101
0000
1020
0000
0001
0000
0130
0001
,
1000
1100
1100
1100
,
1100
1100
1100
1100
,
0001
1000
1010
0000
1010
0000
1010
0000
,
1010
0000
0201
0000
1300
0100
0010
0100
,
0001
0011
0011
1001
,
1001
0011
0011
1001
,
0001
1000
1010
0000
1010
0000
1001
0000
,
1001
0000
1200
0000
0001
0000
0310
0001
,
1000
1100
1100
1001
,
1001
0101
0101
1001
,
1001
0000
0000
0000
0220
0000
0000
0330
0220
0000
0000
0330
0220
0000
0000
0330
,
0220
0000
0000
0330
0002
0000
0000
0000
2003
0000
0000
0000
3100
0000
0010
0000
,
0002
1003
1000
0010
,
1000
1000
1000
1000
,
1000
0001
0001
0010
,
0001
0000
0001
0000
0001
0000
0001
1000
,
0001
0010
0010
0100
,
0010
0010
0010
0010
,
0010
0100
0100
0010
,
0100
0000
0100
0000
0100
0000
0100
0010
,
0100
1000
0100
0010
,
0001
1000
0010
0100
,
0001
0000
1000
0100
1000
0000
0001
0100
,
0001
0000
1000
0010
1000
0000
0001
0010
,
0001
0000
1000
0010
0100
0001
1000
0100
,
0010
0001
1000
0010
0100
0010
1000
0001
,
0010
0100
1000
0000
1000
0000
0100
0000
,
0010
0000
0000
0001
1000
0000
0010
0000
1000
0000
0000
0000
0100
0000
0000
0000
,
0010
0000
0000
0001
0010
0000
0100
0000
1000
0000
0000
0000
0010
0000
0000
0000
,
0100
0000
0000
0001
1000
0000
0100
0000
1200
0000
0000
0000
0001
0000
0000
0000
,
0310
0100
1000
0000
0001
0000
0100
0000
,
0010
0000
0000
1000
0001
0000
0010
0000
0001
0000
0000
0000
0100
0000
0000
0000
,
0010
0000
0000
1000
0010
0000
0100
0000
0001
0000
0000
0000
0010
0000
0000
0000
,
0100
0000
0000
1000
0001
0000
0100
0000
0001
0000
0001
0000
0100
0000
0100
0000
,
0010
1000
0100
0000
1100
0000
0001
0000
,
0100
0000
0000
0010
0100
0000
0001
0000
1000
0000
0000
0000
0001
0000
0000
0000
,
0010
0000
0000
0100
0010
0000
0100
0000
1000
0000
0000
0000
0001
0000
0000
0000
,
0010
0000
0000
0100
0010
0000
0001
0000
0201
0000
0000
0000
1000
0000
0000
0000
,
0310
0100
0001
0000
1010
0000
0001
0000
,
0010
0000
0000
0100
0010
0000
0001
0000
1000
0000
0000
0000
0001
0000
0000
0000
,
0100
0000
0000
0010
0100
0000
0010
0000
2000
0000
0000
0000
3002
0000
0000
0000
,
0203
0000
0320
0000
1030
0001
1000
0000
,
0001
1000
0001
0000
0000
1000
0000
0100
,
0000
1100
0000
1100
0000
1000
0000
0001
,
0000
1001
0000
1001
0000
1000
0000
0010
,
0000
1010
0000
1010
0020
0000
0001
0000
,
0130
0010
1000
0000
0000
0001
0000
0100
,
0000
0101
0000
0101
0000
0001
0000
1000
,
0000
1001
0000
1001
0002
0000
0023
0000
,
0130
0100
1000
0000
0001
0100
0010
1000
,
0010
0100
0002
0000
0003
1000
0000
0010
,
0000
1010
0000
1010
0000
1000
0000
0001
,
0000
1001
0000
1001
0000
1000
0000
0100
,
0000
1100
0000
1100
0200
0000
0001
0000
,
0310
0100
1000
0000
0000
0001
0000
0010
,
0000
0011
0000
0011
0000
0001
0000
1000
,
0000
1001
0000
1001
0002
0000
0203
0000
,
0320
2030
3000
0000
,
0000
0000
1000
0010
,
0100
0002
0000
0000
,
0003
0000
1000
0100
,
0010
0002
0000
0000
,
0003
0000
1000
0001
,
0010
0200
0000
0000
,
0300
0000
1000
0001
,
0100
0020
0000
0000
,
0000
0000
0030
0000
;

//--------------- dance-single - TiKAL ----------------
#NOTES:
     dance-single:
     TiKAL:
     Challenge:
     11:
     0,0,0,0,0:
0000
0000
0000
0000
,
0000
0000
0000
0000
,
0000
0000
0000
0000
,
0000
0000
0000
0000
,
0000
0000
0000
0000
,
0000
0000
0000
0000
,
0000
0000
0000
0000
,
0000
0000
0000
0000
,
0000
0000
0000
0000
,
0000
0000
0000
0000
,
1000
0100
0010
0002
,
0000
0000
0003
0000
,
1000
0010
0100
0002
,
0000
0000
0003
0000
,
1000
0001
0100
0020
,
0000
0000
0030
0000
,
1000
0001
0010
0200
,
0000
0000
0000
0000
,
1300
0100
1000
0100
,
0010
0001
0010
0001
,
1000
0010
1000
0010
,
0100
0000
0001
0000
0100
0001
0100
0000
,
0001
0010
0001
0010
,
0100
1000
0100
1000
,
0001
0100
0001
0100
,
0010
0000
0000
0000
1000
0000
0000
0000
0010
0000
1000
0000
0020
0000
0000
0030
,
1010
1010
0011
0011
,
0101
0101
1100
1100
,
1000
0100
1000
0100
0010
0001
0010
0001
,
1000
0010
1000
0010
0100
0001
0100
0001
,
1000
0100
1000
0100
1000
0001
1000
0001
1000
0010
1000
0010
0100
0010
0100
0010
,
0100
0001
0100
0001
1000
0001
1000
0001
0010
0001
0010
0001
0010
0100
0010
0100
,
1000
0101
1010
0101
,
1010
0101
1010
0101
,
1010
1000
1100
0000
0011
0000
1100
0000
,
0011
0000
2100
0000
0011
0000
3100
1000
,
0002
0000
0000
0003
0011
0000
0000
0000
1100
0000
0000
0000
0011
0000
0000
0000
,
1100
0011
1100
0011
,
1100
1000
1010
0000
0101
0000
1010
0000
,
0101
0000
2010
0000
0001
0001
0010
0100
,
3200
0000
0000
0300
1100
0000
0000
0000
1010
0000
0000
0000
0011
0000
0000
0000
,
0101
1100
1010
0011
,
0101
0100
1100
0000
0101
0000
0011
0000
,
1010
0000
1200
0000
1010
0000
0301
0100
,
2000
0000
0000
3000
0101
0000
0000
0000
0011
0000
0000
0000
1010
0000
0000
0000
,
1100
0101
0011
1010
,
1100
0000
0100
0000
0202
0000
0000
0303
2200
0000
0000
3300
2020
0000
0000
3030
,
0022
0000
0000
0033
2000
0000
0000
0000
3020
0000
0000
0000
0230
0000
0302
0000
,
2003
0000
3001
0000
0010
0000
0100
1000
,
0001
1000
1000
0001
,
0001
0000
1000
0000
0010
0000
0100
0001
,
1000
0000
0001
0000
0001
0000
1000
0001
,
1000
0000
0001
0000
0010
0000
1000
0010
,
0001
0100
0100
0010
,
0010
0000
1000
0000
0010
0000
0001
0010
,
1000
0000
0100
0000
0100
0000
0010
0100
,
0010
0011
0011
0101
,
0101
1100
1100
1010
,
1010
0000
0001
0100
0001
0100
0001
0010
,
0001
0010
0100
1000
0100
1000
0010
1000
,
0010
0000
1000
0000
0001
0010
0001
0010
0001
1000
0001
1000
0001
0100
0001
0100
,
0010
0100
0010
0100
0010
1000
0010
1000
0001
1000
0001
1000
0100
1000
0100
1000
,
0100
0010
0100
0010
0001
0000
0000
0000
1100
0000
0000
0000
1010
0000
0000
0000
,
0101
0000
0000
0100
0001
0000
0010
0000
0001
0000
0000
0000
0101
0000
0000
0000
,
1010
0000
0000
0010
1000
0000
0100
0000
1000
0000
0000
0000
1100
0000
0000
0000
,
0011
0000
0000
0010
0001
0000
0100
0000
0020
0000
0000
0000
0101
0000
0000
0000
,
1030
0000
0001
0000
2000
0000
0000
3000
0101
0000
0000
0000
0011
0000
0000
0000
,
1100
0000
0000
0100
1000
0000
0010
0000
1000
0000
0000
0000
1100
0000
0000
0000
,
0011
0000
0000
0010
0001
0000
0100
0000
0001
0000
0000
0000
0101
0000
0000
0000
,
1010
0000
0000
0010
1000
0000
0100
0000
0010
0000
0010
0000
0100
0000
0100
0000
,
1000
0000
1000
0000
0002
0000
0000
0003
0011
0000
0000
0000
0101
0000
0000
0000
,
1010
0000
0000
0010
1000
0000
0100
0000
1000
0000
0000
0000
1010
0000
0000
0000
,
0101
0000
0000
0100
0001
0000
0010
0000
0001
0000
0000
0000
0011
0000
0000
0000
,
1100
0000
0000
0100
1000
0000
0010
0000
0200
0000
0000
0000
1010
0000
0000
0000
,
0301
0000
1000
0000
0002
0000
0000
0003
1010
0000
0000
0000
1100
0000
0000
0000
,
0011
0000
0000
0010
0001
0000
0100
0000
0001
0000
0000
0000
0011
0000
0000
0000
,
1100
0000
0000
0100
1000
0000
0010
0000
2020
0000
0000
3030
0022
0000
0000
0033
,
0202
0000
0000
0303
2200
0000
0000
3300
1000
0000
0100
1000
0001
0000
0100
0000
,
0010
0000
0100
0001
2000
0000
0000
0000
3001
0000
0010
0000
0001
0000
0010
0000
,
0001
0010
0001
0010
0001
1000
0001
1000
,
0001
1000
0001
1000
0001
0100
0001
0100
,
0001
0100
0001
0100
0002
0000
1010
0000
,
0103
0100
0020
0000
1030
0010
1000
0010
,
1000
0010
1000
0010
1000
0001
1000
0001
,
1000
0001
1000
0001
2000
0000
3200
0000
,
0310
0010
0100
1000
0001
0100
1000
0001
,
0010
1000
0002
0000
1003
0010
1000
0001
,
1000
0010
1000
0001
1000
0100
1000
0001
,
1000
0100
1000
0001
1000
0010
1000
0100
,
1000
0010
1000
0100
2000
0000
0011
0000
,
3100
0100
0020
0000
0031
0010
0001
1000
,
0001
0010
0001
1000
0001
0100
0001
1000
,
0001
0100
0001
1000
0002
0000
0023
0000
,
0230
2300
3000
0000
,
0000
0000
1000
0100
,
0010
0002
0000
0000
,
0003
0000
1000
0010
,
0100
0002
0000
0000
,
0003
0000
1000
0001
,
0100
0020
0000
0000
,
0030
0000
1000
0001
,
0010
0200
0000
0000
,
0000
0000
0300
0000
;

//--------------- dance-single - NoBrackets ----------------
#NOTES:
     dance-single:
     NoBrackets:
     Edit:
     11:
     0,0,0,0,0:
0000
0000
0000
0000
,
0000
0000
0000
0000
,
0000
0000
0000
0000
,
0000
0000
0000
0000
,
0000
0000
0000
0000
,
0000
0000
0000
0000
,
0000
0000
0000
0000
,
0000
0000
0000
0000
,
0000
0000
0000
0000
,
0000
0000
0000
0000
,
1000
0100
0010
0002
,
0000
0000
0003
0000
,
1000
0010
0100
0002
,
0000
0000
0003
0000
,
1000
0001
0100
0020
,
0000
0000
0030
0000
,
1000
0001
0010
0200
,
0000
0000
0000
0000
,
1300
0100
1000
0100
,
0010
0001
0010
0001
,
1000
0010
1000
0010
,
0100
0000
0001
0000
0100
0001
0100
0000
,
0001
0010
0001
0010
,
0100
1000
0100
1000
,
0001
0100
0001
0100
,
0010
0000
0000
0000
1000
0000
0000
0000
0010
0000
1000
0000
0020
0000
0000
0030
,
1010
1010
0011
0011
,
0101
0101
1100
1100
,
1000
0100
1000
0100
0010
0001
0010
0001
,
1000
0010
1000
0010
0100
0001
0100
0001
,
1000
0100
1000
0100
1000
0001
1000
0001
1000
0010
1000
0010
0100
0010
0100
0010
,
0100
0001
0100
0001
1000
0001
1000
0001
0010
0001
0010
0001
0010
0100
0010
0100
,
1000
0101
1010
0101
,
1010
0101
1010
0101
,
1010
1000
1100
0000
0011
0000
1100
0000
,
0011
0000
2100
0000
0001
0000
3100
1000
,
0002
0000
0000
0003
0011
0000
0000
0000
1100
0000
0000
0000
0011
0000
0000
0000
,
1100
0011
1100
0011
,
1100
1000
1010
0000
0101
0000
1010
0000
,
0101
0000
2010
0000
0001
0001
0010
0100
,
3200
0000
0000
0300
1100
0000
0000
0000
1010
0000
0000
0000
0011
0000
0000
0000
,
0101
1100
1010
0011
,
0101
0100
1100
0000
0101
0000
0011
0000
,
1010
0000
1200
0000
0010
0000
0301
0100
,
2000
0000
0000
3000
0101
0000
0000
0000
0011
0000
0000
0000
1010
0000
0000
0000
,
1100
0101
0011
1010
,
1100
0000
0100
0000
0202
0000
0000
0303
2200
0000
0000
3300
2020
0000
0000
3030
,
0022
0000
0000
0033
2000
0000
0000
0000
3020
0000
0000
0000
0230
0000
0302
0000
,
2003
0000
3001
0000
0010
0000
0100
1000
,
0001
1000
1000
0001
,
0001
0000
1000
0000
0010
0000
0100
0001
,
1000
0000
0001
0000
0001
0000
1000
0001
,
1000
0000
0001
0000
0010
0000
1000
0010
,
0001
0100
0100
0010
,
0010
0000
1000
0000
0010
0000
0001
0010
,
1000
0000
0100
0000
0100
0000
0010
0100
,
0010
0011
0011
0101
,
0101
1100
1100
1010
,
1010
0000
0001
0100
0001
0100
0001
0010
,
0001
0010
0100
1000
0100
1000
0010
1000
,
0010
0000
1000
0000
0001
0010
0001
0010
0001
1000
0001
1000
0001
0100
0001
0100
,
0010
0100
0010
0100
0010
1000
0010
1000
0001
1000
0001
1000
0100
1000
0100
1000
,
0100
0010
0100
0010
0001
0000
0000
0000
1100
0000
0000
0000
1010
0000
0000
0000
,
0101
0000
0000
0100
0001
0000
0010
0000
0001
0000
0000
0000
0101
0000
0000
0000
,
1010
0000
0000
0010
1000
0000
0100
0000
1000
0000
0000
0000
1100
0000
0000
0000
,
0011
0000
0000
0010
0001
0000
0100
0000
0020
0000
0000
0000
1000
0000
0000
0000
,
0130
0000
0001
0000
2000
0000
0000
3000
0101
0000
0000
0000
0011
0000
0000
0000
,
1100
0000
0000
0100
1000
0000
0010
0000
1000
0000
0000
0000
1100
0000
0000
0000
,
0011
0000
0000
0010
0001
0000
0100
0000
0001
0000
0000
0000
0101
0000
0000
0000
,
1010
0000
0000
0010
1000
0000
0100
0000
0010
0000
0010
0000
0100
0000
0100
0000
,
1000
0000
1000
0000
0002
0000
0000
0003
0011
0000
0000
0000
0101
0000
0000
0000
,
1010
0000
0000
0010
1000
0000
0100
0000
1000
0000
0000
0000
1010
0000
0000
0000
,
0101
0000
0000
0100
0001
0000
0010
0000
0001
0000
0000
0000
0011
0000
0000
0000
,
1100
0000
0000
0100
1000
0000
0010
0000
0200
0000
0000
0000
0001
0000
0000
0000
,
0310
0000
1000
0000
0002
0000
0000
0003
1010
0000
0000
0000
1100
0000
0000
0000
,
0011
0000
0000
0010
0001
0000
0100
0000
0001
0000
0000
0000
0011
0000
0000
0000
,
1100
0000
0000
0100
1000
0000
0010
0000
2020
0000
0000
3030
0022
0000
0000
0033
,
0202
0000
0000
0303
2200
0000
0000
3300
1000
0000
0100
1000
0001
0000
0100
0000
,
0010
0000
0100
0001
2000
0000
0000
0000
3001
0000
0010
0000
0001
0000
0010
0000
,
0001
0010
0001
0010
0001
1000
0001
1000
,
0001
1000
0001
1000
0001
0100
0001
0100
,
0001
0100
0001
0100
0002
0000
1000
0000
,
0103
0100
0020
0000
1030
0010
1000
0010
,
1000
0010
1000
0010
1000
0001
1000
0001
,
1000
0001
1000
0001
2000
0000
3200
0000
,
0310
0010
0100
1000
0001
0100
1000
0001
,
0010
1000
0001
0000
1000
0010
1000
0001
,
1000
0010
1000
0001
1000
0100
1000
0001
,
1000
0100
1000
0001
1000
0010
1000
0100
,
1000
0010
1000
0100
2000
0000
0001
0000
,
3100
0100
0020
0000
0031
0010
0001
1000
,
0001
0010
0001
1000
0001
0100
0001
1000
,
0001
0100
0001
1000
0002
0000
0023
0000
,
0230
2300
3000
0000
,
0000
0000
1000
0100
,
0010
0002
0000
0000
,
0003
0000
1000
0010
,
0100
0002
0000
0000
,
0003
0000
1000
0001
,
0100
0020
0000
0000
,
0030
0000
1000
0001
,
0010
0200
0000
0000
,
0000
0000
0300
0000
;
