#TITLE:THAT'S THE WAY '97;
#SUBTITLE:;
#ARTIST:X-TREME;
#TITLETRANSLIT:;
#SUBTITLETRANSLIT:;
#ARTISTTRANSLIT:;
#GENRE:;
#CREDIT:;
#MENUCOLOR:;
#METERTYPE:DDR;
#BANNER:[Round H] - THAT'S THE WAY '97.png;
#BACKGROUND:[Round H] - THAT'S THE WAY '97-bg.png;
#LYRICSPATH:;
#CDTITLE:./CDTITLES/DANCEMANIA DIAMOND.PNG;
#MUSIC:[Round H] - THAT'S THE WAY '97.ogg;
#OFFSET:-0.395;
#SAMPLESTART:94.157;
#SAMPLELENGTH:15.000;
#SELECTABLE:YES;
#LISTSORT:;
#BPMS:0.000=128.000;
#STOPS:;
#BGCHANGES:;
#ATTACKS:;

//---------------dance-single - ----------------
#NOTES:
     dance-single:
     :
     Hard:
     8:
     0.533,0.651,0.219,0.253,0.349:
0000
0000
0000
0000
,
0000
0000
0000
0000
,
0000
0000
0000
0000
,
0000
0000
0000
0000
,
0000
0000
0000
0000
,
0000
0000
0000
0000
,
0010
0100
0002
0000
0010
0000
1003
0001
,
0100
0010
2000
0000
3100
0010
0010
0000
,
0001
0100
0020
0000
1000
0000
0130
0001
,
0010
0100
2000
0000
3010
0000
0110
0000
,
1001
0010
0200
0000
0301
0010
0001
0001
,
1000
0010
0200
0000
0310
1000
0100
0100
,
0010
0001
2000
0000
3010
0100
0001
0001
,
1000
0010
0200
0000
0301
0010
0100
0100
,
0010
0011
0100
1100
,
0001
1001
1000
1001
,
0010
0010
1000
1000
0001
0001
0100
0100
,
0001
1000
0001
1000
0001
1000
0001
1000
0002
0000
0000
0000
0003
0000
0000
0000
,
1100
0000
0000
0100
1000
0000
0100
0000
1000
0020
0000
0000
1030
0000
0001
0000
,
0100
0000
0000
0001
0100
0000
0001
0000
0020
0000
0001
0000
0031
0000
0000
0000
,
1001
0000
0000
0001
1000
0000
0001
0000
0010
0002
0000
0000
1003
0000
0100
0000
,
0010
0000
0000
0100
1000
0000
0010
0000
0100
0000
0000
0000
0110
0000
0000
0000
,
1010
0000
0000
0010
1000
0000
0100
0000
1000
0002
0000
0000
0103
0000
0010
0000
,
0100
0000
0000
0001
0010
0000
0100
0000
2000
0000
0010
0000
3010
0000
0000
0000
,
1000
0000
0000
1000
0100
0000
0010
0000
0100
2000
0000
0000
3001
0000
0100
0000
,
0010
0100
0010
0000
0100
0001
0100
0001
1000
0000
0000
0000
1001
0000
0000
0000
,
0011
0000
0000
0001
0010
0000
0100
0000
0010
0002
0000
0103
0010
0000
0100
0000
,
0001
0000
0000
0001
0010
0000
0100
0000
2000
0000
0010
0000
3010
0000
0000
0000
,
1010
0000
0000
1000
0010
0000
1000
0000
0100
2000
0000
3010
1000
0000
0010
0000
,
0100
0000
0000
0100
0001
0000
0010
0000
0100
0000
0000
0000
0110
0000
0000
0000
,
0011
0000
0000
0001
1000
0000
0001
0000
1000
0020
0000
1030
0001
0000
0100
0000
,
0010
0000
0000
0010
1000
0000
0001
0000
0200
0000
0010
0000
0310
0000
0000
0000
,
1000
0100
1000
0000
0001
0000
0100
0000
0001
0010
0001
0000
1000
0000
0001
0000
,
0010
0001
0010
0000
0001
1000
0001
0000
0100
0000
0000
0000
0110
0000
0000
0000
,
0010
0000
1000
0000
0001
0000
0000
0100
0001
0000
1000
0000
1000
0000
0001
0000
,
0010
0000
0100
0000
1000
0000
0000
0100
0010
0000
0001
0000
0001
0000
0100
0000
,
0010
0000
1000
0000
0010
0000
0000
0100
0010
0000
1000
0000
1000
0000
0010
0000
,
0100
0000
0001
0000
0010
0000
0000
0100
0010
0000
0001
0000
0001
0000
1000
0000
,
0001
0000
0010
0000
0100
0000
0000
0010
0001
0000
0100
0000
0100
0000
0010
0000
,
1000
0000
0010
0000
0100
0000
0000
0010
1000
0000
0100
0000
0100
0000
0010
0000
,
0001
0000
0100
0000
0001
0000
0000
1000
0010
0000
1000
0000
1000
0000
0001
0000
,
1000
0000
0001
0000
0100
0000
0000
0010
1000
0000
0001
0000
0001
0000
1000
0100
,
1000
0000
0001
0000
0100
0000
0000
0001
0100
0000
0001
0000
0010
0002
0000
1003
,
0001
0000
0100
0000
0010
0000
0000
1000
0010
0000
0100
0000
0010
2000
0000
3001
,
1000
0000
0100
0000
0010
0000
0000
0100
1000
0000
0001
0000
0100
0002
0000
0013
,
0001
0000
0100
0000
0010
0000
0000
1000
0010
0000
0100
0000
0010
2000
0000
3001
,
0010
0000
0001
0000
0100
0000
0001
0010
0001
0000
1000
0000
0001
0020
0000
0130
,
0010
0000
0001
0000
0100
0000
0010
1000
0010
0000
1000
0000
0001
2000
0000
3100
,
1000
0000
0100
0000
0010
0100
0000
0100
1000
0000
0010
0000
0100
0020
0000
1030
,
0010
0000
0100
0000
0001
0000
0010
0000
0001
0010
0000
0000
0001
1000
0000
0000
,
1001
0000
0000
0010
0100
0000
0010
0000
1000
0020
0000
1030
0001
0000
1000
0000
,
0100
0000
0000
0100
0010
0000
0100
0000
2000
0000
0010
0000
3010
0000
0000
0000
,
0110
0000
0000
0010
0100
0000
0001
0000
0010
0002
0000
1003
0001
0000
0100
0000
,
0010
0000
0000
0010
0100
0000
0001
0000
0010
0000
0000
0000
0110
0000
0000
0000
,
1100
0000
0000
0100
1000
0000
0100
0000
0010
0002
0000
1003
0010
0000
0100
0000
,
0010
0000
0000
0010
1000
0000
0001
0000
0200
0000
0001
0000
0301
0000
0000
0000
,
1010
0000
0000
0010
1000
0000
0001
0000
0100
0020
0000
1030
0010
0000
1000
0000
,
0100
1000
0100
0000
1000
0000
0001
0100
0001
0000
0000
0000
1001
0000
0000
0000
,
1010
0000
0000
0010
0100
0000
0001
0000
0011
0000
0000
0010
0100
0000
1000
0000
,
1100
0000
0000
0100
1000
0000
0001
0000
0101
0000
0000
0100
0001
0000
0010
0000
,
0011
0000
0000
0001
1000
0000
0010
0000
1010
0000
0000
1000
0010
0000
1000
0000
,
1001
0000
0000
1000
0100
0000
0010
0000
0110
0000
0000
0010
0001
0000
1000
0000
,
0001
0100
0001
0100
1000
0100
1000
0100
,
0001
0010
0001
0010
1000
0010
1000
0010
,
0001
0100
0001
0100
0001
0100
0001
0100
0010
1000
0010
1000
0010
1000
0010
1000
,
0001
0010
0001
0000
1000
0001
1000
0000
0220
0000
0000
0000
0330
0000
0000
0000
,
2002
0000
0000
0000
,
0000
0000
0000
0000
,
3003
0000
0000
0000
;

//---------------dance-single - ----------------
#NOTES:
     dance-single:
     :
     Challenge:
     8:
     0.533,0.651,0.219,0.253,0.349: // measure 1
0000
0000
0000
0000
,  // measure 2
0000
0000
0000
0000
,  // measure 3
0000
0000
0000
0000
,  // measure 4
0000
0000
0000
0000
,  // measure 5
0000
0000
0000
0000
,  // measure 6
0000
0000
0000
0000
,  // measure 7
0010
0100
0002
0000
0010
0000
1003
0001
,  // measure 8
0100
0010
2000
0000
3100
0010
0010
0000
,  // measure 9
0001
0100
0020
0000
1000
0000
0130
0001
,  // measure 10
0010
0100
2000
0000
3010
0000
0110
0000
,  // measure 11
1001
0010
0200
0000
0301
0010
0001
0001
,  // measure 12
1000
0010
0200
0000
0310
1000
0100
0100
,  // measure 13
0010
0001
2000
0000
3010
0100
0001
0001
,  // measure 14
1000
0010
0200
0000
0301
0010
0100
0100
,  // measure 15
0010
0011
0100
1100
,  // measure 16
0001
1001
1000
1001
,  // measure 17
0010
0010
1000
1000
0001
0001
0100
0100
,  // measure 18
0001
0000
1000
0001
0000
1000
0001
0000
1000
0001
0000
1000
0002
0000
0000
0000
0000
0000
0003
0000
0000
0000
0000
0000
,  // measure 19
1100
0000
0000
0100
1000
0000
0100
0000
1000
0020
0000
0000
1030
0000
0001
0000
,  // measure 20
0100
0000
0000
0001
0100
0000
0001
0000
0020
0000
0001
0000
0031
0000
0000
0000
,  // measure 21
1001
0000
0000
0001
1000
0000
0001
0000
0010
0002
0000
0000
1003
0000
0100
0000
,  // measure 22
0010
0000
0000
0100
1000
0000
0010
0000
0100
0000
0000
0000
0110
0000
0000
0000
,  // measure 23
1010
0000
0000
0010
1000
0000
0100
0000
1000
0002
0000
0000
0103
0000
0010
0000
,  // measure 24
0100
0000
0000
0001
0010
0000
0100
0000
2000
0000
0010
0000
3010
0000
0000
0000
,  // measure 25
1000
0000
0000
1000
0100
0000
0010
0000
0100
2000
0000
0000
3001
0000
0100
0000
,  // measure 26
0010
0000
0100
0010
0000
0000
0100
0000
0001
0100
0000
0001
1000
0000
0000
0000
0000
0000
1001
0000
0000
0000
0000
0000
,  // measure 27
0011
0000
0000
0001
0010
0000
0100
0000
0010
0002
0000
0103
0010
0000
0100
0000
,  // measure 28
0001
0000
0000
0001
0010
0000
0100
0000
2000
0000
0010
0000
3010
0000
0000
0000
,  // measure 29
1010
0000
0000
1000
0010
0000
1000
0000
0100
2000
0000
3010
1000
0000
0010
0000
,  // measure 30
0100
0000
0000
0100
0001
0000
0010
0000
0100
0000
0000
0000
0110
0000
0000
0000
,  // measure 31
0011
0000
0000
0001
1000
0000
0001
0000
1000
0020
0000
1030
0001
0000
0100
0000
,  // measure 32
0010
0000
0000
0010
1000
0000
0001
0000
0200
0000
0010
0000
0310
0000
0000
0000
,  // measure 33
1000
0000
0100
1000
0000
0000
0001
0000
0000
0100
0000
0000
0001
0000
0010
0001
0000
0000
1000
0000
0000
0001
0000
0000
,  // measure 34
0010
0000
0001
0010
0000
0000
0001
0000
1000
0001
0000
0000
0100
0000
0000
0000
0000
0000
0110
0000
0000
0000
0000
0000
,  // measure 35
0010
0000
1000
0000
0001
0000
0000
0100
0001
0000
1000
0000
1000
0000
0001
0000
,  // measure 36
0010
0000
0100
0000
1000
0000
0000
0100
0010
0000
0001
0000
0001
0000
0100
0000
,  // measure 37
0010
0000
1000
0000
0010
0000
0000
0100
0010
0000
1000
0000
1000
0000
0010
0000
,  // measure 38
0100
0000
0001
0000
0010
0000
0000
0100
0010
0000
0001
0000
0001
0000
1000
0000
,  // measure 39
0001
0000
0010
0000
0100
0000
0000
0010
0001
0000
0100
0000
0100
0000
0010
0000
,  // measure 40
1000
0000
0010
0000
0100
0000
0000
0010
1000
0000
0100
0000
0100
0000
0010
0000
,  // measure 41
0001
0000
0100
0000
0001
0000
0000
1000
0010
0000
1000
0000
1000
0000
0001
0000
,  // measure 42
1000
0000
0001
0000
0100
0000
0000
0010
1000
0000
0001
0000
0001
0000
1000
0100
,  // measure 43
1000
0000
0001
0000
0100
0000
0000
0001
0100
0000
0001
0000
0010
0002
0000
1003
,  // measure 44
0001
0000
0100
0000
0010
0000
0000
1000
0010
0000
0100
0000
0010
2000
0000
3001
,  // measure 45
1000
0000
0100
0000
0010
0000
0000
0100
1000
0000
0001
0000
0100
0002
0000
0013
,  // measure 46
0001
0000
0100
0000
0010
0000
0000
1000
0010
0000
0100
0000
0010
2000
0000
3001
,  // measure 47
0010
0000
0001
0000
0100
0000
0001
0010
0001
0000
1000
0000
0001
0020
0000
0130
,  // measure 48
0010
0000
0001
0000
0100
0000
0010
1000
0010
0000
1000
0000
0001
2000
0000
3100
,  // measure 49
1000
0000
0100
0000
0010
0100
0000
0100
1000
0000
0010
0000
0100
0020
0000
1030
,  // measure 50
0010
0000
0100
0000
0001
0000
0010
0000
0001
0010
0000
0000
0001
1000
0000
0000
,  // measure 51
1001
0000
0000
0010
0100
0000
0010
0000
1000
0020
0000
1030
0001
0000
1000
0000
,  // measure 52
0100
0000
0000
0100
0010
0000
0100
0000
2000
0000
0010
0000
3010
0000
0000
0000
,  // measure 53
0110
0000
0000
0010
0100
0000
0001
0000
0010
0002
0000
1003
0001
0000
0100
0000
,  // measure 54
0010
0000
0000
0010
0100
0000
0001
0000
0010
0000
0000
0000
0110
0000
0000
0000
,  // measure 55
1100
0000
0000
0100
1000
0000
0100
0000
0010
0002
0000
1003
0010
0000
0100
0000
,  // measure 56
0010
0000
0000
0010
1000
0000
0001
0000
0200
0000
0001
0000
0301
0000
0000
0000
,  // measure 57
1010
0000
0000
0010
1000
0000
0001
0000
0100
0020
0000
1030
0010
0000
1000
0000
,  // measure 58
0100
0000
1000
0100
0000
0000
1000
0000
0000
0001
0000
0100
0001
0000
0000
0000
0000
0000
1001
0000
0000
0000
0000
0000
,  // measure 59
1010
0000
0000
0010
0100
0000
0001
0000
0011
0000
0000
0010
0100
0000
1000
0000
,  // measure 60
1100
0000
0000
0100
1000
0000
0001
0000
0101
0000
0000
0100
0001
0000
0010
0000
,  // measure 61
0011
0000
0000
0001
1000
0000
0010
0000
1010
0000
0000
1000
0010
0000
1000
0000
,  // measure 62
1001
0000
0000
1000
0100
0000
0010
0000
0110
0000
0000
0010
0001
0000
1000
0000
,  // measure 63
0001
0100
0001
0100
1000
0100
1000
0100
,  // measure 64
0001
0010
0001
0010
1000
0010
1000
0010
,  // measure 65
0001
0000
0100
0001
0000
0100
0001
0000
0100
0001
0000
0100
0010
0000
1000
0010
0000
1000
0010
0000
1000
0010
0000
1000
,  // measure 66
0001
0000
0010
0001
0000
0000
1000
0000
0001
1000
0000
0000
0220
0000
0000
0000
0000
0000
0330
0000
0000
0000
0000
0000
,  // measure 67
2002
0000
0000
0000
,  // measure 68
0000
0000
0000
0000
,  // measure 69
3003
0000
0000
0000
;
