#TITLE:花咲く☆最強レジェンドDays;
#SUBTITLE:;
#ARTIST:トリプルブッキング;
#TITLETRANSLIT:Hanasaku☆Saikyou Legend Days;
#SUBTITLETRANSLIT:;
#ARTISTTRANSLIT:Triple Booking;
#GENRE:;
#CREDIT:;
#BANNER:;
#BACKGROUND:;
#LYRICSPATH:;
#CDTITLE:;
#MUSIC:Hanasaku Saikyou Legend Days.ogg;
#OFFSET:-1.160000;
#SAMPLESTART:43.714001;
#SAMPLELENGTH:15.000000;
#SELECTABLE:YES;
#BPMS:0.000000=150.000000
;
#STOPS:80.000000=0.400002,
83.000000=0.399998
;
#BGCHANGES:;
#KEYSOUNDS:;
#ATTACKS:;

//---------------dance-single - ----------------
#NOTES:
     dance-single:
     :
     Hard:
     9:
     0.621987,0.716884,0.391740,0.313392,0.285410,389.000000,354.000000,35.000000,28.000000,0.000000,0.000000,0.621987,0.716884,0.391740,0.313392,0.285410,389.000000,354.000000,35.000000,28.000000,0.000000,0.000000:
// measure 0
0000
0000
0000
0000
,  // measure 1
0000
0000
0000
0000
,  // measure 2
0000
0000
0000
0000
,  // measure 3
0000
0000
0000
0000
,  // measure 4
1000
0000
0100
0000
0010
0000
0001
0000
0100
0000
0010
1000
0010
1000
0010
1000
,  // measure 5
0001
0000
0001
0000
0010
0100
0000
2000
0002
0000
0000
0000
3003
0000
0000
0000
,  // measure 6
1000
0000
0010
0000
0100
0001
0100
0001
1000
0000
0001
0000
0010
0000
0010
0000
,  // measure 7
0100
1000
0100
0001
0100
1000
0010
0000
,  // measure 8
0100
0000
0001
0010
0100
0000
0010
0000
0001
1000
0001
1000
0010
0000
0100
0001
,  // measure 9
1000
0000
0010
0100
0001
0000
0010
0100
1000
0000
0100
0000
0110
0000
0000
0000
,  // measure 10
0001
0000
0001
0000
0010
0000
0010
0000
0100
0000
1000
0010
0100
0000
0100
0000
,  // measure 11
1000
0100
0001
0010
1000
0010
0001
0000
,  // measure 12
0011
0010
0100
1000
0010
0010
0100
0001
,  // measure 13
1000
0100
0010
0001
0200
0000
0010
0310
,  // measure 14
1000
0000
0001
0100
0001
0000
1000
0100
1000
0000
0001
0100
0001
0000
1000
0100
,  // measure 15
1000
0000
0001
0100
0001
0000
1000
0010
0100
0000
0010
0000
0110
0000
0000
0000
,  // measure 16
0201
0000
0010
0000
1300
0100
0010
0100
,  // measure 17
0102
0000
1000
2003
0000
0100
3100
0010
,  // measure 18
0021
0000
0100
0000
1030
0010
0100
0010
,  // measure 19
0012
0000
0100
0103
0010
1000
0001
0010
,  // measure 20
0110
0000
0000
0000
1100
0000
0000
0010
0000
0000
0001
0000
0110
0000
0000
0000
,  // measure 21
0101
0000
0000
0010
0000
0000
1000
0000
0110
0000
0001
0000
0001
0000
1000
0000
,  // measure 22
0110
1000
1000
0001
0210
1000
1000
0000
,  // measure 23
0310
0000
0000
1001
0000
0000
0001
0000
0001
0100
0000
0100
,  // measure 24
0010
1000
0001
0100
0000
0100
0010
0000
0010
1000
0000
1000
,  // measure 25
0100
0000
0010
0000
0001
0000
1000
0000
0010
0000
0100
0000
0002
0000
0000
0023
0000
0000
0230
0000
0000
2300
0000
0000
,  // measure 26
3000
0001
0100
0010
0110
0010
1000
1000
,  // measure 27
0100
0010
0100
1000
0001
0100
0010
0200
,  // measure 28
0000
0310
1000
0100
0010
0001
0010
1000
,  // measure 29
0010
0001
0100
1000
0000
0100
0010
0100
,  // measure 30
0001
1000
0100
0010
0011
0010
0001
0001
,  // measure 31
0100
0010
0100
1000
0100
0010
0100
0002
,  // measure 32
0000
1003
0100
0010
0001
0100
0010
1000
,  // measure 33
0000
0001
0010
0000
0200
0010
0000
1300
,  // measure 34
0001
0100
0010
1000
1010
1000
0001
0001
,  // measure 35
0010
1000
0010
0001
0010
0100
1000
0010
,  // measure 36
0000
0100
0100
0010
1000
0100
0010
0001
,  // measure 37
0100
0010
1000
0001
0000
0010
0200
0000
,  // measure 38
1300
0001
0100
0010
1010
1000
0001
0001
,  // measure 39
0100
1000
0100
0001
0010
1000
0010
0120
,  // measure 40
0000
0001
0031
0000
0100
0001
0010
1000
,  // measure 41
0020
0000
0130
1000
0100
1000
0010
0001
,  // measure 42
0020
0100
0130
0001
2000
0000
3200
0000
,  // measure 43
0310
0000
0000
0001
0000
0000
1000
0000
1001
0000
0000
0000
0000
0000
0001
0000
,  // measure 44
0110
0001
0110
0001
2002
0000
0000
0000
,  // measure 45
3003
0000
0000
0000
0110
0000
0000
1000
,  // measure 46
0110
1000
0110
1000
2002
0000
0000
0000
,  // measure 47
3003
0000
0000
0000
0000
0000
0001
0010
,  // measure 48
0100
1000
2002
0000
,  // measure 49
0000
0000
0000
0000
3003
0000
0000
0000
1100
0000
0000
0001
0000
0010
0000
0100
,  // measure 50
0010
0100
0000
1000
0001
0000
0100
0000
0110
0000
0000
1000
0000
0010
0000
0100
,  // measure 51
0010
0100
0000
0001
1000
0000
0000
0000
0011
0000
0000
0010
0000
0100
0000
1000
,  // measure 52
0100
1000
0000
0001
0100
0000
0010
0000
1000
0010
0100
0001
1000
0000
0100
0000
,  // measure 53
0110
0000
0011
1001
0000
0000
0000
0000
;
