#TITLE:花と、雪と、ドラムンベース。;
#SUBTITLE:;
#ARTIST:kanone feat. せんざい;
#TITLETRANSLIT:Hana to, Yuki to, Drum'n'Bass.;
#SUBTITLETRANSLIT:;
#ARTISTTRANSLIT:kanone feat. Sennzai;
#GENRE:ENKA DRUM'N'BASS;
#CREDIT:;
#BANNER:[Round H] - Hana to Yuki to Drum'n'Bass.png;
#BACKGROUND:[Round H] - Hana to Yuki to Drum'n'Bass-bg.png;
#LYRICSPATH:;
#CDTITLE:cdtitle.png;
#MUSIC:[Round H] - Hana to Yuki to Drum'n'Bass.ogg;
#OFFSET:2.628000;
#SAMPLESTART:64.014000;
#SAMPLELENGTH:15.000000;
#LASTBEATHINT:2.442760;
#SELECTABLE:YES;
#BPMS:0.000000=90.028000
,52.000000=180.056000
,84.000000=90.028000
,96.000000=180.056000
,104.000000=90.028000
,116.000000=180.056000
,124.000000=90.028000
,156.000000=180.056000
,268.000000=90.028000
,280.000000=45.014000
,282.000000=180.056000
;
#STOPS:
;
#BGCHANGES:1.750=[Round H] - Hana to Yuki to Drum'n'Bass.avi=1.000=0=0=0=StretchNoLoop====,
99999=-nosongbg-=1.000=0=0=0 // don't automatically add -songbackground-
;
#KEYSOUNDS:;
#ATTACKS:;

//---------------dance-single - ----------------
#NOTES:
     dance-single:
     9646_CSP:
     Challenge:
     10:
     0.645375,0.842515,0.275996,0.515677,0.635518,622.000000,584.000000,38.000000,71.000000,52.000000,0.000000,0.645375,0.842515,0.275996,0.515677,0.635518,622.000000,584.000000,38.000000,71.000000,52.000000,0.000000:
0000
0000
0000
0000
,
0000
0000
0000
0000
,
0000
0000
0000
0000
,
0000
0000
0000
0000
,
0000
0000
0000
0000
,
1001
0000
0001
0100
0020
0000
1030
0000
0100
0000
0010
0000
0020
0000
0032
0003
,
MMMM
0000
0010
0100
0010
0000
1000
0000
0002
0000
0000
0000
0103
0000
0010
0000
,
MMMM
0000
0001
0000
0010
0000
0100
0000
0020
0000
0031
1000
0010
0100
0010
1000
,
0002
0000
0000
0100
2003
0000
3010
0001
,
MMMM
0000
1000
0100
1000
0000
0001
0000
0100
0010
2000
0000
3002
0000
0023
0030
,
MMMM
0000
1000
0100
0010
0100
1000
0001
0020
0030
MMMM
0000
1000
0001
0010
0000
,
0001
1000
0020
0000
0130
0000
0020
0000
2030
0000
3100
0000
0002
0000
0013
0000
,
2000
0100
0000
0100
3002
0100
0000
0103
,
1000
0100
0010
0000
0100
1000
0001
0000
,
0100
0010
0001
0000
0010
1000
0001
0000
,
1000
0010
0100
0000
0010
1000
0001
0000
,
0010
0100
0001
0000
0100
1000
0001
0000
,
1000
0010
0100
0010
1000
0010
0100
0010
,
1000
0100
0010
0100
1000
0100
0010
0100
,
1000
0001
1000
0001
1000
0010
1000
0010
0100
0001
0100
0010
1000
0100
0010
0001
,
1000
0000
0000
0001
0000
0000
0001
0000
0100
0000
0010
0000
1000
0000
0001
0000
,
1002
0000
0103
0000
1100
1000
0100
0001
0100
2000
0000
3010
0100
0001
0010
0100
,
0220
0000
0000
0330
0012
0000
1003
1000
0010
0100
1000
0100
0010
0100
1000
0100
,
0110
0000
MMMM
0000
0110
1000
0001
1000
0100
0020
0000
0130
1000
0010
0100
0010
,
1000
0001
0010
0100
1000
0001
1000
0100
0010
0001
0100
0010
,
1000
0000
0001
0100
0001
0000
1000
0000
0100
0000
0010
0000
0100
0000
1000
0000
,
1100
0000
0000
0000
0000
0000
0001
0000
0000
0000
0000
0000
0101
0000
0100
0000
0001
0000
0100
0000
0000
0010
0000
0000
1000
0000
0000
0002
0000
0000
0000
0000
0000
0013
0000
0000
0100
0000
0000
1000
0000
0000
0100
0000
0000
0010
0000
0000
,
0220
0000
0000
0330
2100
0000
3001
0001
0100
0010
0001
0010
0100
0010
0001
0010
,
1010
0000
0000
0000
0000
0000
MMMM
0000
0000
0000
0000
0000
0011
0000
0010
0000
0001
0000
0010
0000
0000
0100
0000
0000
1000
0000
0000
0020
0000
0000
0000
0000
0000
0130
0000
0000
0010
0000
0000
1000
0000
0000
0100
0000
0000
0010
0000
0000
,
0100
0001
0100
1000
0000
0001
0010
1000
0010
0001
0000
1000
,
0001
1000
0001
0001
0100
0010
1000
0001
,
1001
0000
0100
0010
2010
0000
3001
0000
0010
0000
0100
0000
0210
0000
2300
3000
,
MMMM
0000
0000
0000
0000
0000
0100
0000
0000
0001
0000
0000
0100
0000
0000
0000
0000
0000
0010
0000
0000
0000
0000
0000
2010
0000
0000
0000
0000
0000
3001
0000
0000
0100
0000
0000
0001
0000
0000
0010
0000
0000
0100
0000
0000
1000
0001
1000
,
0001
0000
0001
0100
0101
0000
0010
0000
1002
0000
0013
0100
1000
0100
0010
0001
,
2000
0000
0000
0000
0000
0000
3000
0000
0000
1000
0000
0000
0010
0000
0000
0000
0000
0000
0010
0000
0000
0000
0000
0000
0001
0000
0000
0000
0000
0000
0001
0000
0000
0100
0000
0000
0010
0000
0000
0000
0000
0000
1000
0000
0000
0100
0010
0100
,
0010
0000
0001
0010
0001
1000
0010
0000
0100
0001
0020
0000
0230
0000
2300
0000
,
3001
0000
0000
0000
0000
0000
1000
0000
0000
0010
0000
0000
0100
0000
0000
0010
0000
0000
0001
0000
0000
0010
0000
0000
0200
0000
0000
0000
0000
0000
0310
0000
0000
1000
0000
0000
0001
0000
0000
0010
0000
0000
0100
0000
0000
1000
0001
1000
,
0001
0001
1000
0010
0110
0000
0020
0000
2030
0000
3100
0100
0002
0000
0013
0000
,
2000
0000
0000
0000
3100
0000
0010
0000
0110
0000
0000
0000
1000
0000
0000
0000
0012
0000
0000
0000
1003
0000
0010
0000
0100
0000
0001
0100
0010
1000
0001
0000
,
MMMM
0001
0010
0100
0010
0100
1000
0010
,
MMMM
0001
0100
0010
0100
0010
1000
0100
,
MMMM
0001
0010
0100
0010
0100
1000
0010
,
MMMM
0000
0001
0100
0001
0100
0001
0100
0010
0000
1000
0000
0002
0000
0000
0000
,
1003
0100
1000
0001
1000
0100
1000
0010
,
0100
0001
1000
0001
0010
0001
0100
0010
,
1000
0001
1000
0001
0100
0001
0100
0001
1000
0001
0010
0100
1000
0100
0010
0001
,
1000
0000
0000
1000
0000
0000
0001
1000
0001
0000
0100
0010
1000
0000
0001
0000
,
1002
0000
0000
0000
1003
0000
0001
0010
0001
0000
1000
0000
0100
0000
1000
0010
,
1000
0000
0001
0000
0100
0000
0001
1000
0001
0000
0010
0000
0100
0000
0010
0100
,
2000
0000
0000
3100
0001
0100
2000
0000
0000
3100
0001
0100
,
1000
0001
1000
0010
0100
0001
1000
0010
,
0120
0000
0130
0001
0010
1000
0001
0100
1000
0001
0010
0100
,
2000
0000
0000
3001
0010
0001
2000
0000
0000
3001
0010
0001
,
2000
0000
0000
0000
3100
0000
0010
0000
0012
0000
0000
0000
0013
0000
0100
1000
,
0001
0010
0001
1000
0020
0100
0200
0330
,
1002
0000
0000
0000
1003
0000
0001
0100
0001
0000
1000
0000
0010
0000
1000
0100
,
1000
0000
0001
0000
0010
0000
0001
1000
0001
0000
0100
0000
0010
0000
0100
0010
,
2000
0000
0000
3010
0001
0010
2000
0000
0000
3010
0001
0010
,
1000
0001
1000
0100
0010
0001
1000
0100
,
0210
0000
0310
0001
0100
1000
0001
0010
1000
0001
0100
0010
,
2000
0000
0000
3001
0100
0001
2000
0000
0000
3001
0100
0001
,
1000
0100
0010
0100
0110
0000
0001
1000
,
1010
0000
0100
0001
0100
0000
0010
0000
1010
0000
0001
0000
0011
0000
0100
2000
,
0002
0000
0000
0000
,
0000
0000
0000
0000
,
3003
0000
0000
0000
,
0000
0000
0000
0000
,
1100
0000
1000
0000
0010
0000
0200
0000
0000
0310
0000
0000
0120
0000
0000
0000
0000
0000
2030
0000
0000
3001
0000
0000
,
0101
0000
0001
0000
0010
0000
0200
0000
0000
0310
0000
0000
0120
0000
0000
0000
0000
0000
0032
0000
0000
1003
0000
0000
,
1001
0000
0000
0000
0110
0000
0000
0000
MMMM
0000
0000
0000
0000
0000
0000
0000
1000
0000
0001
0100
0001
0000
1000
0100
1000
0000
0100
0010
0001
0000
0010
0100
,
2000
0000
0000
0000
0000
0000
0000
0000
0000
0000
0000
0000
0000
0000
0000
3000
0220
0000
0000
0000
0000
0000
0000
0000
0000
0000
0000
0000
0000
0000
0000
0000
,
0000
0000
0000
0000
,
0000
0000
0330
0000
;

//---------------dance-single - ----------------
#NOTES:
     dance-single:
     9646_ESP:
     Hard:
     9:
     0.580007,0.816187,0.239681,0.501151,0.377679,559.000000,526.000000,33.000000,69.000000,0.000000,0.000000,0.580007,0.816187,0.239681,0.501151,0.377679,559.000000,526.000000,33.000000,69.000000,0.000000,0.000000:
0000
0000
0000
0000
,
0000
0000
0000
0000
,
0000
0000
0000
0000
,
0000
0000
0000
0000
,
0000
0000
0000
0000
,
1001
0100
0001
0001
1000
0100
0002
0203
,
1300
0000
0001
0010
0100
0000
1000
0000
2000
0000
0000
0000
3010
0000
0010
0000
,
0100
0000
0010
0000
1000
0000
0100
0000
0020
0000
0130
1000
0001
0010
0100
1000
,
0002
0000
0100
0000
0000
0000
0100
0000
2003
0000
0000
3100
0020
0000
0032
0000
,
2003
0000
3010
0100
0010
0000
1000
0000
0100
0010
0002
0000
2003
0000
3020
0000
,
0130
0000
0010
1000
0001
0010
1000
0010
0002
0000
1003
0000
0010
0100
1000
0000
,
0100
0010
2000
0000
3001
0000
0010
0000
0200
0000
0301
0000
0200
0000
1300
0000
,
0002
0100
0000
0100
2003
0010
0000
3010
,
0100
0001
1000
0000
0001
0100
0010
0000
,
1000
0100
0010
0000
0100
1000
0001
0000
,
0010
0001
1000
0000
0001
0010
0100
0000
,
1000
0010
0100
0000
0010
1000
0001
0000
,
1000
0100
1000
0100
0001
0100
0001
0100
,
1000
0001
1000
0001
0100
0010
0100
0010
,
1000
1000
0001
0001
0100
0010
1000
0100
,
0010
0000
0000
0010
0000
0000
0010
0000
0100
0000
1000
0000
0001
0000
1000
0000
,
1001
0000
0100
0000
0110
0000
1000
0001
0000
0100
0000
0010
0001
1000
0100
0010
,
2000
0000
0000
3000
0102
0000
1003
0001
0010
0100
1000
0001
1000
0010
0100
0001
,
0101
0000
0000
0000
1100
1000
0001
0001
0100
0020
0000
1030
0001
1000
0100
0010
,
0001
0000
1000
0100
0000
1000
0001
0100
0001
0100
0010
1000
,
0001
0000
1000
0100
1000
0000
0001
0000
0100
0000
0010
0000
1000
0000
0001
0000
,
1001
0000
0010
0000
0110
1000
0001
0001
0010
0200
0000
0310
0001
1000
0010
0100
,
0220
0000
0330
0000
2010
0000
3001
1000
0100
0010
0001
1000
0001
0010
0100
1000
,
1100
0000
0000
0000
0101
0001
1000
1000
0100
0020
0000
0130
1000
0001
0100
0010
,
1000
0100
1000
0100
0000
1000
0001
0100
0001
0100
0000
0001
,
1000
0100
1000
0001
0010
0100
0010
0100
,
0110
0000
0001
0100
0101
0000
0010
0000
1000
0000
0100
0000
0120
0000
0031
0000
,
1000
0000
0010
0100
0010
0000
1000
0000
0002
0000
0013
0100
0010
0001
1000
0100
,
1000
0000
0001
0100
0001
0000
1000
0000
0020
0000
0130
0001
0010
0100
1000
0100
,
0020
0000
0000
0130
1000
0000
0001
0000
0020
0000
0031
1000
0010
0000
0100
0001
,
1000
0000
0100
0010
0100
0010
0100
0000
1000
0001
2000
0000
3020
0000
0032
0000
,
1003
0000
0100
0001
1000
0001
0010
0100
2000
0000
3001
0100
0010
1000
0010
0000
,
0001
0010
2000
0000
3001
0000
0020
0000
0230
0000
0301
0000
0200
0000
1300
0000
,
0002
0000
0010
0000
0000
0000
0010
0000
2003
0000
3100
0010
0100
1000
0001
0001
,
1000
0100
0010
0001
0010
0100
1000
0001
,
0000
0010
0100
1000
0100
0010
0001
1000
,
0000
0010
0100
0001
0100
0010
1000
0001
,
0000
0010
0100
0010
0100
1000
0002
0000
,
1003
0100
1000
0010
0100
0010
1000
0100
,
0010
0001
0010
0100
0001
0100
0010
0001
,
1000
0100
0001
0100
1000
0010
0001
0010
,
1000
0000
0000
1000
0000
0000
0010
0000
1000
0000
0100
0000
0010
0000
0100
0000
,
2001
0000
3001
1000
0010
0010
0001
1000
,
0100
0100
0001
1000
0100
0010
0010
0001
,
0002
0000
1003
0100
0200
0000
0301
0100
,
0100
1000
0001
1000
0010
0100
0001
1000
,
2100
0000
0000
3001
1000
0001
0100
0010
1000
0100
0010
0001
,
2000
0000
3010
0100
0102
0000
0013
0100
,
0020
0000
0031
1000
2100
0000
3001
1000
,
0010
0010
0100
0010
2000
0000
0002
3003
,
1002
0000
1003
0001
0010
0010
1000
0001
,
0100
0100
1000
0001
0100
0010
0010
1000
,
2000
0000
3001
0100
0200
0000
1300
0100
,
0100
0001
1000
0001
0010
0100
1000
0001
,
0102
0000
0000
1003
0001
1000
0100
0010
0001
0100
0010
1000
,
0002
0000
0013
0100
2100
0000
3100
0010
,
0011
0001
0100
0010
1010
0000
0002
0000
,
0013
0100
0010
0010
0001
1000
0010
0100
,
0220
0000
0000
0000
,
0000
0000
0000
0000
,
0330
0000
0000
0000
,
0000
0000
0000
0000
,
1001
0000
1000
0000
0100
0000
0200
0000
0000
0310
0000
0000
0012
0000
0000
0000
0000
0000
0103
0000
0000
0001
0000
0000
,
1001
0000
0001
0000
0010
0000
0020
0000
0000
0130
0000
0000
2100
0000
0000
0000
0000
0000
3010
0000
0000
1000
0000
0000
,
0110
0000
1001
0000
0010
0000
0000
0000
0100
1000
0001
0001
1000
0100
0010
0001
,
2002
0000
0000
0000
0000
0000
0000
0000
0000
0000
0000
0000
0000
0000
0000
3003
0220
0000
0000
0000
0000
0000
0000
0000
0000
0000
0000
0000
0000
0000
0000
0000
,
0000
0000
0000
0000
,
0000
0000
0330
0000
;

//---------------dance-single - ----------------
#NOTES:
     dance-single:
     9646_DSP:
     Medium:
     7:
     0.443047,0.658215,0.174313,0.472099,0.101683,427.000000,403.000000,24.000000,65.000000,0.000000,0.000000,0.443047,0.658215,0.174313,0.472099,0.101683,427.000000,403.000000,24.000000,65.000000,0.000000,0.000000:
// measure 0
0000
0000
0000
0000
,  // measure 1
0000
0000
0000
0000
,  // measure 2
0000
0000
0000
0000
,  // measure 3
0000
0000
0000
0000
,  // measure 4
0000
0000
0000
0000
,  // measure 5
0101
1000
0001
0001
0010
0100
2000
3001
,  // measure 6
0000
0100
0010
1000
0002
0000
0103
0000
,  // measure 7
0010
1000
0100
0010
0002
0013
1000
0010
,  // measure 8
0002
0000
0000
1003
0002
0000
1003
0010
,  // measure 9
0100
0001
1000
1000
0100
0010
0002
1003
,  // measure 10
0000
0010
0100
0010
2000
3000
0001
0001
,  // measure 11
0010
0020
0030
0100
2000
3100
0020
0031
,  // measure 12
2000
0100
0000
0100
3020
0100
0000
0130
,  // measure 13
1000
0100
0010
0000
0001
0100
0010
0000
,  // measure 14
0100
0001
0010
0000
0100
1000
0010
0000
,  // measure 15
1000
0001
0010
0000
0100
1000
0001
0000
,  // measure 16
0100
0010
1000
0000
0100
0010
0001
0000
,  // measure 17
1000
1000
0100
0000
0001
0001
0100
0000
,  // measure 18
1000
1000
0010
0000
0001
0001
0010
0000
,  // measure 19
1000
0100
1000
0001
0100
0010
1000
0100
,  // measure 20
0020
0000
0030
0100
,  // measure 21
0110
0000
0001
0000
1100
0000
0010
0010
0000
0002
0000
1003
0010
0100
0010
0000
,  // measure 22
2020
0000
3030
0000
0012
0000
1003
0000
0010
0100
0001
0000
0010
0100
1000
0000
,  // measure 23
0110
0000
0000
0000
1100
0000
0001
0000
1000
0010
0000
0100
0001
1000
0001
0000
,  // measure 24
0010
0000
0010
0100
0000
0000
1000
0000
1000
0001
0000
0000
,  // measure 25
0100
0001
0100
0010
1000
0100
0010
0000
,  // measure 26
0110
0000
1000
0000
0001
0100
0010
0010
0000
2000
0000
3001
0010
0100
0010
0000
,  // measure 27
0022
0000
0033
0000
2010
0000
3001
0000
0010
0100
1000
0000
0010
0100
0001
0000
,  // measure 28
0110
0000
0000
0000
0100
0001
1000
0001
0000
0020
0000
0130
1000
0001
1000
0000
,  // measure 29
0100
0000
0100
0010
0000
0000
0001
0000
0001
1000
0000
0000
,  // measure 30
0010
0100
0001
0100
0020
0000
2000
3030
,  // measure 31
1100
0001
1000
1000
0010
0100
0002
1003
,  // measure 32
0000
0100
0010
0001
2000
0000
3100
0000
,  // measure 33
0010
0001
0100
0010
2000
3010
0001
0010
,  // measure 34
2000
0000
3001
1000
2000
0000
3001
0010
,  // measure 35
0100
1000
0001
0001
0100
0010
2000
3001
,  // measure 36
0000
0010
0100
0010
0002
0003
1000
1000
,  // measure 37
0010
0020
0030
0100
0002
0103
0020
1030
,  // measure 38
0002
0100
0000
0100
0023
0100
0000
0130
,  // measure 39
0001
0000
0001
0000
0100
0010
1000
0001
,  // measure 40
1000
0000
1000
0000
0100
0010
0001
1000
,  // measure 41
0001
0000
0001
0000
0010
0100
1000
0001
,  // measure 42
1000
0010
1000
0010
0100
0000
0110
0000
,  // measure 43
0001
0100
0010
0000
1000
0100
0010
0000
,  // measure 44
0100
1000
0010
0000
0100
0001
0010
0000
,  // measure 45
0100
1000
0001
1000
0010
0001
0010
1000
,  // measure 46
0002
0000
0000
0003
,  // measure 47
2010
0000
3001
0100
0001
0000
0010
0100
,  // measure 48
0010
0000
0001
1000
0020
0000
0130
0000
,  // measure 49
1002
0000
0013
0100
0010
0000
0100
1000
,  // measure 50
0001
1000
0010
0100
0001
0010
0100
0000
,  // measure 51
2100
0000
3001
1000
0010
0100
0010
1000
,  // measure 52
0002
0000
0013
0100
2000
0000
3100
0010
,  // measure 53
0002
0000
1003
0010
0200
0000
0310
1000
,  // measure 54
0001
0010
0001
0010
0200
0000
2000
3300
,  // measure 55
2100
0000
3001
0010
0001
0000
0100
0010
,  // measure 56
0100
0000
0001
1000
0200
0000
0310
0000
,  // measure 57
1002
0000
0103
0010
0100
0000
0010
1000
,  // measure 58
0001
1000
0100
0010
0001
0100
0010
0000
,  // measure 59
2010
0000
3001
1000
0100
0010
0100
1000
,  // measure 60
0002
0000
0103
0010
2000
0000
3010
0100
,  // measure 61
0001
1000
0002
0000
0013
0000
0200
0000
,  // measure 62
1300
0001
1000
0001
0100
0010
1000
0000
,  // measure 63
2002
0000
0000
0000
,  // measure 64
0000
0000
0000
0000
,  // measure 65
3003
0000
0000
0000
,  // measure 66
0000
0000
0000
0000
,  // measure 67
1001
1000
0020
0000
0200
0300
2030
0000
,  // measure 68
3100
0010
0020
0000
0200
0300
0031
1000
,  // measure 69
1001
0000
0101
0000
0010
0000
0000
0000
0100
1000
0100
0000
0001
0100
0001
0010
,  // measure 70
0200
0000
0000
0000
0000
0000
0000
0000
0000
0000
0000
0000
0000
0000
0000
0300
2002
0000
0000
0000
0000
0000
0000
0000
0000
0000
0000
0000
0000
0000
0000
0000
,  // measure 71
0000
0000
0000
0000
,  // measure 72
0000
0000
3003
0000
;

//---------------dance-single - ----------------
#NOTES:
     dance-single:
     9646_BSP:
     Easy:
     5:
     0.328913,0.500243,0.312312,0.406731,0.000000,317.000000,274.000000,43.000000,56.000000,0.000000,0.000000,0.328913,0.500243,0.312312,0.406731,0.000000,317.000000,274.000000,43.000000,56.000000,0.000000,0.000000:
0000
0000
0000
0000
,
0000
0000
0000
0000
,
0000
0000
0000
0000
,
0000
0000
0000
0000
,
0000
0000
0000
0000
,
1001
0000
0100
0000
1000
0100
0001
0000
,
0000
1000
0100
0001
2000
0000
3000
0000
,
0001
0000
0001
0000
1000
0000
0100
0010
,
0020
0000
0230
0310
,
0100
0000
0100
0000
1000
0010
0001
0000
,
0000
1000
0010
0001
2000
3000
0010
0000
,
0100
0200
0300
0001
2000
3000
0002
0003
,
0020
0000
0000
0000
0200
0000
0000
0330
,
1100
0010
1100
0001
,
0101
0010
0101
1000
,
1100
0001
0110
1000
,
0011
1000
0110
0001
,
1000
1000
0010
0010
,
0001
0001
0100
0100
,
2000
3020
0230
0302
,
0023
0000
0000
0130
,
1001
0000
0101
0000
1000
0100
0001
0010
,
2010
0000
3001
0001
1000
0010
0001
0010
,
1010
0000
1001
0000
0100
0010
0001
0010
,
0100
1010
0100
0011
,
1000
1000
0010
0100
,
1001
0000
1100
0000
0001
0100
1000
0010
,
0012
0000
1003
1000
0001
0010
1000
0010
,
0011
0000
1001
0000
0100
0010
1000
0010
,
0100
0110
0100
1001
,
1000
0001
0010
0100
,
1001
0000
0010
0000
1000
0010
0001
0000
,
1000
1000
0010
0001
2000
0000
3001
0000
,
0001
0000
0001
0100
1000
0000
0010
0001
,
2000
0010
3002
0103
,
0010
0100
0010
0000
1000
0100
0001
0000
,
1000
1000
0100
0001
2000
3000
0100
0100
,
0010
0002
0003
0100
0002
0003
1000
0010
,
0200
0000
1000
0000
0320
0000
0001
0030
,
1000
0001
0001
0101
,
0000
1000
1000
1100
,
0000
0010
0100
0110
,
0000
1000
0001
1001
,
0001
0001
0100
0100
,
1000
1000
0010
0010
,
0002
0203
0320
2030
,
3200
0000
0000
0310
,
1001
1000
0010
0100
,
0010
1000
0002
0100
,
1003
2000
3100
0002
,
0103
0100
1000
0001
,
0110
1000
0010
0001
,
2000
3100
0002
0103
,
1001
0100
0110
1000
,
0001
1000
2000
3001
,
1001
0001
0100
0010
,
0100
0001
2000
0010
,
3001
0002
0013
2000
,
3010
0010
0001
1000
,
0110
0001
0100
1000
,
0002
0013
2000
3010
,
1001
0002
0103
1000
,
0200
0301
0020
0130
,
2002
0000
0000
0000
,
0000
0000
0000
0000
,
3003
0000
0000
0000
,
0000
0000
0000
0000
,
0110
0001
0002
0000
2003
0000
3020
0030
,
0110
1000
2000
0000
3002
0000
0023
0130
,
1001
0110
0010
0000
2001
0100
3001
0100
,
0220
0000
0000
0000
0000
0000
0000
0330
2002
0000
0000
0000
0000
0000
0000
0000
,
0000
0000
0000
0000
,
0000
0000
3003
0000
;

//---------------dance-single - ----------------
#NOTES:
     dance-single:
     9646_BEG:
     Beginner:
     3:
     0.172238,0.289615,0.101683,0.145261,0.000000,166.000000,152.000000,14.000000,20.000000,0.000000,0.000000,0.172238,0.289615,0.101683,0.145261,0.000000,166.000000,152.000000,14.000000,20.000000,0.000000,0.000000:
0000
0000
0000
0000
,
0000
0000
0000
0000
,
0000
0000
0000
0000
,
0000
0000
0000
0000
,
0000
0000
0000
0000
,
0001
0000
0001
0000
,
0100
0000
0020
0030
,
0000
1000
1000
1000
,
2000
0000
3000
0000
,
0001
0000
1000
0000
,
0100
0000
0010
0000
,
0002
0003
2000
3000
,
0020
0000
0000
0030
,
1000
0000
1000
0000
,
1000
0000
1000
0000
,
0001
0000
0001
0000
,
0001
0000
0001
0000
,
0010
0000
0010
0000
,
0100
0000
0100
0000
,
0010
0010
0010
0010
,
0020
0000
0000
0030
,
0110
1001
0010
0100
,
0200
0300
0100
0010
,
0110
0001
1000
0100
,
1000
0000
0001
0000
,
1000
1000
1000
0000
,
1001
0110
1000
0001
,
0002
0003
0001
1000
,
1001
0010
0100
0001
,
0100
0000
0010
0000
,
0100
0100
0100
0000
,
1001
0001
1000
1000
,
0000
0010
0020
0030
,
1000
1000
0001
0001
,
0020
0000
0030
0000
,
0100
0100
0010
0010
,
0001
1000
0001
0000
,
0200
0300
0020
0030
,
2000
0000
0000
3000
,
0000
0001
0001
0001
,
0000
1000
1000
1000
,
0000
0001
0001
0001
,
0000
0010
0010
0010
,
0010
0000
0010
0000
,
0100
0000
0100
0000
,
0010
0010
0010
0010
,
0010
0000
0000
0000
,
0110
0000
0110
0000
,
1000
0000
0001
0001
,
0001
0000
0001
0000
,
0100
0100
0100
0000
,
0110
0000
1000
0000
,
0001
0000
0001
0000
,
1000
0000
0100
0000
,
0010
0010
0020
0030
,
0110
0000
0110
0000
,
1000
0000
0001
0001
,
0001
0000
0001
0000
,
0100
0100
0100
0000
,
0110
0000
1000
0000
,
0001
0000
0001
0000
,
2000
0000
3000
0000
,
0010
0000
0010
0000
,
0200
0000
0000
0000
,
0000
0000
0000
0000
,
0300
0000
0000
0000
,
0000
0000
0000
0000
,
0001
0002
0000
0003
,
1000
2000
0000
3000
,
1001
0000
0010
0100
,
0020
0000
0000
0030
0200
0000
0000
0000
,
0000
0000
0000
0000
,
0000
0000
0300
0000
;
