#TITLE:DDU-DU DDU-DU;
#SUBTITLE:;
#ARTIST:BLACKPINK;
#TITLETRANSLIT:;
#SUBTITLETRANSLIT:;
#ARTISTTRANSLIT:;
#GENRE:K-Pop;
#CREDIT:;
#MUSIC:[Round H] - DDU DU DDU DU.ogg;
#BANNER:[Round H] - DDU DU DDU DU.png;
#BACKGROUND:[Round H] - DDU DU DDU DU-bg.png;
#CDTITLE:cdtitle.png;
#SAMPLESTART:66.842;
#SAMPLELENGTH:15.378;
#SELECTABLE:YES;
#OFFSET:0.000;
#BPMS:0.000=140.000
,154.000=140.421
,155.000=141.888
,155.250=140.710
,155.333=141.300
,155.625=142.300
,156.000=141.072
,158.000=140.430
,159.000=137.910
,159.250=136.200
,160.000=140.000
,283.000=140.612
,284.000=140.000
,285.500=140.121
,288.000=140.000
;
#STOPS:;
#DISPLAYBPM:140.000;
#BGCHANGES:;
#FGCHANGES:;

//--------------- dance-single - forcednature (X-Scale 3) ----------------
#NOTES:
     dance-single:
     forcednature (X-Scale 3):
     Beginner:
     1:
     0,0,0,0,0:
0000
0000
0000
0000
,
0000
0000
0000
0000
,
0000
0000
0000
0000
,
0000
0000
0000
0000
,
0010
0000
0010
0000
,
0010
0000
0000
0000
,
1000
0000
0100
0000
,
0001
0000
0000
0000
,
1000
0000
1000
0000
,
1000
0000
0000
0000
,
0010
0000
0100
0000
,
0001
0000
0000
0000
,
0001
0000
0001
0000
,
0001
0000
0000
0000
,
0010
0000
1000
0000
,
0100
0000
0000
0000
,
1001
0000
0000
0000
,
0110
0000
0000
0000
,
1001
0000
0000
0000
,
0110
0000
0000
0000
,
0010
0000
0100
0000
,
0010
0000
0100
0000
,
1000
0000
0001
0000
,
1000
0000
0001
0000
,
0000
0000
0000
0000
,
1001
0000
0000
0000
,
0010
0000
0100
0000
,
1000
0000
0001
0000
,
0000
0000
0000
0000
,
1001
0000
0000
0000
,
0100
0000
0001
0000
,
1000
0000
0010
0000
,
1001
0000
0010
0000
,
0010
0000
0010
0000
,
0100
0000
1000
0000
,
0100
0000
0001
0000
,
1001
0000
0100
0000
,
0010
0000
0100
0000
,
0001
0000
1000
0000
,
0010
0010
0010
0010
,
1001
0000
0100
0000
,
0010
0000
1000
0000
,
1001
0000
0100
0000
,
0010
0010
0010
0010
,
1001
0000
0100
0000
,
0001
0000
1000
0000
,
1001
0000
1000
0000
,
0001
0000
0100
0000
,
1001
0000
0000
0000
,
0010
0000
0100
0000
,
0001
0000
0000
0000
,
1000
0000
0000
0000
,
1001
0000
0010
0000
,
1000
0000
0001
0000
,
1000
0000
0000
0000
,
0001
0000
0000
0000
,
0100
0000
0100
0000
,
0010
0000
0000
0000
,
0010
0000
0000
0000
,
1000
0000
0001
0000
,
0010
0000
0100
0000
,
0010
0000
0000
0000
,
0020
0000
0000
0000
,
0030
0000
0000
0000
0000
0100
0100
0000
,
1001
0000
0010
0000
,
0100
0000
0010
0000
,
1001
0000
0010
0000
,
0100
0000
0010
0000
,
0100
0000
1000
0000
,
0100
0000
0001
0000
,
0010
0000
0100
0000
,
0010
0010
0010
0010
,
0100
0000
0000
0000
;

//--------------- dance-single - forcednature (X-Scale 5) ----------------
#NOTES:
     dance-single:
     forcednature (X-Scale 5):
     Easy:
     3:
     0,0,0,0,0:
0000
0000
0000
0000
,
0000
0000
0000
0000
,
0000
0000
0000
0000
,
0000
0000
0000
0000
,
1000
0010
0100
0001
,
0010
0100
1000
0000
,
0001
0010
0100
1000
,
0001
0100
0010
0000
,
0100
0001
0100
0001
,
1000
0100
0010
0000
,
0100
1000
0100
1000
,
0001
0010
0100
0000
,
0010
0001
1000
0010
,
0100
0001
1000
0000
,
0100
0010
0100
1000
,
0010
0100
0001
0000
,
0101
0000
1000
1000
,
1100
0000
0001
0001
,
0011
0000
1000
1000
,
1010
0000
0010
0010
,
0110
0000
1100
0000
,
0101
0000
0011
0000
,
1010
0000
1001
0000
,
0110
0000
1100
0000
,
0011
0000
0100
0100
,
0001
0000
0000
1000
,
0010
0010
0010
0000
,
0100
0001
1000
0010
,
0000
0000
0100
0001
,
1100
0000
0000
0001
,
0010
0100
0000
1000
,
0010
1000
0001
0100
,
0110
0000
1001
0000
,
0110
0000
1001
0000
,
0110
0000
1001
0000
,
0010
0010
0010
0010
,
1001
0000
0100
0000
,
0010
0000
0100
0000
,
0010
0010
0010
0010
,
0001
0000
1000
0000
0020
0030
0020
0030
,
1001
0100
0010
0000
,
1000
0100
0010
0001
,
0100
0010
1000
0000
,
0001
0000
1000
0000
0020
0030
0020
0030
,
1001
1000
0010
0000
,
0100
0001
0010
0100
,
1000
0010
0100
0000
,
0001
0010
0100
0000
,
1001
1000
0010
0000
,
0100
0100
0100
0100
,
0001
0000
0000
0100
,
0001
0000
0000
0000
,
1000
0010
1000
0000
,
0001
0010
0001
0010
,
0100
0000
1000
0000
,
0010
1000
0001
0100
,
0110
0000
1001
0000
,
0010
1000
0001
0000
,
0010
1000
0001
0000
,
0100
0001
1000
0010
,
0100
0000
1001
0000
,
0010
1000
0001
0000
,
0010
1000
0010
0001
,
0000
0000
0000
0000
0000
0100
0100
0000
,
0010
1000
0010
0100
,
0010
1000
0010
0100
,
0001
0010
0100
0010
,
0001
0010
0100
0010
,
0100
1000
0001
1000
,
0100
1000
0001
1000
,
0001
0100
0001
1000
,
0010
0000
0100
0000
0020
0030
0020
0030
,
1001
0000
0000
0000
;

//--------------- dance-single - forcednature (X-Scale 9) ----------------
#NOTES:
     dance-single:
     forcednature (X-Scale 9):
     Medium:
     6:
     0,0,0,0,0:
0000
0000
0000
0000
,
0000
0000
0000
0000
,
0000
0000
0000
0000
,
0000
0000
0000
0000
,
1100
0000
0011
0000
1100
0000
0000
0001
,
0100
0001
1000
0010
1000
0000
0001
0000
,
0101
0000
1010
0000
0101
0000
0000
1000
,
0100
1000
0001
0010
0100
0000
0000
0000
,
1000
0001
0100
0001
,
1000
0000
0100
0010
0100
0010
0000
0000
,
0001
1000
0010
1000
,
0001
0000
1000
0100
1000
0100
0000
0000
,
0010
0001
1000
0010
,
0100
0000
0001
0100
0001
0100
0000
0000
,
0101
1000
1100
0001
,
1000
0000
0100
0010
0100
0010
0000
0000
,
1001
0000
0000
0001
0000
0000
0100
0000
0000
0001
0000
1000
,
0000
0000
0000
0100
0000
0000
1000
0000
0000
0001
0000
0100
,
0000
0000
0000
0010
0000
0000
1000
0000
0000
0001
0000
0010
,
0000
0000
0000
0100
0000
0000
1000
0000
0000
0001
0000
0100
,
0000
0000
0000
0000
0010
0000
0000
1000
0000
0000
0000
0000
0001
0000
0000
0010
,
0000
0000
0000
0000
0100
0000
0000
1000
0000
0000
0000
0000
0001
0000
0000
0100
,
0000
0000
0000
0000
0001
0000
0000
1000
0000
0000
0000
0000
0100
0000
0000
0010
,
0000
0000
0000
0000
0001
0000
0000
1000
0000
0000
0000
0000
0010
0000
0000
0100
,
0000
0000
0000
0000
0001
0100
1000
0000
,
1001
0000
0000
0000
0000
0000
1000
0100
,
1000
0000
0000
0001
0000
0000
0010
0000
0000
0000
0001
0000
1000
0000
0010
0000
,
0100
0000
0000
0001
0000
0000
1000
0000
0100
0000
0000
1000
0000
0000
0001
0000
,
0000
0000
0000
0000
0100
0001
1000
0010
,
0000
0100
0000
0000
0000
0000
0000
0000
0000
0000
0000
0000
0001
0000
0010
0000
,
0100
0000
0000
1000
0000
0000
0001
0000
0000
0000
1000
0000
0010
0000
0100
0000
,
0001
0000
0000
0010
0000
0000
0100
0000
0000
0000
0000
0000
1000
0000
0000
0000
,
1001
0000
0000
0000
0100
0000
0000
0000
0001
0000
0000
0010
0000
0000
0100
0000
,
1000
0000
0000
0001
0000
0000
0100
0000
0010
0000
0000
1000
0000
0000
0100
0000
,
0010
0000
0000
0001
0000
0000
1000
0000
0010
0000
0000
1000
0000
0000
0001
0000
,
0100
0010
0100
0010
0100
0000
0010
0000
,
1001
0000
0000
0000
0000
0000
0000
0000
1000
0000
0000
0100
0000
0000
1000
0000
,
0001
0000
0000
0100
0000
0000
0001
0000
1000
0000
0000
0010
0000
0000
1000
0000
,
0001
0010
0100
1000
,
0001
0000
0000
0000
1000
0000
0000
0000
0001
1000
0000
0000
0001
1000
0000
0000
,
0110
0000
1000
0010
1000
0000
0000
0001
,
0010
0100
1000
0001
0100
0000
0000
0000
,
1001
0000
1000
0010
1000
0000
0000
0001
,
1000
0000
0100
0000
0010
0000
0001
0000
1000
0001
0000
0000
1000
0001
0000
0000
,
1001
0000
1000
0100
1000
0000
0000
0001
,
0010
0100
1000
0001
0100
0000
0000
0000
,
1001
0000
1000
0010
1000
0000
0000
0001
,
0010
0001
1000
0100
1000
0000
0000
0000
,
0001
0000
0100
0000
0001
0000
1000
0100
,
1000
0000
0000
0001
0000
0000
0100
0000
0001
0000
0000
1000
0000
0000
0100
0000
,
0010
0000
0000
0010
0000
0000
0001
0100
,
0010
0000
0000
0100
0010
0000
0000
0000
,
1000
0000
0001
0000
1000
0000
0010
0100
,
0001
0000
0000
1000
0000
0000
0100
0000
1000
0000
0000
0001
0000
0000
0100
0000
,
0010
0000
0000
0010
0000
0000
0000
1000
,
0001
1001
1001
1001
,
0110
0000
0000
2002
0000
0000
0000
3003
,
1000
0100
1000
0100
1000
0000
0000
0000
,
0001
0100
0001
0100
0001
0000
0000
0000
,
0100
1001
0110
1001
,
0110
0000
0000
2002
0000
0000
0000
3003
,
0001
0100
0001
0100
0001
0000
0000
0000
,
1000
0010
1000
0010
1000
0000
0000
0000
,
0020
0000
0000
0030
0000
1001
1001
0000
,
1000
0000
0010
0000
0100
0001
0000
0010
,
0100
0000
1000
0000
0001
0100
0000
0001
,
1000
0000
0100
0000
1000
0001
0000
0010
,
0100
0000
1000
0000
0001
0100
0000
0010
,
1000
0001
1000
0000
0010
0000
0100
0001
,
0100
0000
0010
1000
0100
0000
1000
0000
,
0001
0000
0010
0001
1000
0000
0100
0000
,
1000
0000
0000
0000
0001
0000
0000
0000
1000
0001
0000
0000
1000
0001
0000
0000
,
1001
0000
0000
0000
;

//--------------- dance-single - forcednature (X-Scale 12) ----------------
#NOTES:
     dance-single:
     forcednature (X-Scale 12):
     Hard:
     8:
     0,0,0,0,0:
0000
0000
0000
0000
,
0000
0000
0000
0000
,
0000
0000
0000
0000
,
0000
0000
0000
0000
,
1001
0000
0000
0000
0001
0000
0100
0000
0010
0000
0000
0000
0000
0000
1000
0100
,
1000
0010
1000
0001
0010
0000
0000
0000
,
1001
0000
0000
0000
1000
0000
0001
0000
0100
0000
0000
0000
0000
0000
0001
0010
,
0001
1000
0100
0010
0100
0000
1001
0000
,
0110
0000
0001
0100
0001
0100
0010
1000
,
0010
1000
0001
0010
0100
1000
0000
0001
,
1000
0100
1000
0001
0100
0001
1000
0100
,
0010
0001
0010
1000
0010
0001
0000
0000
,
1000
0010
0100
0001
1000
0100
1000
0010
,
0100
0001
0010
0001
1000
0001
0000
0000
,
1001
0000
0100
0010
1001
0000
0001
0010
,
0100
1000
0100
0010
0001
1000
0000
0000
,
1001
0000
0000
0001
0100
0001
0100
0001
0100
0001
0000
0000
,
1001
0000
0000
1000
0100
1000
0100
1000
0100
1000
0000
0000
,
1001
0000
0000
1000
0010
1000
0010
1000
0010
1000
0000
0000
,
1001
0000
0000
0001
0010
0001
0010
0001
0010
0001
0000
0000
,
1001
0000
0001
0000
0100
0000
0000
0010
0000
0000
1000
0000
0100
0000
0000
0010
,
0000
0000
0001
0000
1000
0000
0000
0010
0000
0000
1000
0000
0001
0000
0000
0010
,
0000
0000
0100
0000
1000
0000
0000
0001
0000
0000
0100
0000
0001
0000
0000
1000
,
0000
0000
0100
0000
1000
0000
0000
0001
0000
0000
0010
0000
0001
0000
0000
0100
,
0000
0000
0000
0000
0010
1000
0001
0000
,
2002
0000
0000
0000
3003
0000
1000
0100
,
0010
0000
0000
0001
0000
0000
1000
0000
0000
0000
0010
0000
0100
0000
1000
0000
,
0100
0000
0000
0010
0000
0000
1000
0000
0001
0000
0000
0010
0000
0000
0200
0000
,
0000
0000
0300
0000
1000
0001
0100
0001
,
0000
2000
0000
0000
0000
0000
3000
0000
0000
0000
0000
0000
0010
0000
1000
0000
,
0001
0000
0000
0010
0000
0000
0100
0000
0000
0000
1000
0000
0001
0000
1000
0000
,
0010
0000
0000
0100
0000
0000
0002
0000
0000
0000
0000
0000
2000
0000
3003
0000
,
1001
0000
0000
0000
1000
0000
0000
0000
0001
0000
0000
0010
0000
0000
0100
0000
,
1000
0000
0000
0010
0000
0000
0100
0000
0001
0000
0000
1000
0000
0000
0100
1000
,
0100
0000
0000
1000
0000
0000
0001
0000
0100
0000
0000
0010
0000
0000
1000
0000
,
0001
0000
0000
0000
0100
0000
0001
0000
0000
1000
0000
0000
0100
0000
0000
0000
0000
0000
1000
0000
0000
0000
0000
0000
,
0011
0000
0000
0000
0001
0000
0000
0000
1000
0000
0000
0010
0000
0000
0100
0000
,
0001
0000
0000
0010
0000
0000
0100
0000
1000
0000
0000
0001
0000
0000
1000
0000
,
0100
1000
0001
0010
0001
1000
0010
0100
,
0001
0000
1000
0000
0100
0000
0010
0000
0001
0010
0000
0000
1000
0010
0000
0000
,
1001
0000
0000
0000
1000
0000
0010
0000
0100
0000
0000
0000
0000
0000
0001
0010
,
0001
1000
0100
0010
0001
0000
0000
0000
,
1001
0000
0000
0000
0001
0000
0100
0000
0010
0000
0000
0000
0000
0000
1000
0100
,
1000
0000
0010
0000
0100
0000
0001
0000
1000
0010
0000
0000
0001
0010
0000
0000
,
0101
0000
0000
0000
0001
0000
0010
0000
0100
0000
0000
0000
0000
0000
1000
0010
,
1000
0001
0010
0100
1000
0000
0000
0000
,
1001
0000
0000
0000
0001
0000
0100
0000
0001
0000
0000
0000
0000
0000
0001
0100
,
0001
1000
0100
0010
0001
0000
0000
0000
,
1001
1000
0010
0100
0001
0000
0010
0100
,
1000
0000
0000
0001
0000
0000
1000
0000
0010
0000
0000
0100
0000
0000
0001
0000
,
0100
0000
0000
0100
0000
0000
0001
0010
,
0100
0000
0000
0010
0100
0000
0000
0000
,
1000
0001
0100
0001
1000
0000
0100
0010
,
0001
0000
0000
1000
0000
0000
0010
0000
1000
0000
0000
0001
0000
0000
0010
0000
,
0100
0000
0000
0100
0000
0000
1000
0010
,
0100
0000
0001
0100
0001
0000
1000
0100
1000
0000
0001
0100
0001
0000
1000
0000
,
1001
1001
0110
0110
,
0001
0100
1000
0100
0001
0000
1001
0000
,
1000
0100
0001
0100
1000
0000
1001
0000
,
0010
0000
1000
0010
1000
0000
0001
0010
0001
0000
1000
0010
1000
0000
0010
0000
,
1001
0000
0110
0000
1001
0000
0110
0001
,
0100
1000
0100
0001
0100
0000
1001
1000
,
0010
0001
0010
1000
0001
0000
1001
0000
,
0020
0000
0000
0000
0000
0000
0000
0000
0000
0000
0000
0000
0000
0000
0000
0000
0000
0000
0000
0000
0000
0000
0000
0000
0000
0000
0000
0000
0000
0000
0000
0000
0000
0000
0000
0000
0000
0000
0000
0000
0000
0000
0000
0000
0000
0000
0000
0000
0000
0000
0000
0000
0000
0000
0000
0000
0000
0000
0000
0000
0000
0000
0000
0000
0000
0000
0000
0000
0000
0000
0000
0000
0000
0000
0000
0000
0000
0030
0000
0000
0000
0000
0000
0000
0000
0000
0000
0000
0000
0000
0000
0000
0000
0000
0000
0000
0000
0000
0000
0000
0000
0000
0000
0000
0000
0000
0000
0000
0000
0000
0000
0000
0000
0000
0000
0000
0000
0000
0000
0000
1001
0000
0000
0000
0000
0000
0000
0000
0000
0000
0000
0000
0000
0000
0000
0000
0000
0000
0000
0000
0000
0000
0000
0000
1001
0000
0000
0000
0000
0000
0000
0000
0000
0000
0000
0000
0000
0000
0000
0000
0000
0000
0000
0000
0000
0000
0000
0000
0000
0000
0000
0000
0000
0000
0000
0000
0000
0000
0000
0000
0000
0000
0000
0000
0000
0000
0000
0000
0000
0000
0000
0000
,
1000
0010
0100
0001
0010
1000
0010
0001
,
1000
0010
0001
0010
1000
0100
0010
0100
,
1000
0100
0010
0001
1000
0010
0001
0010
,
0100
0001
0010
0100
1000
0001
0100
1000
,
0100
0000
0001
0100
0001
0000
1000
0100
1000
0000
0010
0000
0100
0000
0001
0000
,
0000
0000
1000
0100
1000
0000
0001
0010
0001
0000
1000
0000
0010
0000
0100
0000
,
0000
0000
0001
0100
0001
0000
1000
0010
1000
0000
0001
0000
0100
0000
0001
0000
,
1000
0000
0100
0000
0010
0000
0001
0000
1000
0010
0000
0000
0001
0010
0000
0000
,
1001
0000
0000
0000
;

//--------------- dance-single - forcednature (X-Scale 13) ----------------
#NOTES:
     dance-single:
     forcednature (X-Scale 13):
     Challenge:
     9:
     0,0,0,0,0:
0000
0000
0000
0000
,
0000
0000
0000
0000
,
0000
0000
0000
0000
,
0000
0000
0000
0000
,
1001
0000
0000
0000
1000
0000
0010
0000
0100
0000
0000
0000
0001
0000
0010
0100
,
1000
0010
0100
1000
0100
0001
0010
0100
,
1000
0000
0000
0000
0001
0000
0010
0000
0100
0000
0000
0000
1000
0000
0001
0100
,
0010
0100
0001
0010
0100
0000
1001
0000
,
0110
0000
0001
0100
1000
0100
0010
1000
,
0100
0001
0100
0010
0100
1000
0000
0001
,
0010
1000
0010
0100
1000
0010
0100
0001
,
0100
0010
0001
0010
0100
0001
0000
0000
,
0010
0100
1000
0100
0010
0001
1000
0010
,
0100
0001
0100
1000
0100
0001
0000
0000
,
1001
0000
0100
0010
1001
0000
1000
0100
,
1000
0001
0010
1000
0010
1001
0110
0000
,
0101
0000
0000
1000
0100
0010
0001
0010
0100
1000
0000
1001
,
0000
0000
0001
0100
0001
1000
0010
1000
0001
0100
0000
1001
,
0000
0000
0000
0100
1000
0100
0010
0001
0010
0100
0000
1001
,
0000
0000
0000
1000
0010
0100
0001
0010
0100
1000
0000
0110
,
0000
0000
0001
0000
0101
0000
0000
1001
0000
0000
0100
0000
1100
0000
0000
1001
,
0000
0000
0010
0000
1010
0000
0000
1001
0000
0000
0010
0000
0011
0000
0000
1001
,
0000
0000
0100
0000
0101
0000
0000
1010
0000
0000
1000
0000
1100
0000
0000
0011
,
0000
0000
0001
0000
1001
0000
0000
0110
0000
0000
0001
0000
1010
0000
0000
0001
,
0200
0000
0300
0000
0001
0010
1000
0000
,
2002
0000
0000
0000
3003
0000
1000
0010
,
1000
0000
0000
0100
0000
0000
0001
0000
0000
0000
0100
0000
0010
0000
0001
0000
,
0100
0000
0000
1000
0000
0000
0100
0000
0010
0000
0000
1000
0000
0000
0200
0000
,
0000
0000
0300
0000
0010
0001
0010
1000
,
0000
0020
0000
0000
0000
0000
0000
0000
0030
0000
0000
0000
0001
0000
1000
0000
,
0010
0000
0000
0100
0000
0000
0001
0000
0000
0000
1000
0000
0100
0000
1000
0000
,
0001
0000
0000
0100
0000
0000
0002
0000
0000
0000
0000
0000
2000
0000
3003
0000
,
0110
0000
0000
0000
1000
0000
0000
0000
0001
0000
0000
0010
0000
0000
0100
0000
,
1000
0000
0000
0001
0000
0000
1000
0000
0010
0000
0000
0100
0000
0000
0001
0010
,
0001
0000
0000
1000
0000
0000
0100
0000
1000
0000
0000
0010
0000
0000
0100
0000
,
0001
0000
0000
0000
0010
0000
0001
0000
0000
1000
0000
0000
0100
0000
0000
0000
0000
0000
1001
0000
0000
0000
0000
0000
,
0110
0000
0000
0000
0001
0000
0000
0000
1000
0000
0000
0010
0000
0000
1000
0000
,
0001
0000
0000
0100
0000
0000
0001
0000
1000
0000
0000
0100
0000
0000
0010
0000
,
0001
0000
0010
0000
0100
0000
1000
0000
0001
1000
0010
1000
0001
0100
0001
1000
,
0100
0000
0010
0000
0001
0000
1000
0000
0001
0100
0000
0000
1000
0100
0000
0000
,
1001
0000
0000
0000
1000
0000
0010
0000
1001
0000
0000
0000
0000
0000
0001
0100
,
0001
1000
0100
0010
0001
0010
1000
0010
,
1001
0000
0000
0000
1000
0000
0010
0000
0101
0000
0000
0000
0000
0000
0001
0010
,
0001
0000
0100
0000
1000
0000
0100
0000
0001
0100
0000
0000
1000
0100
0000
0000
,
1001
0000
0000
0000
1000
0000
0010
0000
1100
0000
0000
0000
0000
0000
0100
0010
,
0001
0010
1000
0010
0001
1000
0010
0100
,
1001
0000
0000
0000
0001
0000
0010
0000
1100
0000
0000
0000
0000
0000
1000
0010
,
1000
0000
0100
0000
0010
0000
0001
0000
0200
0000
0000
0000
0000
0300
0000
0000
,
1001
1000
0100
0010
0001
0000
0100
0001
,
0101
0000
0000
0101
0000
0000
0001
0000
0020
0000
0000
1000
0000
0000
0001
0030
,
0010
0000
0000
0020
0030
0000
0100
1000
,
0010
0000
0000
2000
3020
0030
0000
0000
,
1001
0001
0010
1000
0010
0000
0001
1000
,
1100
0000
0000
1100
0000
0000
1000
0000
0020
0000
0000
0001
0000
0000
1000
0030
,
0010
0000
0000
0020
0030
0000
1000
0100
,
0010
0000
0001
0100
0010
0000
1000
0100
0010
0000
0001
0100
0010
0000
1000
0000
,
1001
0000
0000
0000
1000
0000
0002
0000
0100
0000
0000
0000
1000
0003
0001
0000
,
0010
1000
0010
0001
1000
0000
0010
0100
,
1000
0100
0001
0010
1000
0000
0010
0000
,
0001
0000
1000
0010
0100
0000
0001
0010
0100
0000
1000
0010
0100
0000
0001
0000
,
1000
0000
0010
0000
1000
0000
0001
0000
0010
0000
0001
0000
1000
0100
1000
0100
,
1000
0000
0010
0000
0100
0000
0001
0000
1000
0000
0100
0000
0010
0001
0010
0001
,
1000
0010
1000
0010
0100
0001
0100
0001
1000
0001
1000
0001
1000
0100
1000
0200
,
0000
0000
0000
0000
0000
0000
0000
0000
0000
0300
1100
0000
0011
0000
0000
0000
,
0101
0000
1000
0000
0010
0000
1000
0000
0001
0010
0100
0000
1000
0000
0001
1000
,
0010
0000
0100
0000
0001
0100
0010
0000
1000
0100
0010
0000
0100
0000
0010
0001
,
1000
0000
0010
0000
1000
0000
0001
0000
0100
0010
1000
0000
0001
0000
0010
0100
,
1000
0000
0001
0000
1000
0100
0010
0000
0001
1000
0010
0000
1000
0000
0001
0100
,
0010
0000
1000
0100
0010
0000
0100
1000
0001
0010
0100
0000
1001
0000
1000
0010
,
1000
0000
0001
0100
0001
0000
1000
0100
1000
0001
0010
0000
1001
0000
0001
0100
,
0001
0000
1000
0010
1000
0000
0001
0100
0010
1000
0010
0000
1001
0000
1000
0100
,
1000
0000
0001
0000
0010
0000
0001
0000
1000
0100
0000
0000
0001
0100
0000
0000
,
1001
0000
0000
0000
;

//--------------- dance-double - forcednature (X-Scale 6) ----------------
#NOTES:
     dance-double:
     forcednature (X-Scale 6):
     Easy:
     4:
     0,0,0,0,0:
00000000
00000000
00000000
00000000
,
00000000
00000000
00000000
00000000
,
00000000
00000000
00000000
00000000
,
00000000
00000000
00000000
00000000
,
00001000
00010000
01000000
00100000
,
00010000
00001000
01000000
00000000
,
00001000
00010000
00000100
00000010
,
00001000
00010000
00000100
00000000
,
00001000
00010000
00000100
00001000
,
00010000
01000000
00001000
00000000
,
00010000
00001000
00000100
01000000
,
00010000
00001000
00010000
00000000
,
00100000
00010000
00001000
00000010
,
00010000
00001000
00000010
00000000
,
00000010
00001000
00010000
00100000
,
00001000
00010000
00100000
00000000
,
00010000
01000000
00010000
01000000
,
00001000
00000100
00001000
00000100
,
00010000
00100000
00010000
00100000
,
00001000
00000010
00001000
00000010
,
00000100
00000001
00000100
00000010
,
00000100
00001000
00000100
00010000
,
01000000
00001000
01000000
00010000
,
01000000
00100000
01000000
10000000
,
10010000
00000000
00100000
00100000
,
10010000
00000000
00000000
00000000
,
01000000
00010000
00001000
00000100
,
00000010
00001000
00010000
00100000
,
00000000
00000000
00001000
00010000
,
00011000
00000000
00000000
00000000
,
00000010
00000001
00000100
00001000
,
00010000
01000000
10000000
00000000
,
10010000
00000000
01000000
00010000
,
00001000
00010000
00001000
00000100
,
00001000
00010000
00100000
00010000
,
00001000
00000010
00001000
00010000
,
00001000
00000000
00010000
01000000
,
00010000
00001000
00000100
00000000
,
00011000
00000000
00011000
00000000
,
00010000
00000000
00010000
00000000
00002000
00003000
00002000
00003000
,
00010000
00000000
01000000
00000000
,
00100000
00010000
00001000
01000000
,
00100000
00000000
00001000
00000000
,
00000100
00000000
00000010
00000000
00002000
00003000
00002000
00003000
,
00000100
00000000
00010000
00000000
,
00001000
00100000
01000000
00010000
,
00100000
00000000
00001000
00000000
,
00010000
00000010
00000100
00000000
,
00000001
00000010
00000100
00010000
,
00001000
00001000
01000000
01000000
,
00010000
00000000
00010000
00000000
,
10000000
00000000
10000000
00000000
,
01000000
10000000
00010000
00100000
,
01000000
01000000
00001000
00010000
,
00000100
00000000
00000100
00000000
,
00000010
00000001
00000010
00000001
,
00001000
00000000
00000101
00000000
,
00000100
00000010
00010000
00000000
,
00000100
00000010
00010000
00000000
,
00000100
00010000
00001000
01000000
,
00010000
00000000
00110000
00000000
,
10000000
00100000
01000000
00000000
,
10000000
00100000
01000000
00010000
,
00000000
00000000
00000000
00000000
00000000
00010000
00001000
00000000
,
00011000
00010000
01010000
00100000
,
11000000
00100000
00011000
00000010
,
00000101
00000010
00001100
00010000
,
01100000
10000000
01010000
00001000
,
00010010
00001000
00010010
00000010
,
00000011
00000100
00000011
00000100
,
00001100
00010000
00001100
00000100
,
00010000
00000000
01000000
00000000
00002000
00003000
00002000
00003000
,
00010000
00000000
00000000
00000000
;

//--------------- dance-double - forcednature (X-Scale 10) ----------------
#NOTES:
     dance-double:
     forcednature (X-Scale 10):
     Medium:
     7:
     0,0,0,0,0:
00000000
00000000
00000000
00000000
,
00000000
00000000
00000000
00000000
,
00000000
00000000
00000000
00000000
,
00000000
00000000
00000000
00000000
,
00011000
00000000
01000000
00000000
00010000
00000000
00000000
10000000
,
01000000
10000000
00100000
10000000
00010000
00000000
00000000
00000000
,
00011000
00000000
00000100
00000000
00001000
00000000
00000000
00000001
,
00000100
00000001
00000010
00000001
00001000
00000000
00000000
00000000
,
00000010
00010000
00001000
00100000
,
00010000
00000000
10000000
01000000
10000000
01000000
00000000
00000000
,
10000000
00100000
01000000
00001000
,
00010000
00000000
00000100
00001000
00000001
00000010
00000000
00000000
,
00000100
00010000
00001000
00100000
,
01000000
00000000
10000000
00100000
01000000
00001000
00000000
00000000
,
00011000
01000000
00011000
00000010
,
00001000
00000000
00000001
00000100
00000001
00001000
00000000
00000000
,
00001001
00000000
00000000
00000010
00000000
00000000
00010000
00000000
00000000
00001000
00000000
01000000
,
00000000
00000000
00000000
00010000
00000000
00000000
00100000
00000000
00000000
01000000
00000000
10000000
,
00000000
00000000
00000000
00010000
00000000
00000000
01000000
00000000
00000000
00001000
00000000
00010000
,
00000000
00000000
00000000
00000100
00000000
00000000
00001000
00000000
00000000
00000001
00000000
00000100
,
00000000
00000000
00000000
00000000
00000010
00000000
00000000
00010000
00000000
00000000
00000000
00000000
00001000
00000000
00000000
00100000
,
00000000
00000000
00000000
00000000
01000000
00000000
00000000
10000000
00000000
00000000
00000000
00000000
00010000
00000000
00000000
01000000
,
00000000
00000000
00000000
00000000
00001000
00000000
00000000
00010000
00000000
00000000
00000000
00000000
00000100
00000000
00000000
00001000
,
00000000
00000000
00000000
00000000
00000001
00000000
00000000
00000100
00000000
00000000
00000000
00000000
00000010
00000000
00000000
00010000
,
00000000
00000000
00000000
00000000
00001000
00010000
01000000
00000000
,
02020000
00000000
00000000
03030000
00000000
00000000
10000000
00100000
,
10000000
00000000
00000000
00010000
00000000
00000000
00100000
00000000
00000000
00000000
00001000
00000000
00010000
00000000
00000010
00000000
,
00001000
00000000
00000000
00000001
00000000
00000000
00000100
00000000
00000010
00000000
00000000
00010000
00000000
00000000
00002000
00000000
,
00000000
00003000
00000000
00000000
00100000
01000000
10000000
00010000
,
00000000
02000000
00000000
00000000
00000000
00000000
03000000
00000000
00000000
00000000
00000000
00000000
00001000
00000000
00010000
00000000
,
00000100
00000000
00000000
00001000
00000000
00000000
00000001
00000000
00000000
00000000
00000100
00000000
00000010
00000000
00010000
00000000
,
00001000
00000000
00000000
00100000
00000000
00000000
01000000
00000000
00000000
00000000
00000000
00000000
10000000
00000000
00000000
00000000
,
10010000
00000000
00000000
00000000
00000000
00000000
00000000
00000000
01000000
00000000
00000000
00001000
00000000
00000000
00010000
00000000
,
00000100
00000000
00000000
00001000
00000000
00000000
00000001
00000000
00000100
00000000
00000000
00000010
00000000
00000000
00000000
00000000
,
00010000
00000000
00000000
00001000
00000000
00000000
00100000
00000000
00010000
00000000
00000000
01000000
00000000
00000000
00000000
00000000
,
00100000
10000000
00010000
01000000
00100000
00000000
01000000
00000000
,
10010000
00000000
00000000
00000000
00000000
00000000
00000000
00000000
10000000
00000000
00000000
01000000
00000000
00000000
10000000
00000000
,
00010000
00000000
00000000
01000000
00000000
00000000
00001000
00000000
00010000
00000000
00000000
00000100
00000000
00000000
00001000
00000000
,
00000001
00000100
00000010
00010000
,
00001000
00000000
00010000
00000000
00001000
00000000
00010000
00000000
00001000
00010000
00000000
00000000
00001000
00010000
00000000
00000000
,
00011000
00000000
01000000
00001000
00010000
00000000
00000000
00000100
,
00001000
00000001
00000010
00000100
00001000
00000000
00000000
00000000
,
00011000
00000000
00000100
00001000
00000010
00000000
00000000
00000100
,
00000001
00000000
00000010
00000000
00000100
00000000
00010000
00000000
00001000
00010000
00000000
00000000
00001000
00010000
00000000
00000000
,
00011000
00000000
00001000
01000000
00010000
00000000
00000000
10000000
,
01000000
00100000
00010000
01000000
00100000
00000000
00000000
00000000
,
10010000
00000000
10000000
00100000
10000000
00000000
00000000
00010000
,
01000000
00001000
00010000
00000100
00001000
00000000
00000000
00000000
,
00000001
00000000
00000001
00000000
00000001
00000000
00000100
00000010
,
00010000
00000000
00000000
00001000
00000000
00000000
01000000
00000000
00010000
00000000
00000000
10000000
00000000
00000000
01000000
00000000
,
00100000
00000000
00000000
00100000
00000000
00000000
00000000
00010000
,
01000000
00000000
00000000
00010000
01000000
00000000
00000000
00000000
,
00010000
00000000
00100000
00000000
00001000
00000000
00010000
00000010
,
00001000
00000000
00000000
00000001
00000000
00000000
00000100
00000000
00000010
00000000
00000000
00010000
00000000
00000000
00001000
00000000
,
00100000
00000000
00000000
00100000
00000000
00000000
00000000
01000000
,
10000000
10010000
01100000
00011000
,
00000110
00000000
00000000
00002002
00000000
00000000
00003003
00000000
,
00000001
00000100
00000001
00000100
00000001
00000000
00000000
00000000
,
00010000
00001000
00010000
00001000
00010000
00000000
00000000
00000000
,
00000000
01001000
10010000
01001000
,
00110000
00000000
00000000
22000000
00000000
00000000
33000000
00000000
,
10000000
00100000
10000000
00100000
10000000
00000000
00000000
00000000
,
00010000
01000000
00010000
01000000
00010000
00000000
00000000
00000000
,
00000000
00000000
00000000
00000000
00000000
00011000
00011000
00000000
,
00011000
00000000
00000100
00000000
00001000
00000001
00001000
00000000
,
00000010
00010000
00000010
00000000
00010000
00001000
00010000
00000000
,
00011000
00000000
01000000
00000000
00010000
10000000
00010000
00000000
,
10000000
01000000
10000000
00000000
00010000
00100000
00010000
00000000
,
00011000
01000000
00000100
00011000
,
00101000
00010000
00000010
00011000
,
01010000
00100000
10000000
01010000
,
00001000
00000000
00000000
00000000
00010000
00000000
00000000
00000000
00001000
00010000
00000000
00000000
00001000
00010000
00000000
00000000
,
00011000
00000000
00000000
00000000
;

//--------------- dance-double - forcednature (X-Scale 12) ----------------
#NOTES:
     dance-double:
     forcednature (X-Scale 12):
     Hard:
     8:
     0,0,0,0,0:
00000000
00000000
00000000
00000000
,
00000000
00000000
00000000
00000000
,
00000000
00000000
00000000
00000000
,
00000000
00000000
00000000
00000000
,
00011000
00000000
00000000
00000000
00001000
00000000
01000000
00000000
00010000
00000000
00000000
00000000
00000000
00000000
10000000
01000000
,
10000000
00010000
01000000
00001000
00010000
00000100
00001000
00000001
,
00000100
00000000
00000000
00000000
00000010
00000000
00001000
00000000
00000001
00000000
00000000
00000000
00000000
00000000
00000100
00000001
,
00000100
00000010
00010000
00001000
00100000
00000000
10010000
00000000
,
01100000
00000000
10000000
01000000
00100000
01000000
10000000
00010000
,
01000000
00001000
00010000
00000010
00001000
00000001
00000000
00000100
,
00000010
00010000
00001000
00100000
01000000
10000000
00010000
01000000
,
00001000
00010000
00000010
00001000
00000001
00000010
00000000
00000000
,
00000100
00010000
00001000
01000000
00010000
00100000
00001000
00010000
,
00000010
00001000
00000001
00000010
00000100
00010000
00000000
00000000
,
00011000
00000000
01000000
00001000
00110000
00000000
01000000
10000000
,
00010000
00100000
01000000
00010000
00100000
00101000
00010100
00000000
,
00000101
00000000
00000000
00000001
00000100
00000001
00001000
00000100
00001000
00000001
00000000
00001001
,
00000000
00000000
00000000
00010000
01000000
00010000
10000000
01000000
10000000
00010000
00000000
10010000
,
00000000
00000000
00000000
10000000
01000000
00100000
01000000
00100000
00010000
01000000
00000000
01010000
,
00000000
00000000
00000000
00010000
01000000
00001000
00010000
00000100
00001000
00000001
00000000
00001001
,
00000000
00000000
00000010
00000000
00001000
00000000
00000000
00011000
00000000
00000000
01000000
00000000
00010000
00000000
00000000
10100000
,
00000000
00000000
01000000
00000000
00100000
00000000
00000000
10010000
00000000
00000000
01000000
00000000
00001000
00000000
00000000
00011000
,
00000000
00000000
00010000
00000000
00000100
00000000
00000000
00000110
00000000
00000000
00000001
00000000
00001000
00000000
00000000
00001010
,
00000000
00000000
00000001
00000000
00000010
00000000
00000000
00001100
00000000
00000000
00100000
00000000
00010000
00000000
00000000
01100000
,
00000000
00000000
00000000
00000000
10000000
01000000
00010000
01000000
,
10000000
00000000
00000000
00000000
00000000
00000000
00010000
01000000
,
00001000
00000000
00000000
00010000
00000000
00000000
00000010
00000000
00000000
00000000
00000100
00000000
00000001
00000000
00000010
00000000
,
00000100
00000000
00000000
00010000
00000000
00000000
00001000
00000000
01000000
00000000
00000000
00010000
00000000
00000000
00100000
00000000
,
00000000
00000000
00000000
00000000
01000000
10000000
00010000
00100000
,
00000000
01000000
00000000
00000000
00000000
00000000
00000000
00000000
00000000
00000000
00000000
00000000
00100000
00000000
00001000
00000000
,
00010000
00000000
00000000
00000010
00000000
00000000
00001000
00000000
00000000
00000000
00000001
00000000
00000010
00000000
00000100
00000000
,
00010000
00000000
00000000
00001000
00000000
00000000
01000000
00000000
00000000
00000000
00000000
00000000
00010000
00000000
00000000
00000000
,
10010000
00000000
00000000
00000000
01000000
00000000
00000000
00000000
00100000
00000000
00000000
00001000
00000000
00000000
00010000
00000000
,
00000010
00000000
00000000
00001000
00000000
00000000
00000001
00000000
00000100
00000000
00000000
00000010
00000000
00000000
00010000
00001000
,
00010000
00000000
00000000
00001000
00000000
00000000
01000000
00000000
00010000
00000000
00000000
10000000
00000000
00000000
01000000
00000000
,
00100000
00000000
00000000
00000000
00001000
00000000
00010000
00000000
00000000
00000010
00000000
00000000
00001000
00000000
00000000
00000000
00000000
00000000
00000101
00000000
00000000
00000000
00000000
00000000
,
00001010
00000000
00000000
00000000
00000000
00000000
00000000
00000000
00000001
00000000
00000000
00000010
00000000
00000000
00000100
00000000
,
00010000
00000000
00000000
00001000
00000000
00000000
01000000
00000000
00010000
00000000
00000000
10000000
00000000
00000000
01000000
00000000
,
00100000
00010000
10000000
01000000
00100000
00010000
01000000
00001000
,
00010000
00000000
00000010
00000000
00001000
00000000
00000001
00000000
00000100
00000010
00000000
00000000
00010000
00001000
00000000
00000000
,
01100000
00000000
10000000
01000000
00010000
00000000
00000000
01000000
,
10000000
00100000
01000000
00001000
00010000
00000010
00000100
00000001
,
00000010
00000000
00000100
00010000
00001000
00000000
00000000
01000000
,
00010000
00000000
10000000
00000000
01000000
00000000
00100000
00000000
01000000
00100000
00000000
00000000
00010000
00001000
00000000
00000000
,
00000110
00000000
00000001
00000100
00001000
00000000
00000000
00010000
,
00001000
00100000
10000000
01000000
00100000
00010000
01000000
00001000
,
00010000
00000000
00000010
00001000
00000001
00000000
00000000
00000100
,
00000010
00010000
00001000
01000000
00010000
00000000
00000000
00000000
,
10000000
01000000
00100000
00010000
01000000
00000000
00001000
00010000
,
00000100
00000000
00000000
00001000
00000000
00000000
00000100
00000000
00000010
00000000
00000000
00000001
00000000
00000000
00000010
00000000
,
00000100
00000000
00000000
00000200
00000300
00000000
00010000
00000100
,
00001000
00000000
00000000
00000200
00002300
00003000
00000000
00000000
,
00010000
01000000
00010000
00001000
00100000
00000000
00010000
10000000
,
00100000
00000000
00000000
01000000
00000000
00000000
00001000
00000000
00100000
00000000
00000000
01000000
00000000
00000000
10000000
00000000
,
00010000
00000000
00000000
00020000
00030000
00000000
01000000
00001000
,
00010000
00000000
00000100
00010000
00000100
00000000
01000000
00001000
01000000
00000000
00000100
00010000
00000100
00000000
00010000
00000000
,
00011000
01010000
00011000
01010000
,
10000000
00100000
00010000
00100000
10000000
00000000
01010000
00000000
,
00001000
00010000
00000100
00001000
00000010
00000000
00000110
00000000
,
00000001
00000000
00000010
00000100
00000010
00000000
00000001
00001000
00000001
00000000
00000010
00000100
00000010
00000000
00000100
00000000
,
00001000
00011000
01010000
00110000
,
10000000
01000000
00010000
01000000
10000000
00000000
01010000
00000000
,
00010000
01000000
00001000
00010000
00000100
00001000
00000001
00000200
,
00000000
00000000
00000000
00000000
00000000
00000000
00000000
00000000
00000000
00000300
00000110
00000000
00001001
00000000
00000000
00000000
,
00001000
00000000
00000010
00000000
00010000
00000000
00001000
00000000
00100000
00010000
00100000
00000000
00010000
00000000
10000000
01000000
,
10000000
00000000
00100000
00000000
01000000
00010000
01000000
00000000
00010000
00100000
00010000
00000000
00100000
00000000
00001000
00010000
,
00001000
00000000
00010000
00000000
00000010
00000000
00001000
00000000
00000001
00000100
00000001
00000000
00001000
00000000
00000100
00001000
,
00000100
00000000
00010000
00000000
00001000
00010000
00001000
00000000
01000000
00010000
01000000
00000000
00100000
00000000
10000000
00010000
,
10000000
00000000
01000000
10000000
01000000
00000000
00100000
00010000
00100000
00010000
00100000
00000000
00010000
00000000
01000000
00000000
,
00001000
00000000
00010000
00000100
00010000
00000000
00000100
00001000
00000100
00001000
00000100
00000000
00000010
00000000
00000001
00000100
,
00000001
00000000
00000100
00000010
00000100
00000000
00000010
00001000
00000010
00001000
00000010
00000000
00001000
00000000
00000100
00010000
,
00000100
00000000
00010000
00000000
00001000
00000000
01000000
00000000
00100000
01000000
00000000
00000000
00001000
00010000
00000000
00000000
,
00000110
00000000
00000000
00000000
;

//--------------- dance-double - forcednature (X-Scale 13) ----------------
#NOTES:
     dance-double:
     forcednature (X-Scale 13):
     Challenge:
     9:
     0,0,0,0,0:
00000000
00000000
00000000
00000000
,
00000000
00000000
00000000
00000000
,
00000000
00000000
00000000
00000000
,
00000000
00000000
00000000
00000000
,
00011000
00000000
00000000
00000000
00001000
00000000
01000000
00000000
00010000
00000000
00000000
00000000
00100000
00000000
01000000
10000000
,
00010000
01000000
00001000
00010000
01000000
00100000
00001000
00000010
,
00000001
00000000
00000000
00000000
00000100
00000000
00000001
00000000
00001000
00000000
00000000
00000000
00000010
00000000
00010000
00001000
,
00000100
00000000
00010000
00000000
01000000
00000000
00100000
00000000
00010000
00000000
00000000
00000000
00200000
00000000
00000000
00300000
,
10010000
00000000
10000000
00010000
00100000
01000000
00100000
00001000
,
00010000
00000010
00001000
00000010
00000001
00000010
00000000
00000100
,
00000001
00000010
00001000
00100000
01000000
00010000
00000100
00000010
,
00000001
00001000
00000100
01000000
00010000
00100000
00000000
00000000
,
01000000
10000000
01000000
00010000
00000100
00001000
01000000
00100000
,
00001000
00000100
00000001
00000010
00001000
00010000
00000000
00000000
,
01010000
00000000
10000000
00100000
00110000
00000000
00001000
00000100
,
00000001
00000010
00001000
00010000
00000100
00000110
00001001
00000000
,
00011000
00000000
00000000
00001000
00010000
01000000
00100000
00001000
00000010
00000100
00000000
00000011
,
00000000
00000000
00000010
00001000
00010000
00100000
01000000
00001000
00010000
00000100
00000000
00011000
,
00000000
00000000
00000000
01000000
00001000
00010000
00100000
00010000
00000010
00000100
00000000
00001100
,
00000000
00000000
00000000
00000001
00000100
00001000
00010000
00000010
00001000
00100000
00000000
10010000
,
00000000
00000000
00020000
00000000
00100000
00000000
00000000
00001000
00030000
00000000
00000200
00000000
00000001
00000000
00000000
00001000
,
00000300
00000000
02000000
00000000
10000000
00000000
00000000
00010000
03000000
00000000
00002000
00000000
00000010
00000000
00000000
00010000
,
00003000
00000000
00200000
00000000
00010000
00000000
00000000
10000000
00300000
00000000
00002000
00000000
00010000
00000000
00000000
00000010
,
00003000
00000000
00020000
00000000
01000000
00000000
00000000
00001000
00030000
00000000
00002000
00000000
00000100
00000000
00000000
00020000
,
00033000
00000000
00000000
00000000
00001000
00010000
01000000
00000000
,
20020000
00000000
00000000
30030000
00000000
00000000
10000000
00100000
,
00010000
00000000
00000000
00001000
00000000
00000000
00000010
00000000
00000000
00000000
00000100
00000000
00010000
00000000
00001000
00000000
,
00010000
00000000
00000000
01000000
00000000
00000000
10000000
00000000
00100000
00000000
00000000
01000000
00000000
00000000
00002000
00000000
,
00000000
00000000
00003000
00000000
00010000
00000100
00001000
00000001
,
00000000
00000020
00000000
00000000
00000030
00000000
00000000
00000000
00000000
00000000
00000000
00000000
00000100
00000000
00001000
00000000
,
01000000
00000000
00000000
00100000
00000000
00000000
00001000
00000000
00000000
00000000
00000100
00000000
00000001
00000000
00000010
00000000
,
00001000
00000000
00000000
00010000
00000000
00000000
00200000
00000000
00000000
00000000
00000000
00000000
02000000
00000000
00000000
03300000
,
01100000
00000000
00000000
00000000
10000000
00000000
00000000
00000000
00010000
00000000
00000000
01000000
00000000
00000000
00001000
00000000
,
00010000
00000000
00000000
00100000
00000000
00000000
01000000
00000000
00001000
00000000
00000000
00000100
00000000
00000000
00000001
00000010
,
00000001
00000000
00000000
00001000
00000000
00000000
00000100
00000000
00001000
00000000
00000000
01000000
00000000
00000000
00010000
00000000
,
00001000
00000000
00000000
00000000
01000000
00000000
00010000
00000000
00000000
10000000
00000000
00000000
00200000
00000000
00000000
00000000
00000000
00000000
02000000
00000000
00000000
03300000
00000000
00000000
,
10010000
00000000
00000000
00000000
00100000
00000000
00000000
00000000
10000000
00000000
00000000
00010000
00000000
00000000
01000000
00000000
,
00001000
00000000
00000000
00000100
00000000
00000000
00000010
00000000
00010000
00000000
00000000
00001000
00000000
00000000
00100000
00000000
,
00010000
00000000
00000010
00000000
00000100
00000000
00010000
00000000
00001000
01000000
00010000
00100000
01000000
10000000
00010000
01000000
,
00001000
00000000
00010000
00000000
00001000
00000000
00010000
00000000
00000100
00001000
00000000
00000000
01000000
00010000
00000000
00000000
,
00011000
00000000
00000000
00000000
01000000
00000000
00010000
00000000
00101000
00000000
00000000
00000000
00000000
00000000
00001000
00010000
,
00000010
00001000
00000010
00000001
00000010
00010000
00001000
01000000
,
01100000
00000000
00000000
00000000
10000000
00000000
01000000
00000000
01010000
00000000
00000000
00000000
00000000
00000000
00100000
00001000
,
00010000
00000000
01000000
00000000
00010000
00000000
00001000
00000000
00010000
01000000
00000000
00000000
00001000
00000100
00000000
00000000
,
00011000
00000000
00000000
00000000
00000001
00000000
00000100
00000000
00001100
00000000
00000000
00000000
00000000
00000000
00010000
00001000
,
00100000
00010000
00100000
10000000
00100000
00001000
00000010
00000100
,
00010100
00000000
00000000
00000000
00000010
00000000
00000001
00000000
00001010
00000000
00000000
00000000
00000000
00000000
00000010
00010000
,
00000100
00000000
00001000
00000000
00000100
00000000
00000001
00000000
00000200
00000000
00000000
00000000
00000000
00000000
00000000
00000300
,
00010100
00010000
01000000
10000000
00010000
00000000
01000000
00100000
,
00001000
00000000
00000000
00000010
00000000
00000000
00010000
00000000
00001000
00000000
00000000
00100000
00000000
00000000
01000000
00000000
,
00010000
00000000
00000000
00020000
00030000
00000000
00000000
01000000
,
00010000
00000000
00000000
02000000
03020000
00030000
00000000
00000000
,
00001000
00010000
00000010
00000100
00001000
00000000
01000000
00001000
,
00100000
00000000
00000000
00001000
00000000
00000000
00000010
00000000
00000001
00000000
00000000
00000100
00000000
00000000
00001000
00000000
,
00010000
00000000
00000000
00020000
00030000
00000000
00000000
00000100
,
00001000
00000000
00000001
00000100
00000010
00000000
00001000
00000100
00000010
00000000
00000001
00000100
00000010
00000000
00001000
00000000
,
00011000
00000000
00000000
00000000
00001000
00000000
00020000
00000000
01000000
00000000
00000000
00000000
10000000
00030000
00010000
00000000
,
01000000
00100000
00001000
00000010
00010000
00000000
00000100
00000010
,
00010000
00100000
00001000
01000000
00010000
00000000
00100000
00000000
,
00001000
00000000
00010000
00000010
00000100
00000000
00000010
00010000
00000100
00000000
00010000
00000010
00000100
00000000
00000001
00000000
,
00001100
00000000
00000000
00000000
00000100
00000000
00020000
00000000
01000000
00000000
00000000
00000000
00001000
00030000
00010000
00000000
,
01000000
10000000
00100000
00010000
00000010
00000000
00000100
00001000
,
00010000
00001000
00100000
00010000
10000000
00100000
01000000
00001000
00010000
00000100
00000010
00000001
00000100
00000001
00001000
00000010
,
00020000
00000000
00000000
00000000
00030000
00011000
01010000
00000000
,
10100000
00000000
10000000
00000000
00100000
00000000
01000000
00000000
00001000
00010000
00100000
00000000
01000000
00000000
00001000
00010000
,
00000100
00000000
00000010
00000000
00001000
00000010
00000001
00000000
00000100
00001000
00010000
00000000
00011000
00000000
00001000
00010000
,
01000000
00000000
00100000
00000000
10000000
00000000
00100000
00000000
00010000
01000000
00001000
00000000
00010000
00000000
00001000
00000100
,
00000001
00000100
00001000
01000000
00010000
00100000
00001000
00000010
,
00000001
00000000
00001000
00000100
00010000
00000000
01000000
00100000
00010000
01000000
10000000
00000000
01000000
00000000
00010000
00000100
,
00000010
00000000
00000001
00000010
00001000
00000000
00000100
00010000
00001000
00100000
01000000
00000000
00010000
00000000
01000000
10000000
,
01000000
00000000
00100000
00001000
01000000
00000000
00001000
00010000
00000100
00000010
00010000
00000000
00100000
00000000
00001000
00010000
,
01000000
00000000
00100000
00000000
00001000
00000000
00000010
00000000
00000100
00001000
00000000
00000000
01000000
00010000
00000000
00000000
,
00011000
00000000
00000000
00000000
;
