#TITLE:GAMBOL (dfk SLC rmx);
#SUBTITLE:;
#ARTIST:D.F.K. Soundsystem;
#TITLETRANSLIT:;
#SUBTITLETRANSLIT:;
#ARTISTTRANSLIT:;
#GENRE:;
#CREDIT:;
#MUSIC:GAMBOL (dfk SLC rmx).ogg;
#BANNER:GAMBOL (dfk SLC rmx)-banner.png;
#BACKGROUND:GAMBOL (dfk SLC rmx)-background.png;
#CDTITLE:;
#SAMPLESTART:21.667;
#SAMPLELENGTH:16.081;
#SELECTABLE:YES;
#OFFSET:-0.000;
#BPMS:0.000=177.000;
#STOPS:;
#BGCHANGES:;
#FGCHANGES:;

//--------------- dance-single - forcednature ----------------
#NOTES:
     dance-single:
     forcednature:
     Beginner:
     4:
     0,0,0,0,0:
0000
0000
0000
0000
,
0000
0000
0000
0000
,
0000
0000
0000
0000
,
0000
0000
0000
0000
,
0000
0000
0000
0000
,
0000
0000
0000
0000
,
0000
0000
0000
0000
,
0000
0000
0000
0000
,
1000
1000
1000
0000
,
0001
0000
0100
0000
,
0010
0010
0010
0000
,
1000
0000
0100
0000
,
0010
0010
0010
0000
,
0001
0000
1000
0000
,
0010
0010
0010
0000
,
0100
0000
0001
0000
,
1000
1000
1000
0000
,
0001
0100
0010
0000
,
1000
0001
0010
0000
,
0100
1000
0001
0000
,
1000
0010
0100
0000
,
0001
0100
0010
0000
,
1000
0100
0010
0000
,
0001
1000
0010
0000
,
1000
0100
0001
0000
,
0100
1000
0010
0000
,
0100
0001
0010
0000
,
0100
1000
0010
0000
,
0100
0100
0001
0000
,
1000
1000
0100
0000
,
0001
0001
0010
0000
,
0010
0010
1000
0000
,
1001
0000
0010
0000
,
0100
0000
1000
0001
,
0000
0000
1000
0000
,
0010
0000
0100
0001
,
0000
0000
0010
0000
,
0100
0000
1000
0001
,
0010
0100
0010
0100
,
0010
0000
0000
0000
,
0100
0000
1000
0000
,
0001
0010
0100
1000
,
0010
0000
0100
0000
,
0001
1000
0100
1000
,
0001
0000
0100
0001
,
0010
0000
0100
1000
,
0001
0000
1000
0010
,
0100
0000
0001
0100
,
0010
1000
0010
0000
,
0100
0001
0100
0000
,
0001
0010
0001
0000
,
1000
0100
1000
0000
,
0001
0100
1000
0000
,
0001
0010
1000
0000
,
0100
0001
0010
0000
,
0100
1000
0010
0000
,
2002
0000
0000
0000
,
0000
0000
0000
3003
,
0202
0000
0000
0303
,
2020
0000
0000
3030
,
2200
0000
0000
0000
,
0000
0000
0000
3300
,
0022
0000
0000
0033
,
0202
0000
0000
0303
,
0100
0000
0001
0000
,
1000
0000
0100
0010
,
0001
0000
1000
0000
,
0100
0000
1000
0001
,
0100
0000
0010
0000
,
1000
0000
0100
0010
,
0001
0000
1000
0000
,
0010
0100
0010
0000
,
1000
0100
1000
0100
,
0010
0001
0010
0001
,
1000
0010
0100
0001
,
1000
0001
0100
0010
,
1000
0100
0010
0001
,
1000
0010
0100
0001
,
0010
0100
0010
0100
,
1000
0001
1000
0001
,
0200
0000
0000
0000
,
0000
0000
0000
0000
,
0300
0000
0000
0000
;

//--------------- dance-single - forcednature ----------------
#NOTES:
     dance-single:
     forcednature:
     Easy:
     5:
     0,0,0,0,0:
0000
0000
0000
0000
,
0000
0000
0000
0000
,
0000
0000
0000
0000
,
0000
0000
0000
0000
,
0000
0000
0000
0000
,
0000
0000
0000
0000
,
0000
0000
0000
0000
,
0000
0000
0000
0000
,
1000
1010
0001
0011
,
0100
1001
1000
0010
,
0100
0011
0001
1000
,
0010
0101
0010
1000
,
0100
1001
0010
0011
,
0001
1010
0100
0001
,
0010
1100
0010
1000
,
0001
0101
1000
0010
,
1000
1000
0001
0010
,
0100
0100
1000
0001
,
1000
0010
1000
0001
,
0010
0100
0110
1001
,
0010
1000
0001
0100
,
0110
0000
0001
1000
,
0110
0000
1000
0001
,
0010
0100
1000
0000
,
0001
1000
0010
0100
,
0001
0010
0100
0000
,
1000
0010
1000
0001
,
0010
0100
1100
0011
,
0001
1000
0000
0010
,
0100
1000
0100
0001
,
1000
0010
0100
0001
,
0010
0100
1001
0000
,
0120
0000
0000
0000
,
0000
0000
0000
0000
,
2000
0000
0030
0000
,
0002
0000
3000
0000
,
0020
0000
0003
0000
,
0000
0000
0000
0000
,
0200
0000
0030
0000
,
2000
0000
0300
0000
,
3001
0101
1000
1010
,
0001
0011
1000
0100
,
0010
1001
0100
1010
,
0100
0011
1000
0001
,
0010
1100
0010
0101
,
1000
0101
0010
0001
,
0100
1001
0010
1001
,
0100
1001
0010
1000
,
0001
1010
0100
1010
,
0001
1010
0100
1000
,
0010
0101
1000
0011
,
1000
0101
0010
1000
,
0001
0110
1000
0110
,
0001
0110
1000
0010
,
0100
1001
0010
1001
,
0100
1001
0010
0001
,
2001
0000
0000
0000
,
0000
0000
0000
0000
,
0200
0000
3000
0000
,
0020
0000
0300
0000
,
0002
0000
0030
0000
,
0000
0000
0000
0000
,
0200
0000
0003
0000
,
0020
0000
0300
0000
,
1030
0000
0000
0001
0000
0000
0010
0000
,
0000
0100
0000
0000
1000
0000
0001
0000
,
1000
0000
0000
0010
0000
0000
0100
0000
,
0000
0001
0000
0000
0010
0000
0100
0000
,
1000
0000
0000
0010
0000
0000
1000
0000
,
0000
0001
0000
0000
0010
0000
0100
0000
,
1000
0000
0000
0010
0000
0000
0100
0000
,
0000
0001
0000
0000
1000
0000
0001
0000
,
0010
0010
0100
0100
,
1000
0001
0100
0010
,
0100
0100
0010
0010
,
1000
0001
0010
0100
,
1000
0001
1000
0001
,
0010
0100
1000
0001
,
0100
0001
1000
0010
,
1010
0100
0001
0010
,
2001
0000
0000
0000
,
0000
0000
0000
0000
,
3000
0000
0000
0000
;

//--------------- dance-single - forcednature ----------------
#NOTES:
     dance-single:
     forcednature:
     Medium:
     7:
     0,0,0,0,0:
0000
0000
0000
0000
,
0000
0000
0000
0000
,
0000
0000
0000
0000
,
0000
0000
0000
0000
,
0000
0000
0000
0000
,
0000
0000
0000
0000
,
0000
0000
0000
0000
,
0000
0000
0000
0000
,
1000
0000
0000
0010
0000
0000
1000
0000
0001
0000
0100
0000
0010
0000
0000
0000
,
1000
0100
0010
0000
0100
1000
0001
0000
,
0010
0000
0000
0001
0000
0000
1000
0000
0010
0000
0100
0000
0000
0100
0000
0000
,
0001
0000
0010
0000
0100
0000
0000
0000
1000
0000
0000
0001
1000
0000
0000
0000
,
0010
0000
0000
0100
0000
0000
0001
0000
0010
0000
0100
0000
1000
0000
0000
0000
,
0010
0100
0001
0000
1000
0100
1000
0000
,
0001
0000
0000
0010
0000
0000
0100
0000
1000
0000
0001
0000
0100
0000
0000
0000
,
0010
0000
1000
0000
0001
0010
0001
0000
,
1000
0100
0010
0100
1000
0000
0010
0000
,
0100
0001
0010
0001
0100
0000
0010
0000
,
1000
0001
1000
0010
1000
0000
0001
0000
,
0010
0100
0010
0001
0100
0000
0010
0000
,
1000
0100
0001
0100
1000
0000
0010
0000
,
0100
0001
0010
0100
1000
0000
0010
0000
,
0100
0001
0100
0010
1000
0000
0001
0000
,
1000
0100
0010
0100
1000
0000
0001
0000
,
0100
0001
0100
0001
0100
0010
0100
0000
,
0010
1000
0010
1000
0001
1000
0001
0000
,
1000
0100
1000
0100
0010
0100
0010
0000
,
0010
0001
0010
0001
1000
0001
1000
0000
,
0001
0100
0001
1000
0010
0000
1001
0000
,
1000
0100
0010
0100
1000
0000
0011
0000
,
0001
0100
0010
1000
0100
0000
1001
0000
,
1000
0010
0100
0001
0010
0000
1001
0000
,
1001
0001
0000
0000
1000
0000
0000
0010
,
0000
0100
0001
0010
,
0000
0100
0000
0000
1000
0000
0000
0010
,
0000
1000
0001
0010
,
0000
0100
0000
0000
1000
0000
0000
0001
,
0000
0100
0001
1000
,
0010
1000
0001
0010
,
0100
0010
0100
0010
0100
0010
0100
0010
,
0100
0000
1001
0000
1000
0010
1000
0010
,
0001
0000
1001
0000
0010
0100
0001
0010
,
0100
0000
1001
0000
1000
0100
1000
0010
,
0100
0001
0010
1000
0010
0001
0100
0000
,
0010
1000
0010
1000
0001
0100
0001
0000
,
1000
0100
1000
0100
0010
0001
0010
0000
,
0001
0100
1000
0010
0001
0100
1000
0000
,
0010
1000
0100
0010
0001
1000
0100
0000
,
0010
0100
0010
0100
1000
0001
1000
0000
,
0010
1001
0100
1001
,
0001
0010
0001
0010
0100
1000
0100
0000
,
1000
1010
0001
0011
,
1000
0010
1000
0010
0100
0001
0100
0000
,
0001
0011
1000
1010
,
1000
0100
1000
0100
0001
0100
0001
0000
,
0100
1001
0010
1001
,
2002
0000
0000
0000
,
0000
0000
0000
3003
,
0220
0000
0000
0330
,
2020
0000
0000
3030
,
0202
0000
0000
0000
,
0000
0000
0000
0303
,
0022
0000
0000
0033
,
2200
0000
0000
3300
,
1000
0010
0000
0100
0001
0000
0010
0100
,
0000
1000
0001
0000
0100
0010
0100
0000
,
0010
1000
0000
0001
0010
0000
0100
1000
,
0000
0001
0100
0000
0010
1000
0010
0000
,
1000
0100
0000
0010
0001
0000
1000
0001
,
0000
0100
0001
0000
1000
0000
0100
0000
,
1000
0010
0000
0100
0001
0000
0010
0100
,
1000
0000
0100
0000
0010
0001
0000
1000
,
0001
0100
0010
1000
,
0100
0010
0001
1000
,
0010
1000
0001
0010
,
0100
1000
0001
0100
,
0001
0100
0001
0100
0010
1000
0010
1000
,
0001
0010
0001
0010
0100
1000
0100
1000
,
0001
0100
0010
1000
0100
0010
0001
1000
,
0010
0100
0001
0010
0100
1000
0001
0100
,
0020
0000
0000
0000
,
0000
0000
0000
0000
,
0030
0000
0000
0000
;

//--------------- dance-single - forcednature ----------------
#NOTES:
     dance-single:
     forcednature:
     Hard:
     9:
     0,0,0,0,0:
0000
0000
0000
0000
,
0000
0000
0000
0000
,
0000
0000
0000
0000
,
0000
0000
0000
0000
,
0000
0000
0000
0000
,
0000
0000
0000
0000
,
0000
0000
0000
0000
,
0000
0000
0000
0000
,
0001
0000
0000
0010
0001
0000
1000
0000
0010
0000
0100
0000
0010
0000
0000
0000
,
1000
0000
0001
0000
0100
0000
0000
0000
0010
0000
1000
0010
1000
0000
0000
0000
,
0001
0000
0000
0010
0100
0000
1000
0000
0001
0000
0101
0000
0000
0101
0000
0000
,
0001
0000
1000
0000
0010
0000
1000
0000
0001
0010
0000
0001
0010
0000
0000
0000
,
0100
0000
0000
1000
0100
0000
1000
0000
0001
0000
1000
0000
0010
0000
0000
0000
,
0100
0000
0001
0000
0010
0000
0000
0000
0100
0000
1000
0100
1000
0000
0000
0000
,
0010
0000
0000
1000
0001
0000
0100
0000
0010
0000
0100
0000
0001
0000
0000
0000
,
1000
0000
0010
0000
1000
0000
0000
0001
0000
0010
0100
0000
1000
0100
1000
0000
,
0010
0000
0100
0000
0001
0010
0001
0010
0001
0000
1000
0000
0010
0000
0000
0000
,
0100
0000
0001
0000
1000
0100
1000
0100
1000
0000
0010
0000
0100
0000
0000
0000
,
0001
0000
1000
0000
0010
0000
1000
0000
0001
0000
0010
0001
0010
0000
0000
0000
,
0001
0000
1000
0000
0010
0000
0100
0000
0001
0000
0100
0001
0100
0000
0000
0000
,
0010
1000
0001
0010
0100
1000
0001
0100
,
0010
0110
0000
0001
1000
0010
1000
0001
,
0100
0101
0000
0010
1000
0001
0010
0100
,
1000
0000
0001
0000
0100
0000
0000
0100
0000
0010
1000
0000
0001
0000
0000
0000
,
1000
0000
0000
0001
0010
0000
0001
0000
1000
0000
0010
0000
0100
0001
0100
0000
,
0010
0000
1000
0000
0100
1000
0100
0000
0010
0000
0001
0000
1000
0001
1000
0000
,
0010
0000
1000
0000
0001
0000
0100
0000
0010
0000
0101
0000
0000
1100
0000
0000
,
0001
0000
0010
0000
0100
0000
0000
0000
1000
0001
0000
0001
1000
0000
0000
0000
,
0010
0000
0000
1000
0001
0000
0100
0000
0010
1000
0010
0000
1001
0000
0000
0000
,
1000
0100
1000
0000
0001
0000
0010
0000
0001
0000
0100
0000
0010
0000
0000
0000
,
1000
0001
0000
0100
0001
0000
0100
0000
0001
0000
1000
0000
0010
0000
1000
0000
,
0001
0000
0010
0000
0001
0000
1000
0000
0001
0000
0100
0001
0100
0000
0000
0000
,
0100
0001
0000
0100
1000
0000
0100
0001
,
0000
0100
1000
0000
0100
0001
0010
0000
,
0100
1000
0000
0100
0001
0000
0100
1000
,
0000
0100
0001
0000
0100
1000
0010
0000
,
0100
0001
0000
0100
1000
0000
0100
0001
,
0000
0100
1000
0000
0100
0001
0010
0000
,
0100
1000
0001
0010
0100
1000
0001
0010
,
0100
1000
0010
0100
0001
1000
0010
0100
,
0001
0000
0000
1000
0001
0000
0100
0000
0010
1000
0010
0000
1000
0000
0001
0000
,
0010
0100
0010
0000
0100
0000
1000
0000
0001
0000
1000
0000
0010
0000
0000
0000
,
0100
0000
0001
0000
0010
0001
0010
0000
0001
0000
1000
0000
0010
1000
0010
0000
,
1000
0000
0001
0000
0100
0000
0010
0000
0100
0010
0000
0100
0010
0000
0000
0000
,
1000
0010
1000
0000
0001
0000
0010
0000
0100
0000
1000
0000
0001
0000
0000
0000
,
0100
0001
0100
0000
0010
0000
1000
0000
0001
0000
0010
0000
0100
0000
0000
0000
,
1000
0010
1000
0000
0001
0000
0010
0000
0100
0000
1000
0000
0001
0000
0000
0000
,
0100
0001
0100
0000
0010
0000
1000
0000
0001
0000
0010
0000
0100
0000
0000
0000
,
1000
0000
0001
0000
0010
0001
0010
0000
0001
0000
1000
0000
0010
1000
0010
0000
,
0100
0000
0001
0000
0100
0001
0100
0000
0001
0000
1000
0000
0100
1000
0100
0000
,
1000
0000
0010
0000
0100
0001
0010
0000
0100
0000
1000
0000
0010
0100
0001
0000
,
1000
0000
0001
0000
0010
0100
1000
0000
0001
0000
0100
0000
0010
1000
0001
0000
,
1000
0000
0010
0000
0100
0001
0010
0100
1000
0000
0001
0000
0100
0000
0010
0000
,
1000
0000
0001
0000
0010
0100
1000
0010
0100
0000
0010
0000
1000
0000
0001
0000
,
0100
0000
0010
0000
0100
0001
0010
0100
1000
0000
0010
0000
0100
0000
0001
0000
,
1000
0000
0010
0000
1000
0100
0010
0001
1000
0000
0001
0000
0100
0000
0010
0000
,
2002
0000
0000
0000
,
0000
0000
0000
0000
0000
0000
0000
3003
,
0220
0000
0000
0000
0000
0000
0000
0330
,
2200
0000
0000
0000
0000
0000
0000
3300
,
0022
0000
0000
0000
,
0000
0000
0000
0000
0000
0000
0000
0033
,
0202
0000
0000
0000
0000
0000
0000
0303
,
2020
0000
0000
0000
0000
0000
0000
3030
,
1000
0100
0010
0100
0010
0001
1000
0001
,
1000
0100
0010
0100
0010
0001
1000
0001
,
1000
0001
1000
0010
1000
0010
0100
0001
,
0100
0001
1000
0100
1000
0100
0010
0001
,
0010
0001
1000
0010
0100
0001
0010
0100
,
1000
0001
0100
0010
1000
0001
1000
0100
,
0010
0001
1000
0010
0100
0001
0010
0100
,
1000
0010
0100
0001
0100
0010
0000
0010
,
1001
1010
0011
0101
,
0110
1010
1100
0011
,
1010
0101
1001
0110
,
0011
1100
1010
0101
,
1000
0001
0100
0010
1000
0001
0010
0100
,
1000
0001
0100
0010
1000
0100
0010
0001
,
0100
0001
0100
0001
1000
0000
0100
0000
0010
0001
0010
0001
0100
0000
0010
0000
,
1000
0010
1000
0010
1000
0001
1000
0001
0100
0001
1000
0100
0010
0100
1000
0001
,
0200
0000
0000
0000
,
0000
0000
0000
0000
,
0300
0000
0000
0000
;

//--------------- dance-single - forcednature ----------------
#NOTES:
     dance-single:
     forcednature:
     Challenge:
     11:
     0,0,0,0,0:
0000
0000
0000
0000
,
0000
0000
0000
0000
,
0000
0000
0000
0000
,
0000
0000
0000
0000
,
0000
0000
0000
0000
,
0000
0000
0000
0000
,
0000
0000
0000
0000
,
0000
0000
0000
0000
,
1000
0000
0001
0000
0100
0000
0000
0000
0001
0100
0001
0000
1000
0000
0000
0000
,
0100
0000
1000
0000
0001
0000
0000
0010
0001
1000
0100
0010
0100
0000
1000
0000
,
0010
0000
1000
0000
0001
0000
0000
0000
0100
0000
0001
0000
1000
0100
0000
0000
,
0010
0000
0001
0000
0100
0000
0000
0010
1000
0010
0000
0100
0001
0000
0000
0000
,
1000
0000
0000
0100
1000
0000
0000
0001
0000
0010
0001
1000
0100
0000
0000
0000
,
1000
0000
0000
0001
0100
0000
0000
0010
0000
1000
0001
0100
0010
0000
0000
0000
,
1000
0100
0000
1000
0010
0000
0000
0100
0000
0000
0001
0000
0100
0000
0010
1000
,
0100
0000
0010
0001
0100
0000
0000
0010
0000
1000
0001
0000
0010
0100
1000
0000
,
0001
0000
1000
0000
0010
0100
0001
0100
0010
0000
1000
0000
0001
1000
0000
0000
,
0100
0000
1000
0000
0001
0010
0100
1000
0000
0001
0100
0010
1000
0000
0001
0000
,
1000
0100
0000
1000
0001
0000
0100
0001
0010
0000
0100
1000
0010
1000
0100
0010
,
0001
1000
0001
0010
0100
0000
1000
0001
1000
0010
0000
1000
0001
0100
0000
0000
,
0010
0000
1000
0100
0010
0000
0001
0010
0100
0000
1000
0010
0100
0000
0001
0100
,
0010
0000
1000
0000
0100
0000
0010
0001
1000
0000
0010
1000
0001
0000
0010
0100
,
1000
0000
0001
0000
0000
0000
1000
0010
0100
0000
0100
0000
0100
0000
0001
0010
,
0100
1000
0010
0000
1000
0001
0100
0010
0000
1000
0100
0010
0100
0000
0000
0000
,
1000
0000
0010
0000
1000
0000
0001
0000
0100
0000
0010
0000
1000
0001
0010
0100
,
1000
0000
0001
0000
1000
0010
1000
0001
0100
0000
0010
0100
0010
0000
1000
0000
,
0001
0010
0000
0100
1000
0000
0001
0000
0100
0000
0001
0000
1000
0100
0000
0000
,
0010
0100
1000
0100
0010
0000
0001
1000
0010
1000
0000
0001
0100
0001
0010
0000
,
0000
0000
0100
1000
0010
0100
0001
0000
0100
0000
0010
1000
0010
0000
0000
1000
,
0100
0010
0001
0000
0100
0000
0010
0000
1000
0000
0001
0010
0100
1000
0000
0000
,
0100
1000
0000
0001
0100
0000
0010
1000
0001
0010
0100
1000
0001
0000
0100
0001
,
1000
0010
1000
0000
0001
0000
0010
0000
0100
0000
1000
0001
0010
0000
0000
0000
,
1001
0001
0010
1000
0010
0001
1000
0010
,
0100
1000
0100
0001
1000
0100
0001
0100
,
1000
0010
0001
1000
0100
0001
1000
0010
,
0001
1000
0100
0001
1000
0100
0001
0100
,
0001
0100
1000
0001
0010
1000
0001
0100
,
1000
0001
0010
1000
0001
0100
1000
0100
,
0001
1000
0010
1000
0001
0010
0100
1000
,
0100
0001
0100
1000
0010
0100
0001
0010
,
0100
0000
1000
0001
0100
0000
0010
0000
1000
0001
0010
0100
1000
0000
0010
0100
,
0001
0100
0000
0010
1000
0000
0100
0000
0010
0001
1000
0100
0010
0000
0000
0001
,
0100
0001
1000
0010
1000
0000
0100
0000
0010
0000
0001
1000
0010
0000
0100
0000
,
0001
0000
0010
0100
0000
1000
0000
0001
1000
0000
0010
1000
0001
0000
0000
1000
,
0100
0010
0100
0000
1000
0001
0000
0100
0010
0000
1000
0010
1000
0000
0000
0000
,
0001
0010
0100
0000
1000
0001
0000
0100
0001
0000
1000
0100
0010
0000
0000
0100
,
1000
0000
0001
0000
0100
0000
0010
0000
1000
0100
0010
0100
1000
0000
0000
0010
,
0100
0000
0001
0000
0010
0001
0000
1000
0010
1000
0001
0100
0001
0000
0000
0000
,
1000
0000
0100
0000
0010
0001
0000
1000
0010
0000
0100
0000
0001
0010
0000
0100
,
1000
0000
0001
0100
0000
0010
0000
1000
0100
0010
0100
1000
0001
0000
0100
0000
,
0010
0000
1000
0000
0001
0010
0000
0100
1000
0000
0001
0000
0100
0001
0000
0000
,
1000
0010
0000
1000
0001
0000
1000
0100
0010
0001
0100
0010
1000
0000
0000
0001
,
0100
0001
1000
0001
0010
0000
0100
1000
0000
0010
1000
0001
0000
0000
0100
0001
,
0010
0100
1000
0010
0100
0000
0001
0000
1000
0000
0100
0010
0000
0000
0000
0100
,
1000
0000
0001
0000
1000
0000
0010
0100
0000
0001
0010
0100
1000
0000
0001
0100
,
0001
0000
1000
0010
1000
0000
0001
0010
0001
0100
0010
1000
0100
1000
0010
0000
,
2002
0000
0000
0000
,
0000
0000
0000
0000
0000
0000
0000
3003
,
0202
0000
0000
0000
0000
0000
0000
0303
,
2020
0000
0000
0000
0000
0000
0000
3030
,
2200
0000
0000
0000
,
0000
0000
0000
0000
0000
0000
0000
3300
,
0022
0000
0000
0000
0000
0000
0000
0033
,
0202
0000
0000
0000
0000
0000
0000
0303
,
0001
0100
1000
0001
0010
1000
0001
0100
,
1000
0001
0010
1000
0001
0100
1000
0100
,
1000
0100
0001
1000
0010
0001
1000
0100
,
0001
1000
0010
0001
1000
0100
0001
0100
,
0001
0100
1000
0001
0010
1000
0001
0100
,
1000
0001
0010
1000
0001
0100
1000
0100
,
1000
0100
0001
1000
0010
0001
1000
0100
,
0001
0100
1000
0100
0001
0100
1000
0100
,
1000
0010
0100
0001
0010
0100
1000
0001
,
0100
0010
1000
0100
0010
0001
1000
0010
,
0100
0001
0010
0100
1000
0001
0100
0001
,
1000
0100
1000
0010
1000
0001
0010
0100
,
1000
0010
1000
0100
0010
0001
0100
0001
,
0010
0100
1000
0010
1000
0100
0010
0001
,
0010
0001
1000
0010
0100
0001
1000
0100
0010
0100
1000
0001
0100
0010
1000
0001
,
0010
0100
1000
0001
0100
0001
1000
0001
1000
0010
1000
0100
0010
0001
1000
0001
,
0200
0000
0000
0000
,
0000
0000
0000
0000
,
0300
0000
0000
0000
;

//--------------- dance-double - forcednature ----------------
#NOTES:
     dance-double:
     forcednature:
     Easy:
     5:
     0,0,0,0,0:
00000000
00000000
00000000
00000000
,
00000000
00000000
00000000
00000000
,
00000000
00000000
00000000
00000000
,
00000000
00000000
00000000
00000000
,
00000000
00000000
00000000
00000000
,
00000000
00000000
00000000
00000000
,
00000000
00000000
00000000
00000000
,
00000000
00000000
00000000
00000000
,
00001000
00011000
01000000
01010000
,
00100000
10010000
10000000
00100000
,
00010000
01010000
01000000
00010000
,
00000100
00000000
00001001
00000000
00000010
00000010
00000010
00000000
,
00000100
00001001
00000100
00011000
,
01000000
00100000
00010000
10010000
,
10000000
00100000
01000000
00011000
,
00000010
00000000
00001000
00000000
00000010
00000010
00000010
00000000
,
00000100
00000001
00000010
00001100
,
00001000
00010000
01000000
00110000
,
10000000
01000000
00010000
10100000
,
01000000
00001000
00010000
00001100
,
00000010
00000001
00000100
00001010
,
00000100
00010000
00001000
10010000
,
01000000
00100000
01000000
10010000
,
00100000
00001000
00010000
00001010
,
00000100
00000001
00000010
00001100
,
00010000
01000000
10000000
00110000
,
10000000
00100000
01000000
00011000
,
00000100
00000001
00000010
00011000
,
00100000
01000000
10000000
00110000
,
01000000
00001000
00010000
00001010
,
00000100
00000001
00000010
00001100
,
00010000
01000000
10000000
00110000
,
00012000
00000000
00000000
00000000
,
00000000
00000000
00000000
00003000
,
02000000
00000000
00000000
00000000
,
20000000
00000000
00000000
03000000
,
00200000
00000000
00000000
00000000
,
00000000
00000000
00000000
30000000
,
00020000
00000000
00000000
00300000
,
00002000
00000000
00000000
00033000
,
00011000
00010010
00001000
00000010
,
00000001
00000100
00000110
00011000
,
01000000
00100000
00010000
01000000
,
00100000
10000000
01000000
00100000
,
00010000
01000000
00010000
00001000
,
00000010
00000001
00000100
00001000
,
00010000
00011000
00001000
00011000
,
01000000
00000000
00100000
00000000
10000000
10000000
10000000
00000000
,
01000000
00110000
00001000
00000100
,
00000001
00000010
00001000
00000100
,
00010000
00001000
01000000
00100000
,
00010000
01000000
00100000
10000000
,
01000000
00010000
00100000
00001000
,
00010000
00000010
00001000
00000001
,
00000100
00000110
00000010
00010000
,
00001000
01100000
00010000
00100000
,
00002100
00000000
00000000
00000000
,
00000000
00000000
00000000
00003000
,
00020000
00000000
00000000
00000000
,
00002000
00000000
00000000
00030000
,
02000000
00000000
00000000
00000000
,
00000000
00000000
00000000
00003000
,
00200000
00000000
00000000
03000000
,
20000000
00000000
00000000
30300000
,
10000000
01000000
00100000
01000000
,
10000000
00010000
01000000
00011000
,
00000100
00000001
00000010
00000100
,
00010000
00001000
01000000
00011000
,
00000010
00001000
00000100
00000001
,
00000010
00000100
01000000
00011000
,
00100000
01000000
10000000
00100000
,
01000000
00010000
00001000
00010000
,
00000010
00000010
00000010
00000010
,
00000100
00000001
00000010
00001000
,
00010000
00010000
00010000
00010000
,
01000000
10000000
00100000
00010000
,
01000000
01000000
01000000
01000000
,
00100000
10000000
01000000
00010000
,
00011000
00000100
00000001
00000010
,
00000100
00001000
00010000
01000000
,
00020000
00000000
00000000
00000000
,
00000000
00000000
00000000
00000000
,
00030000
00000000
00000000
00000000
;

//--------------- dance-double - forcednature ----------------
#NOTES:
     dance-double:
     forcednature:
     Medium:
     8:
     0,0,0,0,0:
00000000
00000000
00000000
00000000
,
00000000
00000000
00000000
00000000
,
00000000
00000000
00000000
00000000
,
00000000
00000000
00000000
00000000
,
00000000
00000000
00000000
00000000
,
00000000
00000000
00000000
00000000
,
00000000
00000000
00000000
00000000
,
00000000
00000000
00000000
00000000
,
00010000
00000000
00000000
00000010
00000000
00000000
00001000
00000000
00000001
00000000
00000100
00000000
00000010
00000000
00000000
00000000
,
00010000
00001000
01000000
00000000
00010000
00100000
01000000
00000000
,
10000000
00000000
00000000
00100000
00000000
00000000
01000000
00000000
00010000
00000000
00100000
00000000
00000000
00100000
00000000
00000000
,
00001000
00000000
00010000
00000000
00000010
00000000
00000000
00000000
00001000
00000001
00000000
00000001
00001000
00000000
00000000
00000000
,
00000010
00000000
00000000
00000100
00000000
00000000
00000001
00000000
00000010
00000000
00000100
00000000
00010000
00000000
00000000
00000000
,
00001000
01000000
00010000
00000000
10000000
01000000
00100000
00000000
,
01000000
00000000
00000000
10000000
00000000
00000000
00010000
00000000
01000000
00000000
00001000
00000000
00010000
00000000
00000010
00000000
,
00001000
00000001
00000100
00000000
00000010
00000100
00001000
00000000
,
00011000
00000000
01010000
00000000
00100000
00010000
01000000
00100000
,
10000000
01000000
00100000
00000000
01000000
10000000
00010000
00000000
,
01010000
00000000
00011000
00000000
00000100
00001000
00000001
00001000
,
00000010
00000100
00000001
00000010
00000100
00001000
00000010
00000000
,
00011000
00000000
00110000
00000000
01000000
10000000
00010000
00100000
,
01000000
00000000
00011000
00000000
00000010
00001000
00000100
00000010
,
00000001
00000000
00000110
00000000
00000001
00000010
00000100
00010000
,
00001000
01000000
00010000
00000000
01000000
00000000
01000000
00000000
,
00100000
10000000
00100000
10000000
00010000
01000000
00010000
00000000
,
00100000
00011000
00000010
00011000
,
01000000
00010000
01000000
00010000
00001000
00010000
00001000
00000000
,
00000100
00011000
01000000
00011000
,
00000100
00001000
00000100
00001000
00000001
00000100
00000001
00000000
,
00000100
00001001
00000010
00001001
,
00010000
00001000
00010000
00001000
01000000
00010000
01000000
00000000
,
00100000
10010000
01000000
10010000
,
10000000
00100000
00000000
01000000
00001000
00000000
00010000
00000100
,
00000000
00000010
00000001
00000000
00000100
00000000
01000000
00000000
,
00001000
00010000
00000000
00100000
01000000
00000000
10000000
00010000
,
00000000
01000000
00001000
00000000
00010000
00000000
00000100
00000000
,
00000010
00000001
00000000
00000100
00000010
00000000
00010000
00001000
,
00000000
00100000
01000000
00000000
10000000
00000000
00010000
00000000
,
01000000
00001000
00000000
00010000
00000010
00000000
00000100
00000001
,
00000100
00000001
00001000
00000010
00000000
00010000
00000000
00001000
,
01000000
00000000
10010000
00000000
00100000
10000000
01000000
00100000
,
00010000
00000000
01010000
00000000
01000000
00001000
00010000
00000010
,
00001000
00000000
00000101
00000000
00000001
00000010
00000100
00010000
,
00011000
01010000
01010000
10100000
,
10000000
01000000
00100000
01000000
10000000
00100000
01000000
00000000
,
00010000
00100000
00001000
00010000
00001000
00100000
00010000
00000000
,
01000000
00010000
01000000
00001000
00010000
00001000
00010000
00000000
,
00000100
00001000
00000100
00001000
00000001
00001000
00000001
00000000
,
00000100
00000001
00000100
00000001
00000100
00000010
00000100
00000010
,
00010000
00000010
00010000
00000010
00010000
00001000
00010000
00000000
,
00001000
00100000
00001000
00100000
01000000
00100000
01000000
00100000
,
01000000
10000000
01000000
10000000
00010000
10000000
00010000
00000000
,
10000000
01000000
10000000
01000000
00100000
01000000
00100000
01000000
,
00100000
00010000
00100000
00010000
01000000
00010000
01000000
00000000
,
00010000
00100000
00010000
00100000
00001000
00010000
00001000
00010000
,
00000010
00001000
00000010
00001000
00000001
00000100
00000001
00000000
,
00000202
00000000
00000000
00000000
,
00000000
00000000
00000000
00000303
,
02020000
00000000
00000000
03030000
,
00002020
00000000
00000000
00003030
,
00220000
00000000
00000000
00000000
,
00000000
00000000
00000000
00330000
,
22000000
00000000
00000000
33000000
,
02020000
00000000
00000000
03030000
,
01000000
00010000
00000000
00100000
10000000
00000000
01000000
00010000
,
00000000
00100000
10000000
00000000
01100000
00000000
00011000
00000000
,
00000010
00001000
00000000
00000100
00000001
00000000
00000010
00001000
,
00000000
00000100
00000001
00000000
00000110
00000000
00001001
00000000
,
00000100
00001000
00000000
01000000
00010000
00000000
00000100
00001000
,
00000000
01000000
00010000
00000000
00011000
00000000
00100010
00000000
,
00010000
00010000
00000000
00100000
00100000
00000000
00001000
00001000
,
00010000
00010000
00000010
00000010
00000000
00001010
00000000
00000101
,
00000001
00000010
00000100
00010000
00001000
01000000
00010000
00000000
,
10000000
01000000
00100000
01000000
10000000
00010000
00100000
00000000
,
00001000
00010000
00000010
00001000
00000001
00000100
00000010
00000000
,
00010000
00001000
01000000
00010000
10000000
00100000
01000000
00000000
,
00100000
10000000
00100000
10000000
00010000
01000000
00010000
01000000
,
00001000
00010000
00001000
00010000
00000100
00001000
00000100
00001000
,
00000001
00000010
00000001
00000010
00000100
00010000
00000100
00010000
,
00001000
01000000
00010000
10000000
00100000
01000000
00010000
10000000
,
02000000
00000000
00000000
00000000
,
00000000
00000000
00000000
00000000
,
03000000
00000000
00000000
00000000
;

//--------------- dance-double - forcednature ----------------
#NOTES:
     dance-double:
     forcednature:
     Hard:
     10:
     0,0,0,0,0:
00000000
00000000
00000000
00000000
,
00000000
00000000
00000000
00000000
,
00000000
00000000
00000000
00000000
,
00000000
00000000
00000000
00000000
,
00000000
00000000
00000000
00000000
,
00000000
00000000
00000000
00000000
,
00000000
00000000
00000000
00000000
,
00000000
00000000
00000000
00000000
,
00001000
00000000
00010000
00000010
00010000
00000000
00000100
00000000
00000010
00000000
00000001
00000000
00000100
00000000
00000010
00000000
,
00010000
00000000
00001000
00000000
01000000
00010000
00000000
10000000
01000000
00100000
01000000
10000000
01000000
00000000
00100000
00000000
,
00010000
00000000
01000000
00000000
00001000
00010000
00000000
00000010
00001000
00000000
00000101
00000000
00000000
00000101
00000000
00000000
,
00000010
00000000
00010000
00000000
00001000
01000000
00000000
00100000
10000000
01000000
00000000
00100000
00010000
00000000
00000000
00000000
,
01000000
00000000
00001000
00000000
00010000
00000100
00000000
00001000
00000001
00000000
00000100
00000001
00000010
00000000
00000000
00000000
,
00000100
00000000
00010000
00000000
00001000
01000000
00000000
00010000
00100000
00000000
01000000
10000000
00010000
00000000
00000000
00000000
,
01000000
00010000
00000000
00100000
00001000
00000000
00010000
00000000
00000010
00000000
00001000
00000001
00000100
00000000
00000010
00001000
,
00000100
00000000
00000010
00000000
00000001
00000100
00000000
00000010
00000000
00010000
00001000
00000000
01000000
00000000
00010000
00100000
,
01000000
00000000
10000000
00100000
10000000
00010000
10000000
00100000
10000000
00000000
01000000
00000000
00100000
00010000
00000000
00000000
,
01000000
00000000
00001000
00000000
00010000
00000100
00001000
00000001
00000000
00000010
00000100
00001000
00000100
00010000
00000000
00000000
,
00001000
00000000
01000000
00000000
00010000
00100000
01000000
10000000
00100000
00000000
01000000
00000000
00010000
10000000
01000000
00100000
,
00010000
00000000
01000000
00000000
00100000
10000000
01000000
00100000
00010000
01000000
00000000
00001000
00010000
00000100
00000000
00000000
,
00000010
00000000
00000001
00000100
00000010
00000000
00001000
00000100
00010000
00000000
00001000
01000000
00010000
00000000
00100000
01000000
,
10000000
00000000
00010000
00000000
01000000
00001000
00000000
00010000
00000100
00000000
00001000
00000000
00000010
00000000
00000100
00000001
,
00000010
00000000
00000100
00000000
00000000
00000000
00010000
00000000
00001000
00000000
01000000
00010000
00100000
00000000
01000000
10000000
,
00100000
01000000
00010000
00000000
00100000
00001000
00010000
00000010
00000000
00000100
00000001
00000010
00000100
00000000
00000000
00000000
,
00010000
00000000
00001000
00000000
01000000
00010000
01000000
00010000
10000000
00000000
01000000
00000000
00100000
00010000
00100000
00010000
,
01000000
00000000
00001000
00000000
00010000
00000100
00010000
00000100
00001000
00000000
00000010
00000100
00000010
00000000
00000100
00000000
,
00000001
00000000
00000010
00000000
00000100
00000000
00010000
00000000
00001000
00000000
01000000
00000000
00010000
10000000
00000000
00000000
,
01000000
00000000
00100000
00000000
01000000
00000000
10000000
00000000
00010000
00100000
00000000
00001000
00010000
00000000
00000010
00000000
,
00000000
00000000
00000100
00000000
00000001
00000010
00000100
00001000
00000100
00000000
00010000
00000000
00001000
00000000
01000000
00000000
,
00010000
00000000
00100000
00000000
01000000
10000000
00100000
01000000
00010000
00000000
01000000
00000000
00100000
00000000
10000000
00000000
,
01000000
00100000
00000000
00010000
01000000
00000000
00001000
00010000
00000100
00000000
00001000
00000000
00000010
00000000
00000100
00000001
,
00000100
00000010
00001000
00000000
00000100
00010000
00000000
00001000
01000000
00000000
00010000
00100000
01000000
00000000
00000000
00000000
,
10000000
01000000
00100000
01000000
00100000
00010000
00100000
00010000
,
00001000
00010000
00001000
00000100
00001000
00000100
00000010
00000001
,
00000001
00000010
00000100
00000010
00000100
00001000
00000100
00001000
,
00010000
00001000
00010000
00100000
00010000
00100000
01000000
10000000
,
10000000
00100000
01000000
01000000
00010000
00100000
00100000
00001000
,
00010000
00010000
00000100
00001000
00001000
00000010
00000100
00000001
,
00000001
00000100
00000010
00000010
00001000
00000100
00000100
00010000
,
00001000
00001000
00100000
00010000
00010000
01000000
00100000
10000000
,
01000000
00000000
00100000
00010000
01000000
00000000
00001000
00000000
00010000
00000000
00000010
00001000
00000100
00000000
00000010
00000001
,
00000100
00000001
00000000
00001000
00000100
00000000
00010000
00001000
01000000
00010000
00100000
01000000
10000000
00000000
00000000
00000000
,
00100000
01000000
00000000
00010000
00100000
00000000
00001000
00010000
00000100
00000000
00001000
00000001
00000100
00000000
00000001
00000000
,
00000010
00000000
00000100
00001000
00000000
00000010
00000000
00010000
00001000
00000000
01000000
00010000
00100000
00000000
00000000
01000000
,
10000000
00100000
01000000
00000000
00010000
00100000
00000000
00001000
00010000
00000000
00000010
00001000
00000100
00000000
00000000
00000000
,
00000010
00000001
00000100
00000000
00000010
00001000
00000000
00000100
00010000
00000000
00001000
01000000
00100000
00000000
00000000
00000000
,
10000000
01000000
00000000
00100000
01000000
00000000
10000000
00010000
01000000
00000000
00001000
00010000
00000100
00000000
00000000
00000000
,
00001000
00000010
00000000
00000100
00000001
00000000
00000010
00000000
00000100
00000000
00001000
00000010
00010000
00000000
00000000
00000000
,
00001000
00000000
01000000
00000000
00010000
00100000
00010000
00100000
00010000
00000000
10000000
00000000
00100000
01000000
00100000
01000000
,
00100000
00000000
10000000
00000000
01000000
00100000
01000000
00100000
01000000
00000000
00100000
00000000
00001000
00000000
00010000
00000000
,
00000010
00000000
00001000
00000000
00000001
00001000
00000001
00001000
00000001
00000000
00000100
00000000
00000001
00000100
00000001
00000100
,
00000001
00000000
00000100
00000000
00000010
00001000
00000010
00001000
00000010
00010000
00000000
00010000
00000100
00000000
00000000
00000000
,
00010000
00000000
00001000
00000000
01000000
00010000
00100000
01000000
10000000
00000000
00100000
00000000
01000000
00000000
00000000
00000000
,
00010000
00000000
00100000
00000000
00001000
00010000
00000100
00001000
00000001
00000000
00000100
00000000
00000010
00000000
00000000
00000000
,
00001000
00000000
00000100
00000000
00010000
00001000
01000000
00010000
00100000
00000000
01000000
00000000
10000000
00000000
00000000
00000000
,
00100000
00000000
01000000
00000000
00010000
00100000
01000000
10000000
00100000
00000000
01000000
00001000
00010000
00000000
00000010
00000000
,
00000220
00000000
00000000
00000000
,
00000000
00000000
00000000
00000000
00000000
00000000
00000000
00000330
,
00000202
00000000
00000000
00000000
00000000
00000000
00000000
00000303
,
00000022
00000000
00000000
00000033
,
00022000
00000000
00000000
00000000
,
00000000
00000000
00000000
00000000
00000000
00000000
00000000
00000000
00000000
00000000
00000000
00000000
00000000
00033000
00000000
00000000
,
02020000
00000000
00000000
00000000
00000000
00000000
00000000
00000000
00000000
00000000
00000000
00000000
00000000
03030000
00000000
00000000
,
20200000
00000000
00000000
00000000
00000000
00000000
00000000
00000000
00000000
00000000
00000000
00000000
00000000
30300000
00000000
00000000
,
10000000
00100000
01000000
00010000
00100000
00001000
00010000
00000010
,
00001000
00000001
00000010
00000100
00001000
00000100
00010000
00001000
,
01000000
00010000
00100000
01000000
10000000
00100000
01000000
00001000
,
00010000
00000100
00001000
00000001
00000100
00000010
00010000
00000100
,
00010000
00001000
00100000
00010000
10000000
00100000
01000000
00010000
,
10000000
01000000
00100000
01000000
10000000
00010000
00100000
00001000
,
00010000
00000100
00001000
00000001
00001000
00000010
00001000
00000100
,
00010000
00001000
01000000
00010000
00100000
01000000
10000000
00100000
,
01000000
00010000
01000000
10000000
01000000
00100000
01000000
00001000
,
00010000
00000100
00001000
00000100
00000001
00000100
00010000
00001000
,
01000000
00010000
10000000
00100000
10000000
01000000
00100000
00001000
,
00010000
00000100
00001000
00000001
00001000
00000010
00010000
00001000
,
01000000
00010000
10000000
01000000
00100000
01000000
10000000
00010000
,
01000000
00001000
00010000
00000010
00001000
00000001
00000100
00000010
,
00001000
00000100
00001000
00000000
00000100
00010000
00000100
00000000
00010000
00001000
00010000
00000000
00001000
01000000
00001000
00000000
,
01000000
00010000
10000000
01000000
00100000
00010000
01000000
00001000
00010000
00000100
00001000
00000100
00000010
00000001
00000100
00000010
,
00020000
00000000
00000000
00000000
,
00000000
00000000
00000000
00000000
,
00030000
00000000
00000000
00000000
;

//--------------- dance-double - forcednature ----------------
#NOTES:
     dance-double:
     forcednature:
     Challenge:
     11:
     0,0,0,0,0:
00000000
00000000
00000000
00000000
,
00000000
00000000
00000000
00000000
,
00000000
00000000
00000000
00000000
,
00000000
00000000
00000000
00000000
,
00000000
00000000
00000000
00000000
,
00000000
00000000
00000000
00000000
,
00000000
00000000
00000000
00000000
,
00000000
00000000
00000000
00000000
,
00010000
00000000
00001000
00000000
01000000
00000000
00000000
00000000
00010000
00100000
01000000
00000000
10000000
00000000
00000000
00000000
,
00100000
00000000
01000000
00000000
00001000
00000000
00000000
00010000
00000100
00000010
00000001
00000100
00000010
00000000
00001000
00000000
,
00000100
00000000
00010000
00000000
00001000
00000000
00000000
00000000
01000000
00000000
00010000
00000000
00100000
01000000
00000000
00000000
,
10000000
00000000
00100000
00000000
01000000
00000000
00000000
00100000
01000000
00001000
00000000
00010000
00000100
00000000
00000000
00000000
,
00000010
00000000
00000000
00000001
00001000
00000000
00000000
00000010
00000000
00000100
00000001
00000100
00000010
00000000
00000000
00000000
,
00010000
00000000
00000000
00001000
01000000
00000000
00000000
00010000
00000000
10000000
00100000
01000000
00010000
00000000
00000000
00000000
,
00100000
00001000
00000000
00010000
00000010
00000000
00000000
00000100
00000000
00000000
00000001
00000000
00001000
00000000
00000100
00000010
,
00000001
00000000
00001000
00000010
00000100
00000000
00000000
00000001
00000000
00001000
00000100
00000000
00010000
00001000
00010000
00000000
,
00000100
00000000
00000010
00000000
00000001
00000100
00000010
00000100
00000001
00000000
00001000
00000000
00000100
00010000
00000000
00000000
,
00001000
00000000
01000000
00000000
00100000
10000000
01000000
00100000
00000000
00010000
10000000
01000000
00100000
00000000
00001000
00000000
,
00010000
00000100
00000000
00001000
00000010
00000000
00000100
00000001
00000010
00000000
00000100
00010000
00001000
00100000
01000000
10000000
,
00100000
01000000
00001000
00010000
00000010
00000000
00000100
00000001
00000010
00000100
00000000
00010000
00001000
00100000
00000000
00000000
,
01000000
00000000
10000000
00010000
01000000
00000000
00010000
10000000
00100000
00000000
01000000
00001000
00010000
00000000
00000100
00000010
,
00000100
00000000
00001000
00000000
00000001
00000000
00010000
00001000
01000000
00000000
00100000
10000000
01000000
00000000
00100000
00001000
,
00010000
00000000
00000100
00000000
00000000
00000000
00000010
00000001
00000100
00000000
00000010
00000000
00010000
00000000
00001000
01000000
,
00010000
00100000
01000000
00000000
10000000
00010000
01000000
00001000
00000000
00010000
00000100
00001000
00000001
00000000
00000000
00000000
,
00000100
00000000
00000001
00000000
00001000
00000000
00000010
00000000
00010000
00000000
00000100
00000000
00010000
00001000
01000000
00010000
,
00100000
00000000
01000000
00000000
10000000
00100000
01000000
00001000
00010000
00000000
00000100
00001000
00000010
00000000
00000100
00000000
,
00000001
00001000
00000000
00000010
00010000
00000000
00001000
00000000
00100000
00000000
00010000
00000000
10000000
01000000
00000000
00000000
,
00100000
00010000
01000000
00001000
00010000
00000000
00000100
00001000
00000001
00000100
00000000
00000010
00010000
00001000
00100000
00000000
,
00000000
00000000
01000000
10000000
01000000
00100000
00010000
00000000
01000000
00000000
00001000
00010000
00000010
00000000
00000000
00000100
,
00000001
00000010
00000100
00000000
00001000
00000000
01000000
00000000
00010000
00000000
10000000
01000000
00100000
00010000
00000000
00000000
,
01000000
00001000
00000000
00010000
00000010
00000000
00000100
00000001
00000010
00000100
00010000
00001000
01000000
00000000
00100000
10000000
,
00010000
00100000
00001000
00000000
00010000
00000000
00000010
00000000
00000100
00000000
00000001
00000100
00000010
00000000
00000000
00000000
,
00001001
00000001
00000010
00001000
00010000
01000000
10000000
01000000
,
00010000
00001000
00000100
00000001
00000100
00001000
00010000
00100000
,
10000000
00100000
00010000
00001000
00000010
00000001
00000010
00001000
,
00010000
01000000
10000000
01000000
00010000
00001000
00000100
00000001
,
00000100
00001000
00010000
00100000
10000000
00100000
00010000
00001000
,
00000010
00000001
00000010
00001000
00000100
00000001
00000100
00001000
,
00010000
01000000
10000000
01000000
00010000
00100000
10000000
00100000
,
00010000
00001000
00000010
00000001
00000010
00001000
00010000
01000000
,
10000000
00000000
00010000
00100000
01000000
00000000
10000000
00000000
00100000
01000000
00001000
00010000
00000100
00000000
00000010
00000001
,
00001000
00000100
00000000
00010000
00001000
00000000
01000000
00000000
00010000
00100000
01000000
10000000
00100000
00000000
00000000
01000000
,
00001000
00010000
00001000
00100000
01000000
00000000
10000000
00000000
00100000
00000000
01000000
00001000
00010000
00000000
00000100
00000000
,
00000010
00000000
00000001
00000100
00000000
00000010
00000000
00010000
00001000
00000000
01000000
00010000
00100000
00000000
00000000
01000000
,
10000000
01000000
00100000
00000000
00010000
01000000
00000000
00001000
00010000
00000000
00000100
00001000
00000010
00000000
00000000
00000000
,
00000100
00000001
00000010
00000000
00000100
00010000
00000000
00001000
01000000
00000000
00010000
00100000
01000000
00000000
00000000
10000000
,
00100000
00000000
01000000
00000000
00001000
00000000
00010000
00000000
00000100
00001000
00000010
00010000
00000100
00000000
00000000
00000010
,
00000100
00000000
00010000
00000000
00001000
01000000
00000000
00100000
10000000
01000000
00100000
00010000
01000000
00000000
00000000
00000000
,
00001000
00000000
00010000
00000000
00000100
00001000
00000000
00000001
00000010
00000000
00010000
00000000
00001000
01000000
00000000
00100000
,
10000000
00000000
01000000
00100000
00000000
00001000
00000000
00100000
00001000
00010000
00000010
00000100
00000001
00000000
00000010
00000000
,
00000100
00000000
00010000
00000000
00001000
01000000
00000000
00010000
10000000
00000000
01000000
00000000
00100000
00001000
00000000
00000000
,
00010000
00000010
00000000
00001000
00000100
00000000
00010000
00000100
00010000
00001000
00100000
01000000
10000000
00000000
00000000
00010000
,
10000000
00100000
01000000
00001000
00010000
00000000
00000100
00001000
00000000
00000010
00000100
00000001
00000000
00000000
00000100
00000001
,
00000010
00000100
00010000
00001000
01000000
00000000
00100000
00000000
10000000
00000000
00010000
00100000
00000000
00000000
00000000
00001000
,
00010000
00000000
00000010
00000000
00000100
00000000
00000001
00000010
00000000
00000001
00000100
00000010
00010000
00000000
00001000
00100000
,
01000000
00000000
10000000
01000000
00100000
00000000
00001000
00010000
00000010
00001000
00000100
00010000
00001000
01000000
00100000
00000000
,
22000000
00000000
00000000
00000000
,
00000000
00000000
00000000
00000000
00000000
00000000
00000000
33000000
,
00202000
00000000
00000000
00000000
00000000
00000000
00000000
00303000
,
00000022
00000000
00000000
00000000
00000000
00000000
00000000
00000033
,
02000200
00000000
00000000
00000000
,
00000000
00000000
00000000
00000000
00000000
00000000
00000000
03000300
,
00200020
00000000
00000000
00000000
00000000
00000000
00000000
00300030
,
00022000
00000000
00000000
00000000
00000000
00000000
00000000
00033000
,
00000001
00000100
00000010
00001000
00000100
00010000
00001000
01000000
,
00010000
00100000
01000000
10000000
00100000
01000000
00001000
00010000
,
00000100
00001000
00000001
00000100
00000010
00001000
00000100
00010000
,
00001000
00100000
00010000
10000000
00100000
01000000
00010000
10000000
,
01000000
00100000
00001000
01000000
00001000
00010000
00000100
00001000
,
00000001
00000100
00000010
00010000
00000100
00010000
00001000
00100000
,
00010000
10000000
00100000
01000000
00001000
00010000
00000100
00001000
,
00000001
00000100
00000010
00001000
00000100
00010000
00001000
01000000
,
00010000
10000000
00010000
01000000
00010000
00100000
00001000
00010000
,
00000100
00001000
00000100
00000010
00000100
00001000
00000100
00010000
,
00001000
01000000
00010000
00100000
01000000
10000000
00100000
01000000
,
00010000
00100000
00001000
00010000
00000010
00001000
00000001
00000010
,
00000001
00000100
00000001
00001000
00000001
00000010
00000100
00010000
,
00001000
01000000
00010000
10000000
00100000
10000000
01000000
00100000
,
00010000
00100000
00001000
00010000
00000010
00000100
00000001
00000010
00000100
00001000
00000100
00010000
00001000
01000000
00010000
10000000
,
00100000
10000000
01000000
00100000
00001000
00010000
00000010
00000100
00000001
00000010
00000100
00010000
00001000
01000000
00010000
10000000
,
02000000
00000000
00000000
00000000
,
00000000
00000000
00000000
00000000
,
03000000
00000000
00000000
00000000
;
