#TITLE:Don't let me down;
#SUBTITLE:;
#ARTIST:BAND-MAID;
#TITLETRANSLIT:;
#SUBTITLETRANSLIT:;
#ARTISTTRANSLIT:;
#GENRE:;
#CREDIT:;
#BANNER:;
#BACKGROUND:;
#LYRICSPATH:;
#CDTITLE:;
#MUSIC:Don't let me down.ogg;
#OFFSET:-1.425000;
#SAMPLESTART:46.256001;
#SAMPLELENGTH:15.000000;
#SELECTABLE:YES;
#BPMS:0.000000=249.999985
;
#STOPS:186.000000=0.960000
;
#BGCHANGES:;
#KEYSOUNDS:;
#ATTACKS:;

//---------------dance-single - ----------------
#NOTES:
     dance-single:
     :
     Hard:
     10:
     0.751012,0.840727,0.379377,0.209045,0.000000,679.000000,630.000000,49.000000,27.000000,0.000000,0.000000,0.751012,0.840727,0.379377,0.209045,0.000000,679.000000,630.000000,49.000000,27.000000,0.000000,0.000000:
// measure 0
0000
0000
0000
0000
,  // measure 1
0000
0000
0000
0000
,  // measure 2
0000
0000
0000
0000
,  // measure 3
0000
0000
0000
0000
,  // measure 4
0000
0000
0000
0000
,  // measure 5
0000
0000
0000
0000
,  // measure 6
0000
0000
0000
0000
,  // measure 7
0000
0000
0000
0000
,  // measure 8
1000
0100
0010
0000
0001
1000
0010
0000
,  // measure 9
1000
0100
0010
0001
0000
1000
0001
0000
,  // measure 10
1000
0010
0100
0000
0001
1000
0100
0000
,  // measure 11
0010
0001
1000
0100
0000
1000
0010
0000
,  // measure 12
0100
0001
1000
0000
0001
0010
0100
0000
,  // measure 13
0010
0001
1000
0010
0000
0100
0001
0000
,  // measure 14
1000
0001
0010
0000
0100
1000
0010
0000
,  // measure 15
0100
0000
0001
1000
0001
1000
0001
1000
,  // measure 16
0010
0000
1000
0000
0010
0100
0010
0000
,  // measure 17
0001
0010
1000
0010
,  // measure 18
0100
0000
0001
0000
0100
0010
0100
0000
,  // measure 19
1000
0000
0100
0000
0001
0000
0100
0010
,  // measure 20
0000
0010
0001
0000
0010
0100
1000
0000
,  // measure 21
0001
0010
0100
0000
0010
0001
1000
0100
,  // measure 22
0000
0100
0010
0000
1000
0001
0100
0000
,  // measure 23
0001
0010
0001
1000
0010
0100
0001
1000
,  // measure 24
0100
0000
0001
0000
0100
0010
0100
0000
,  // measure 25
1000
0100
0001
0100
,  // measure 26
0010
0000
1000
0000
0010
0100
0010
0000
,  // measure 27
0001
0000
0010
0000
1000
0000
0010
0100
,  // measure 28
0000
0100
0010
0000
1000
0001
0100
0000
,  // measure 29
0001
1000
0010
0000
0100
0001
1000
0010
,  // measure 30
0000
0010
0001
0000
0100
0010
0100
0000
,  // measure 31
0010
0000
0110
0000
1000
0100
0010
0001
,  // measure 32
1000
0000
1000
0100
1000
0000
0010
0000
,  // measure 33
0100
0000
0100
0001
0100
0000
0010
0000
,  // measure 34
1000
0000
1000
0001
1000
0000
0100
0000
,  // measure 35
0010
0000
0010
0001
0010
0000
0100
0000
,  // measure 36
2000
0000
3010
0100
0010
0000
0001
0000
,  // measure 37
0010
0000
0100
0001
1000
0000
0001
0000
,  // measure 38
1000
0000
0100
0010
0100
0000
0010
0000
,  // measure 39
0001
0000
1000
0000
0100
0000
1000
0001
,  // measure 40
1001
0000
0100
0010
0100
0000
0010
0000
,  // measure 41
0110
0000
1000
0001
0010
0000
0100
0000
,  // measure 42
1100
0000
0001
1000
0010
0000
0100
0000
,  // measure 43
0101
0000
0100
0001
0010
0000
0100
0000
,  // measure 44
0120
0000
0130
0000
1000
0000
0001
1000
,  // measure 45
0001
0100
0010
1000
,  // measure 46
0011
1100
0202
0303
,  // measure 47
2010
0000
3001
0000
1000
0001
0010
0000
,  // measure 48
1100
0010
1001
0010
,  // measure 49
0102
0000
1003
0000
0001
0010
0100
0000
,  // measure 50
1000
0100
0010
0001
0000
1000
0010
0000
,  // measure 51
0100
0001
0100
0000
0010
1000
0010
0000
,  // measure 52
1000
0100
1000
0000
0001
0010
0001
0000
,  // measure 53
1001
0000
0001
0000
1000
0001
0100
0000
,  // measure 54
0110
0010
1001
0100
,  // measure 55
1002
0000
0013
0000
0100
1000
0100
0000
,  // measure 56
0110
1000
0101
0010
,  // measure 57
2001
0000
3010
0000
0100
0001
1000
0000
,  // measure 58
0001
0010
0100
1000
0000
0100
0010
0000
,  // measure 59
0100
0001
0100
0000
1000
0100
1000
0000
,  // measure 60
0010
1000
0010
0000
0001
0010
0001
0000
,  // measure 61
0010
0000
1000
0100
0010
0001
1000
0100
,  // measure 62
0010
0001
1000
0001
0100
0010
1000
0100
,  // measure 63
0010
0000
0001
0100
0000
0010
1000
0000
,  // measure 64
0001
0010
0000
0200
0010
0000
1300
0000
,  // measure 65
0001
0000
1000
0010
0000
0100
0010
0000
,  // measure 66
1000
0100
0000
2000
0001
0000
3010
0000
,  // measure 67
0100
0000
0001
1000
0000
0001
0010
0000
,  // measure 68
0100
1000
0000
0020
0100
0000
1030
0000
,  // measure 69
0001
0000
1000
0100
0000
1000
0010
0000
,  // measure 70
0100
0001
0000
0020
0100
0000
0031
0100
,  // measure 71
0000
0000
2002
3003
,  // measure 72
1000
0000
0010
0000
1000
0100
1000
0000
,  // measure 73
0001
0100
0001
0000
0010
0001
0010
0000
,  // measure 74
0001
0000
0100
0000
0001
0010
0001
0000
,  // measure 75
1000
0010
1000
0000
0001
0100
0001
0010
,  // measure 76
0000
0010
1000
0000
0001
0100
0010
0000
,  // measure 77
1000
0010
0100
0000
0001
1000
0010
0100
,  // measure 78
0000
0100
1000
0000
0001
1000
0010
0000
,  // measure 79
1000
0100
0010
0001
0100
0010
1000
1000
,  // measure 80
0001
0000
0010
0000
0100
0010
0100
0000
,  // measure 81
1000
0010
1000
0000
0001
0100
0001
0000
,  // measure 82
0010
0000
1000
0000
0010
0001
0010
0000
,  // measure 83
0100
0001
0100
0000
1000
0010
1000
0100
,  // measure 84
0000
0100
0010
0000
1000
0001
0100
0000
,  // measure 85
0010
0100
0001
0000
0100
0001
1000
0010
,  // measure 86
0000
0010
0100
0000
1000
0001
0100
0000
,  // measure 87
0001
0100
0010
1000
0100
0010
0001
1000
,  // measure 88
0020
0000
0030
0100
0010
0000
1000
0000
,  // measure 89
0001
0000
0010
0100
1000
0000
0001
0000
,  // measure 90
0020
0000
0030
0100
0010
0000
0001
0000
,  // measure 91
1000
0000
0001
0100
0010
0000
1000
0000
,  // measure 92
2001
0000
0000
3000
0010
0000
1000
0000
,  // measure 93
0100
0000
1000
0001
1000
0000
0001
0000
,  // measure 94
0010
0000
0000
0100
0010
0000
0100
0000
,  // measure 95
0110
0000
0001
1000
0010
0100
0001
0010
,  // measure 96
0110
0000
1000
0100
0000
1000
0001
0000
,  // measure 97
0101
0000
0001
0100
0000
0001
1000
0000
,  // measure 98
1010
0000
0010
0100
0000
0001
1000
0000
,  // measure 99
1001
0000
1000
0100
0000
0010
0001
0000
,  // measure 100
1002
0000
0000
0003
0010
0000
0100
0000
,  // measure 101
0010
0000
0001
1000
0010
0000
0100
0000
,  // measure 102
0011
0000
0000
1100
0000
0000
1010
0000
,  // measure 103
0001
0100
0010
1000
0001
0010
0100
1000
,  // measure 104
0001
0000
1100
0000
0010
0001
1000
0000
,  // measure 105
1001
0010
1001
0100
,  // measure 106
1002
0000
0103
0000
0001
0010
0100
0000
,  // measure 107
1000
0100
0010
0001
0000
0100
0010
0000
,  // measure 108
0001
0010
1000
0000
0001
0010
0100
0000
,  // measure 109
1000
0100
0001
0000
1000
0010
0100
0000
,  // measure 110
0210
0000
1300
0000
0001
0100
0010
0000
,  // measure 111
0110
0001
1100
0010
,  // measure 112
2001
0000
3001
0000
1000
0100
0010
0000
,  // measure 113
0011
1000
0101
0010
,  // measure 114
1002
0000
1003
0000
0001
0100
0010
0000
,  // measure 115
1000
0010
0100
0001
0000
0010
0100
0000
,  // measure 116
1000
0100
0001
0000
1000
0010
0100
0000
,  // measure 117
0001
0100
1000
0000
0001
0010
0100
0000
,  // measure 118
1001
0000
0001
0010
0100
1000
0100
0010
,  // measure 119
0001
1000
0010
0100
0001
1000
0100
0001
,  // measure 120
0100
0000
0010
0001
0000
1000
0010
0000
,  // measure 121
0100
0000
0010
0002
0000
0000
0023
0000
,  // measure 122
1030
0000
0100
0010
0000
0100
1000
0000
,  // measure 123
0010
0000
0100
2000
0000
0000
3200
0000
,  // measure 124
0310
0000
1000
0100
0000
0010
0100
0000
,  // measure 125
1000
0000
0010
0002
0000
0000
0013
0000
,  // measure 126
1100
0000
0000
0101
0000
0000
1100
0000
,  // measure 127
0011
0000
0000
1010
0000
0000
1100
0000
;

//---------------dance-single - ----------------
#NOTES:
     dance-single:
     :
     Medium:
     8:
     0.547498,0.642909,0.348408,0.526483,0.000000,495.000000,450.000000,45.000000,68.000000,0.000000,0.000000,0.547498,0.642909,0.348408,0.526483,0.000000,495.000000,450.000000,45.000000,68.000000,0.000000,0.000000:
0000
0000
0000
0000
,
0000
0000
0000
0000
,
0000
0000
0000
0000
,
0000
0000
0000
0000
,
0000
0000
0000
0000
,
0000
0000
0000
0000
,
0000
0000
0000
0000
,
0000
0000
0000
0000
,
0010
0000
0001
0100
0000
0001
1000
0000
,
0010
0100
0000
0020
0000
0000
1030
0000
,
0100
0000
0010
0001
0000
1000
0100
0000
,
1000
0010
0000
0200
0000
0000
0310
0000
,
1000
0000
0001
0010
0000
0100
0010
0000
,
0001
1000
0000
0200
0000
0000
1300
0000
,
0010
0000
0100
0001
0000
1000
0001
0000
,
0010
0100
0000
2000
0000
0000
3001
1000
,
0001
0100
0000
0100
,
0000
0100
0000
0100
,
1000
0100
0000
0100
,
0000
0000
0100
0000
0001
0000
0100
0001
,
0000
1000
0001
0000
0010
0000
0100
0000
,
1000
0000
0001
0000
1000
0100
1000
0100
,
0000
1000
0001
0000
0010
0000
0100
0000
,
0010
0000
0001
2000
0000
0000
3000
0000
,
0001
0010
0000
0010
,
0000
0010
1000
0010
,
0001
0010
0000
0010
,
0000
0000
0010
0000
0100
0000
0010
0001
,
0000
1000
0001
0000
0100
0000
0010
0000
,
1000
0000
0100
0000
0010
0001
0010
0001
,
0000
1000
0001
0000
0100
0000
0010
0000
,
1000
0000
0001
0200
0000
0000
0300
0000
,
0010
0010
1000
1000
,
0002
0000
0013
0100
,
0010
0010
0001
0001
,
0200
0000
0310
1000
,
2001
0000
3100
0000
,
0010
0001
0100
0001
,
0010
0000
0000
0100
0000
0000
1000
0000
,
0001
0000
0000
0000
1000
0000
0001
0100
,
0001
0001
0100
0010
,
1000
1000
0100
0010
,
0100
0100
1000
0001
,
0100
0100
0010
1000
,
2001
0000
3100
0010
,
0001
1000
0010
0100
,
0001
1000
1001
0000
,
0011
0010
0100
1000
,
1100
0000
0101
0000
,
1001
1000
0010
0100
,
0002
0103
0020
0000
,
2030
3100
0002
0103
,
2000
3010
0002
0013
,
2000
0100
3100
0010
,
0110
0000
1001
0000
,
0101
0100
0010
1000
,
1001
0000
0110
0000
,
1001
0001
0010
0100
,
2000
3010
0200
0000
,
0302
0013
2000
3010
,
0002
0103
2000
3100
,
0002
0000
1003
0100
1000
0100
1000
0000
,
0002
0023
0230
2300
,
3001
0000
0000
1000
0200
0000
1300
0000
,
0010
0100
0202
0303
,
1000
0000
0000
0001
0200
0000
0301
0000
,
0010
0100
0220
0330
,
1000
0000
0000
0001
0200
0000
1300
0000
,
0100
0001
0022
0033
,
0100
0000
0000
0010
0002
0000
1003
0000
,
0001
0100
0220
0330
,
0000
0000
2002
3003
,
1000
0010
1000
0100
,
1000
0001
1000
0001
,
1000
0010
1000
0100
,
1000
0000
0001
0000
1000
0001
1000
0001
,
0000
0010
0100
0000
0010
0000
0010
0000
,
0001
0000
1000
0000
0001
0100
0001
0100
,
0000
0010
1000
0000
0100
0000
1000
0000
,
0001
0000
0010
0000
0001
1000
0001
1000
,
0100
0010
0100
1000
,
0001
1000
0001
1000
,
0010
0100
0010
1000
,
0001
0000
1000
0000
0001
0010
0001
0010
,
0000
0100
0010
0000
0001
0000
1000
0000
,
0001
0000
0100
0000
0010
1000
0010
1000
,
0000
0001
1000
0000
0100
0000
0010
0000
,
0001
0000
1000
0002
0000
0000
0000
0003
,
2000
0000
3000
0100
1000
0000
0100
0000
,
0020
0000
0000
0031
0000
0000
1000
0000
,
0002
0000
0003
0100
0001
0000
0100
0000
,
0020
0000
0000
1030
0000
0000
1000
0000
,
0200
0000
0000
0300
0000
0000
0010
0000
,
0001
0010
0100
1000
,
0001
0000
0000
0001
0000
0000
1000
0000
,
0020
0000
0130
0001
,
1000
0000
0000
1100
0000
0000
1100
0000
,
0001
0000
0000
0101
0000
0000
0101
0000
,
0010
0000
0000
0110
0000
0000
0110
0000
,
1000
0000
0000
1001
0000
0000
1001
0000
,
0020
0000
0130
0100
,
0001
1000
0001
0010
,
0100
0000
0000
0100
0000
0000
0100
0000
,
0010
0100
1001
0000
,
0101
0100
0010
1000
,
1001
0000
0110
0000
,
1001
1000
0100
0010
,
0012
1000
0200
0303
,
0020
1030
0200
0301
,
0200
1300
0020
0031
,
0020
0100
0130
0001
,
1001
0000
0110
0000
,
0101
0100
0010
1000
,
1001
0000
0110
0000
,
1001
0001
0010
0100
,
2100
0001
0020
3030
,
0200
0301
0020
1030
,
0020
0031
0200
1300
,
0200
0000
0010
0000
0310
0100
0010
0000
,
2000
3200
0320
0032
,
1003
0000
0000
0001
0010
0000
0100
0000
,
0010
0001
0000
0010
0001
0000
1000
0000
,
0010
0000
0000
0100
0010
0000
1000
0000
,
0001
1000
0000
0001
1000
0000
0100
0000
,
0010
0000
0000
0001
0010
0000
1000
0000
,
0010
0100
0000
0010
0100
0000
1000
0000
,
1010
0000
0000
1010
0000
0000
1010
0000
,
0101
0000
0000
0011
0000
0000
1100
0000
;

//---------------dance-single - ----------------
#NOTES:
     dance-single:
     :
     Easy:
     5:
     0.378271,0.494546,0.363893,0.123878,0.000000,342.000000,295.000000,47.000000,16.000000,0.000000,0.000000,0.378271,0.494546,0.363893,0.123878,0.000000,342.000000,295.000000,47.000000,16.000000,0.000000,0.000000:
0000
0000
0000
0000
,
0000
0000
0000
0000
,
0000
0000
0000
0000
,
0000
0000
0000
0000
,
0000
0000
0000
0000
,
0000
0000
0000
0000
,
0000
0000
0000
0000
,
0000
0000
0000
0000
,
1000
0100
0000
1000
,
0000
0001
0000
0010
,
0001
0010
0000
0100
,
0000
1000
0000
0001
,
0100
0001
0000
1000
,
0000
0010
0000
0100
,
0001
1000
0000
0001
,
0010
0100
1000
0001
,
1000
0010
0000
0010
,
0000
0010
0000
0010
,
0000
0100
0000
0100
,
0000
0100
0000
0100
,
0000
0001
1000
0001
,
1000
0001
0010
0100
,
0000
1000
0100
1000
,
0001
0100
0010
0000
,
0100
0010
0000
0010
,
0000
0010
0000
0010
,
0000
0100
0000
0100
,
0000
0100
0000
0100
,
0000
0001
1000
0001
,
1000
0001
0010
0100
,
0000
1000
0100
0010
,
0001
1000
0001
0000
,
0100
0000
0100
0000
,
0010
0000
0010
0000
,
1000
0000
1000
0000
,
0001
0000
0001
0000
,
0020
0000
0030
0000
,
0100
0100
0100
0000
,
1000
0000
0001
1000
,
0001
0000
0000
0000
,
0101
0000
0100
0000
,
0110
0000
0010
0000
,
1010
0000
1000
0000
,
1001
0000
0001
0000
,
0022
0033
0000
0000
,
0001
0010
0100
1000
,
0001
0001
0001
0000
,
1001
0000
1000
0001
,
0100
0000
0010
0000
,
0110
0000
0001
0000
,
1000
0100
0010
0000
,
0110
0000
1001
0000
,
0110
0000
1001
0000
,
0110
0000
0001
1000
,
0001
0000
0100
0000
,
0110
0000
1000
0001
,
1000
0000
0100
0000
,
0110
0000
0001
0000
,
2000
0000
3010
0000
,
0110
0000
1001
0000
,
0110
0000
1001
0000
,
0220
0000
0330
0000
,
0000
0000
0000
0000
,
1000
0000
1100
0000
,
0001
0000
0101
0000
,
1000
0000
1010
0000
,
0001
0000
0011
0000
,
0010
0000
1100
0000
,
0010
0000
0101
0000
,
1000
0000
0110
0000
,
0001
0000
0110
0000
,
0000
0000
0000
0000
,
1000
0010
1000
0000
,
0001
0000
0001
0000
,
0001
0010
0001
0000
,
1000
0000
1000
0000
,
0010
0100
0010
1000
,
0001
1000
0001
0000
,
0010
0100
0010
0001
,
1000
0001
1000
0000
,
0001
0100
0001
0000
,
1000
0000
1000
0000
,
1000
0010
1000
0000
,
0001
0000
0001
0000
,
0010
0100
1000
0100
,
0010
0001
1000
0000
,
0010
0100
0001
0100
,
0010
1000
0001
0000
,
2000
0000
3100
1000
,
0200
0000
0310
0100
,
0020
0000
0031
0010
,
0002
0000
1003
0001
,
2000
0000
3000
0000
,
0001
0100
0010
0000
,
1000
0000
0001
1000
,
1001
0000
0000
0000
,
0002
0000
0013
0100
,
0020
0000
0130
1000
,
0200
0000
1300
0001
,
2000
0000
3001
0100
,
0020
0000
0030
0000
,
1000
0001
1000
0000
,
0010
0000
0000
0010
0000
0000
0010
0000
,
0100
0000
0010
0000
,
0110
0000
0001
1000
,
0100
0000
0010
0000
,
0110
0000
1000
0000
,
0001
0100
0010
0000
,
1010
0000
0101
0000
,
0011
0000
1100
0000
,
1001
0000
0001
1000
,
0100
0000
0110
0000
,
1001
0000
1000
0001
,
0100
0000
0110
0000
,
1001
0000
0001
0000
,
1000
0100
0010
0000
,
0011
0000
1100
0000
,
1010
0000
0101
0000
,
1001
0000
0100
0000
,
0010
0010
0010
0000
,
0110
0000
0001
0000
,
1000
0100
0010
0000
,
0110
0000
1000
0000
,
0001
0100
0010
0000
,
0110
0000
0001
0000
,
1000
0100
0010
0000
,
0001
0000
0000
0001
0000
0000
0001
0000
,
1000
0000
0000
1000
0000
0000
1000
0000
;
