#TITLE:7thSense;
#SUBTITLE:;
#ARTIST:削除;
#TITLETRANSLIT:;
#SUBTITLETRANSLIT:;
#ARTISTTRANSLIT:Sakuzyo;
#GENRE:;
#CREDIT:TiKAL+;
#MUSIC:[Round G] - 7thSense.ogg;
#BANNER:[Round G] - 7thSense.png;
#BACKGROUND:[Round G] - 7thSense-bg.png;
#CDTITLE:cdtitle.png;
#SAMPLESTART:79.859;
#SAMPLELENGTH:22.900;
#SELECTABLE:YES;
#OFFSET:-0.059;
#BPMS:0.000=150.000
,136.000=300.000
,151.500=150.000
,151.750=300.000
,156.000=75.000
,156.188=150.000
,156.375=300.000
,157.125=150.000
,157.313=75.000
,157.688=150.000
,157.875=300.000
,158.625=150.000
,158.813=75.000
,159.000=300.000
,161.500=150.000
,162.000=300.000
,166.500=150.000
,167.000=300.000
,171.000=150.000
,197.000=112.500
,198.500=150.000
,235.000=300.000
,241.000=100.000
,241.500=300.000
,243.000=150.000
,250.000=600.000
,250.250=300.000
,250.500=150.000
,250.688=75.000
,251.000=600.000
,251.250=300.000
,251.500=150.000
,251.688=75.000
,252.000=600.000
,252.250=300.000
,252.500=150.000
,252.688=75.000
,253.000=600.000
,253.250=300.000
,253.500=150.000
,253.688=75.000
,254.000=600.000
,254.250=300.000
,254.500=150.000
,254.688=75.000
,255.000=600.000
,255.250=300.000
,255.500=150.000
,255.688=75.000
,256.000=600.000
,256.250=300.000
,256.500=150.000
,256.688=75.000
,257.000=150.000
;
#STOPS:136.000=0.150
,136.750=0.150
,137.500=0.150
,138.250=0.150
,139.000=0.100
,139.500=0.100
,140.000=0.050
,140.250=0.050
,140.500=0.050
,140.750=0.050
,141.000=0.150
,141.750=0.150
,142.500=0.150
,143.250=0.150
,144.000=0.100
,144.500=0.100
,145.000=0.100
,145.500=0.100
,146.000=0.150
,146.750=0.150
,147.500=0.100
,148.000=0.100
,148.500=0.100
,149.000=0.100
,149.500=0.100
,150.000=0.100
,150.500=0.100
,151.000=0.100
,151.750=0.150
,152.500=0.150
,153.250=0.150
,154.000=0.100
,154.500=0.100
,155.000=0.050
,155.250=0.050
,155.500=0.050
,155.750=0.050
,159.000=0.100
,159.500=0.100
,160.000=0.050
,160.250=0.050
,160.500=0.100
,161.000=0.100
,162.000=0.100
,162.500=0.100
,163.000=0.200
,164.000=0.100
,164.500=0.100
,165.000=0.100
,165.500=0.100
,166.000=0.100
,167.000=0.100
,167.500=0.100
,168.000=0.067
,168.333=0.066
,168.667=0.067
,169.000=0.100
,169.500=0.100
,170.000=0.100
,170.500=0.100
,235.000=0.150
,235.750=0.150
,236.500=0.150
,237.250=0.150
,238.000=0.050
,238.250=0.100
,238.750=0.150
,239.500=0.150
,240.250=0.150
,241.500=0.050
,241.750=0.050
,242.000=0.050
,242.250=0.050
,242.500=0.050
,242.750=0.050
;
#DISPLAYBPM:150.000;
#ORIGIN:;
#PREVIEWVID:;
#JACKET:7thSense-jacket.png;
#CDIMAGE:;
#DISCIMAGE:;
#BGCHANGES:0.000=7thSense.avi=1.000=0=0=0=StretchNoLoop==CrossFade_Fastest==,
99999.000=-nosongbg-=1.000=0=0=0=StretchNoLoop====
;
#FGCHANGES:;

//--------------- dance-single - TiKAL ----------------
#NOTES:
     dance-single:
     TiKAL:
     Hard:
     9:
     0,0,0,0,0:
0000
0000
0000
0000
,
0000
0000
0000
0000
,
0000
0000
0000
0000
,
0000
0000
0000
0000
,
0000
0000
0000
0000
,
0000
0000
1000
0100
0000
0010
0000
0100
,
0000
1000
0000
0100
0000
0010
0001
0000
,
1000
0010
0000
0100
0000
0010
0000
1000
,
0000
0010
0000
0100
0001
1000
0001
0010
,
0000
0100
0000
0010
0000
0001
0000
0010
,
0000
0100
1000
0000
0001
0100
0000
0010
,
0000
0100
0000
0001
0000
0100
0000
0010
,
1000
0001
2000
0000
3010
0000
0002
0000
,
0013
0000
2000
0000
3100
0010
0001
1000
,
0001
0200
0310
0200
,
1300
0000
0200
0000
0310
1000
0002
0000
,
0013
2000
3010
0002
,
0103
0010
1000
0001
1000
0000
0200
0000
,
0301
0000
0200
0000
0310
0000
0100
1000
,
0001
1000
0000
0000
0000
0000
0000
0000
,
0001
0000
0100
0000
0010
0100
0000
0000
0100
0000
0000
0100
0001
1000
0000
0100
,
1000
0000
0010
0000
0100
0010
0000
0000
0010
0000
0010
0000
1000
0000
0100
0000
,
0010
0100
0000
0000
0100
0000
0000
0100
1000
0001
0000
0100
0001
0000
0010
0000
,
0100
0010
0000
0000
0010
0000
0010
0000
0001
0000
1000
0000
0010
1000
0000
0000
,
1000
0000
0000
1000
0100
1000
0000
1000
0001
0000
0010
0000
0100
0010
0000
0000
,
0010
0000
0010
0001
1000
0000
0001
0000
0010
0001
0000
0000
0001
0000
0000
0001
,
0100
0001
0000
0001
1000
0000
0001
0000
0010
0100
0000
1000
0000
0001
1000
0001
,
1000
0000
0010
0000
0100
0010
0000
0100
0010
0000
1000
0001
0000
1000
0001
1000
,
0000
0000
0001
0000
0010
0000
0100
0000
1000
0000
0001
1000
0001
0000
0010
0000
,
0100
0010
0000
0100
0010
0000
0001
1000
0000
0001
1000
0001
0000
0000
1000
0000
,
0010
0000
0100
0001
1000
0000
1000
0000
0001
0000
0010
0000
0100
0010
0000
1000
,
0010
0000
0001
1000
0000
0001
1000
0001
0000
0000
1000
0000
0010
0000
0100
0000
,
0001
1000
0001
0000
1000
0000
0010
0000
0100
0010
0000
1000
0000
0001
0010
0000
,
0100
0000
1000
0000
0000
0000
0001
0000
0100
0010
1000
0001
0000
0000
0000
0000
,
0101
0000
0000
0101
0000
0000
1100
0000
0000
1100
0000
0000
1001
0000
1001
0000
,
0000
0000
0000
0000
0011
0000
0000
0011
0000
0000
1010
0000
0000
1010
0000
0000
,
1001
0000
1001
0000
0000
0000
0000
0000
0011
0000
0000
0110
0000
0000
1100
0000
,
0001
0000
1000
0000
1001
0000
1001
0000
0000
0000
0000
0000
1010
0000
0000
0110
,
0000
0000
0101
0000
0000
0110
0000
0000
1001
0000
1001
0000
0000
0000
0000
0000
,
0011
0000
0000
0101
0000
0000
1010
0000
0000
1100
0000
0000
1001
0000
1001
0000
,
0000
0000
1100
0000
0001
0100
0001
0000
,
1001
0000
1001
0000
0000
0000
0000
0000
0101
0000
0001
1000
0100
0000
0010
0000
,
0001
0000
1000
0000
0001
0000
1001
0000
0000
1001
0000
0000
0000
0000
0000
0000
0000
0000
2000
0000
0000
0000
0000
0000
,
0000
0000
0000
0000
0000
3002
0003
0000
,
1000
0000
1000
0100
0000
0100
0010
0000
,
0010
0001
0100
0010
1000
0010
0001
1000
,
0100
0001
1000
0100
0001
1000
0010
0001
,
1000
0000
1000
0010
0000
0010
0100
0000
,
0001
1000
0100
0010
0002
0000
0000
0000
,
0000
0000
2000
0000
0000
3003
0000
0000
,
1100
0000
0001
0010
0100
1000
0001
0101
,
0000
1000
0100
0010
0001
1000
1010
0000
,
0001
0100
0010
1000
0001
0011
0000
0110
,
0000
0000
1000
0000
0001
0000
1000
0000
0010
0000
0100
0000
0010
0100
0000
0010
,
0000
1000
0001
0010
0100
1000
0001
1000
,
0010
0000
0100
0000
0110
0000
0000
0001
0000
0000
0101
0000
0000
1000
0000
0000
,
1100
0000
0000
1001
0000
0000
0110
0000
0000
1001
0000
0000
1000
0000
0001
0000
,
0101
0000
1000
0010
0100
0001
1000
1100
,
0000
0000
0001
0000
0100
0000
0010
0000
1000
0000
0001
0000
1000
0000
0000
1010
,
0000
0000
0101
0000
0000
1010
0000
0000
0001
0000
0000
0011
0000
0000
1100
0000
,
0000
0000
0002
0003
0000
0000
0000
0000
0000
0000
0000
0000
1000
0000
0001
0000
1000
0000
0001
0000
1000
0000
0001
0000
1000
0000
0000
0000
0000
0000
0000
0000
,
0100
0010
0000
0001
1000
0020
0000
0000
,
0001
0000
0100
0030
1010
0000
1010
0000
,
0101
0101
0011
0011
,
1100
0000
0001
0100
0000
0010
0000
0100
,
0000
0001
0000
0100
0000
0010
1000
0000
,
0001
0010
0000
0100
0000
0010
0000
0001
,
0000
0010
0000
0100
1000
0001
1000
0010
,
0000
0100
0000
0010
0000
1000
0000
0010
,
0000
0100
0001
0000
1000
0100
0000
0010
,
0000
0100
0000
1000
0000
0100
0000
0010
,
0001
1000
0002
0000
0013
0100
0000
1000
,
0100
0020
0000
0001
0000
0130
1000
0001
,
0200
0000
0300
0110
0000
1010
0000
1001
,
0000
0011
0000
0001
0010
0100
2000
0000
,
3010
0100
0000
0001
0010
0200
0000
1000
,
0000
0000
0310
0000
0001
0000
0000
0000
2000
0000
0000
3020
0000
0000
0230
0000
,
0000
0302
2003
3200
0000
0320
0000
0032
,
1003
0010
0100
0001
0000
0000
0000
0000
0000
0000
0000
0000
0000
0000
0000
0000
;

//--------------- dance-single - TiKAL ----------------
#NOTES:
     dance-single:
     TiKAL:
     Challenge:
     11:
     0,0,0,0,0:
0000
0000
0000
0000
,
0000
0000
0000
0000
,
0000
0000
0000
0000
,
0000
0000
0000
0000
,
0000
0000
0000
0000
,
0000
0000
1000
0010
0000
0110
0000
0101
,
0000
1001
0000
0011
0000
0001
1000
0000
,
0001
0100
0000
0110
0000
1010
0000
1001
,
0000
0000
1100
0000
0000
0000
1000
0000
0001
0010
0100
1000
0001
0000
0010
0000
,
0000
0110
0000
1100
0000
1001
0000
1010
,
0000
1000
0001
0000
1000
0100
0000
0110
,
0000
0000
0011
0000
0000
0000
1001
0000
0000
0000
0101
0000
0000
0000
0001
1000
,
0010
0100
0001
0100
0020
0000
0000
0000
0000
0000
1000
0000
0000
0000
0130
0001
,
1000
0000
0200
0000
0000
0000
0310
0000
0100
0000
2000
0000
0000
0000
3001
0010
,
0200
0000
0000
1300
0000
1010
0000
1001
,
0000
0000
0011
0000
0000
0000
0001
0010
0100
0000
1000
0010
0200
0000
0000
0000
,
0000
0001
0000
0310
1000
0002
0000
0013
,
0100
1000
0002
0000
0203
0000
0300
0110
,
0000
0101
0000
1001
0000
1100
0000
0001
,
0010
0100
000M
0000
00M0
0000
0M00
0000
,
1000
0000
0010
0000
0100
0010
1000
0000
0100
0000
0010
0100
1000
0100
0010
0100
,
1000
0000
0001
0000
1000
0001
0100
0000
0010
0000
0010
1000
0001
0000
0010
0000
,
0100
0010
0001
0000
0100
0000
0010
0100
0001
0100
0010
0100
0001
0000
1000
0000
,
0001
1000
0100
0000
0010
0000
0010
0001
1000
0000
0100
0000
0010
0100
1000
0000
,
0010
0000
0100
0010
1000
0010
0100
0010
1000
0000
0001
0000
1000
0001
0010
0000
,
0100
0000
0100
1000
0001
0000
0100
0000
0010
0100
0001
0000
0010
0000
0100
0010
,
0001
0010
0100
0010
0001
0000
1000
0000
0010
0100
0000
0001
1000
0001
0010
0100
,
1000
0000
0010
0000
0100
0010
0000
001M
M010
0000
0001
0010
0100
0010
0001
0010
,
0100
0000
1000
0000
0010
1000
0001
1000
0100
0010
0100
1000
0001
0000
0010
0000
,
0100
0010
0000
M010
001M
0000
1000
0010
0100
0010
1000
0010
0100
0000
0001
0000
,
0010
0001
1000
0001
0100
0010
2000
0000
3001
0000
0100
0000
0010
0100
0000
M100
,
010M
0000
1000
0100
0010
0100
1000
0100
0010
0000
0001
0000
0100
0001
1000
0001
,
0010
0100
0010
0001
1000
0000
0100
0000
0010
0001
0000
0100
0000
0100
0010
1000
,
0001
0010
0100
1000
0000
0000
0001
0000
0010
0100
0010
0001
M000
0M00
00M0
000M
,
1100
0000
0000
0101
0000
0000
0011
0000
0000
1010
0000
0000
1001
0000
1001
0000
,
M000
M000
M000
000M
0101
0000
0000
1100
0000
0000
1010
0000
0000
0011
0000
0000
,
1001
0000
1001
0000
0MM0
0000
M00M
0000
0011
0000
0000
1010
0000
0000
1100
0000
,
0101
0000
0000
0000
0101
0000
0000
0000
1001
0000
0000
0000
1001
0000
0000
0000
0020
0000
0000
0000
0230
0000
0300
0000
0110
0000
0000
0000
0001
1000
0001
0000
,
0000
0000
0101
0000
0000
1100
0000
0000
1001
0000
1001
0000
M000
00M0
0M00
000M
,
2020
3030
0000
0202
0303
0000
0022
0033
0000
2200
3300
0000
1001
0000
1001
0000
,
000M
000M
M000
0000
1100
0000
0001
0100
0001
0000
0011
0000
1010
0000
0000
0000
,
1001
0000
0000
0000
1001
0000
0000
0000
0MM0
0000
0000
0000
M00M
0000
0000
0000
0011
0000
0000
0000
0001
0010
0100
1000
0001
0000
0000
0000
0100
0000
0000
0000
,
0010
0000
0000
0000
0100
0000
0000
0000
0010
0000
0000
0000
1001
0000
0000
0000
0000
0000
1001
0000
0000
0000
0000
0000
0100
0000
0000
0000
0000
0000
0110
0000
0000
0000
0000
0000
0002
0000
0000
0000
0000
0000
0000
0000
0000
0203
0000
0000
,
0000
0000
0320
0000
0000
2030
0000
0000
3200
0000
0340
0000
0030
0000
0000
0000
,
1001
0000
0000
0001
0100
0001
1000
0000
0100
1000
0100
0010
0001
0000
1000
0000
,
0010
0100
0010
0000
1000
0010
0000
0100
0001
0000
1000
0000
0100
0010
0100
0000
,
1000
0001
0100
0001
1000
0000
0010
0000
0100
0001
1000
0000
0100
0010
0000
0001
,
1000
0000
0100
0010
0100
1000
0001
0000
0100
0010
0100
0001
1000
0000
0100
0000
,
0010
0001
1000
0000
0010
0100
0001
1000
0002
0000
0000
0000
0000
0000
0000
0000
,
0000
0000
0000
0000
0000
0000
1003
0000
0001
0000
2000
0000
0002
0000
0000
0000
0000
0000
0000
0000
0000
0000
0000
0000
0000
0000
0000
0000
3003
0000
MMMM
0000
0000
0000
0000
0000
1000
0000
0000
0100
0000
0000
0010
0000
0000
0001
0000
0000
,
1000
0000
0010
0100
0010
0000
1000
0000
0001
0010
0100
1000
0100
0010
0001
0000
,
0100
0010
0100
0000
0001
0000
1000
0000
0100
0010
0001
1000
0001
0000
1000
0010
,
1000
0000
0001
0100
0010
1000
0010
0100
0001
1000
0001
0000
1000
0010
1000
0000
,
1001
0000
0001
0010
0100
0000
0110
0000
1000
0001
0010
0100
1000
0001
0100
0010
,
0000
0010
1000
0001
1000
0100
0010
0100
1000
0000
0100
0010
0001
1000
0001
0100
,
0010
1000
0000
0001
1000
0100
0010
0100
1000
0001
1000
0010
0100
0010
1000
0001
,
0010
0100
0010
0001
1000
0001
0100
0010
0100
0001
0100
0010
1000
0010
0100
0001
,
1000
0000
0100
0010
0100
0000
1000
0000
0001
0100
0010
1000
0010
0100
0001
0000
,
0010
0100
1000
0010
0100
0000
0001
0010
0100
0000
1000
0001
0100
0000
0000
0101
,
0000
0000
1100
0000
0000
1001
0000
0000
1000
0001
0000
0011
0000
0000
1010
0000
,
0000
0000
4000
3000
0000
0000
0000
0000
0001
0000
0000
0000
1000
0000
0100
0000
0010
0000
0001
0000
0010
0000
0100
0000
1000
0000
0001
0000
0100
0000
0001
0000
,
1000
0000
0001
0010
0100
1000
0001
0000
1000
0010
0200
0000
0000
0000
0000
0000
,
0001
0000
1000
0300
0110
0000
1010
0000
,
1001
0011
1100
0101
,
0110
0000
1000
0100
0000
0110
0000
0011
,
0000
1001
0000
0101
0000
0001
1000
0000
,
0001
0010
0000
0110
0000
1100
0000
1001
,
0000
0000
1010
0000
0000
0000
1000
0000
0001
0100
0010
1000
0001
0000
0100
0000
,
0000
0110
0000
1010
0000
1001
0000
1100
,
0000
1000
0001
0000
1000
0010
0000
0110
,
0000
0000
0101
0000
0000
0000
1001
0000
0000
0000
0011
0000
0000
0000
0001
1000
,
0100
0010
0001
0010
0100
0000
1000
0001
0100
0000
0010
0100
0010
1000
0001
1000
,
0100
0010
0001
0000
1000
0001
0100
0010
1000
0001
0010
0001
1000
0010
1000
0001
,
1000
0000
0001
1000
0100
0000
0010
0100
0010
0001
1000
0001
0100
0010
1000
0000
,
0001
1000
0100
0010
0001
1000
0010
1000
0001
0010
0001
1000
0010
0000
1000
0001
,
0010
0000
0100
0010
0100
1000
0001
1000
0010
0100
0001
0000
1000
0001
0010
0100
,
1000
0001
0100
0001
1000
0100
1000
0001
2000
0000
0000
3020
0000
0000
0230
0000
,
0000
0302
2003
3200
0000
0320
0000
0032
,
1003
0010
0100
0001
0000
0000
0000
0000
0000
0000
0000
0000
0000
0000
0000
0000
;
