#TITLE:aurora;
#SUBTITLE:;
#ARTIST:el'z;
#TITLETRANSLIT:;
#SUBTITLETRANSLIT:;
#ARTISTTRANSLIT:;
#GENRE:Electronic Rock;
#CREDIT:;
#MUSIC:[Round F] - aurora.ogg;
#BANNER:[Round F] - aurora banner.png;
#BACKGROUND:[Round F] - aurora background.png;
#CDTITLE:;
#SAMPLESTART:39.695;
#SAMPLELENGTH:15.496;
#SELECTABLE:YES;
#OFFSET:-0.046;
#BPMS:0.000=121.000
,162.000=173.500
,163.000=121.000
;
#STOPS:78.500=0.492
,162.000=0.150
;
#DISPLAYBPM:121.000;
#BGCHANGES:;
#FGCHANGES:;

//--------------- dance-single - forcednature ----------------
#NOTES:
     dance-single:
     forcednature:
     Beginner:
     2:
     0,0,0,0,0:
0000
0000
0000
0000
,
0000
0000
0000
0000
,
0000
0000
0000
0000
,
0000
0000
0000
0000
,
0010
0000
0100
0000
,
0001
0000
1000
0000
,
0100
0000
0010
0000
,
0001
0000
1000
0000
,
0010
0000
0010
0000
,
0100
0000
0100
0000
,
0001
0000
1000
0000
,
0110
0000
0000
0000
,
1000
0000
0001
0000
,
1000
0000
0100
0000
,
0010
0000
0001
0000
,
0100
0000
0000
0000
,
1010
0000
0100
0000
,
0011
0000
0100
0000
,
1001
0000
0000
0000
,
0010
0010
0010
0000
,
0100
0000
0001
0000
,
1000
0000
0100
0000
,
0010
0000
0100
0000
,
1000
0000
0001
0000
,
1000
0000
0010
0000
,
0100
0000
0001
0000
,
0010
0000
0100
0000
,
1000
0000
0001
0010
,
0000
0100
0000
1000
,
0000
0001
0000
0100
,
0000
0100
0000
0010
,
0000
0000
0000
1001
,
0000
0000
0000
1100
,
0000
0000
0000
0011
,
0000
0000
0000
0110
,
0000
0000
0000
1010
,
0000
0000
0000
0101
,
0000
0000
0000
1100
,
0000
0000
0000
0101
,
0000
0000
0000
1001
,
0000
0000
0000
0000
,
0010
0000
0010
0000
,
0100
0000
0100
0000
,
1000
0000
1000
0000
,
0001
0000
0001
0000
,
1000
0000
0100
0000
,
0010
0000
0001
0000
,
0100
0000
0001
0000
,
1000
0000
0010
0100
,
0000
0100
0001
0100
,
0000
1000
0010
1000
,
0000
0001
0010
0001
,
0000
1000
0100
1000
,
0000
0001
0100
0001
,
0000
1000
0010
1000
,
0000
0001
0010
0001
,
0000
0000
0000
1001
;

//--------------- dance-single - forcednature ----------------
#NOTES:
     dance-single:
     forcednature:
     Easy:
     4:
     0,0,0,0,0:
0000
0000
0000
0000
,
0000
0000
0000
0000
,
0000
0000
0000
0000
,
0000
0000
0000
0000
,
1000
1000
1000
1000
,
0001
0001
0001
0001
,
0100
0100
0100
0100
,
0010
0010
0010
0000
,
1100
0010
0001
0100
,
0101
1000
0010
0001
,
1001
0010
1000
0100
,
0010
0010
0100
1000
,
1001
0001
0100
0010
,
1000
0100
0010
0001
,
0000
0100
0010
1000
,
0001
0010
0100
0000
,
1100
0000
0011
0000
,
0101
0000
1010
0000
,
2002
0000
0000
3003
,
0100
0000
0100
0000
0100
0100
1000
0000
,
0001
0100
0001
1000
,
0001
0100
0001
1000
,
0100
1000
0001
1000
,
0100
1000
0001
0010
,
0001
1000
0001
0010
,
0001
1000
0001
1000
,
0010
1000
0001
1000
,
0010
1000
0000
0100
,
0011
1000
0000
0010
,
1001
0100
0000
1000
,
0110
0001
0000
0010
,
1100
0001
0000
0201
,
0000
0010
0300
1200
,
0000
0010
0300
2001
,
0000
0100
3000
1002
,
0000
0010
0003
2100
,
0000
0010
3000
0102
,
0000
0010
0003
1020
,
0000
0001
0030
0021
,
0000
1000
0030
2002
,
0000
3003
0010
1000
,
0001
1000
0100
0010
,
0001
1000
0001
1000
,
0100
0010
0001
1000
,
0001
1000
0010
0100
,
0001
1000
0001
1000
,
0010
0100
0001
1000
,
0100
0001
0010
1000
,
0100
0001
0010
0000
,
0100
1001
0010
0000
,
1000
0011
0100
0000
,
0001
1010
0100
0000
,
1000
0110
0001
0000
,
0010
1100
0001
0000
,
0100
1001
0010
0000
,
0001
0110
1000
0000
,
0010
0010
0010
1001
;

//--------------- dance-single - forcednature ----------------
#NOTES:
     dance-single:
     forcednature:
     Medium:
     5:
     0,0,0,0,0:
0000
0000
0000
0000
,
0000
0000
0000
0000
,
0000
0000
0000
0000
,
0000
0000
0000
0000
,
1000
0100
1000
0000
0010
0000
0010
0000
,
0001
0100
0001
0000
0010
0000
0010
0000
,
0100
0001
0100
0000
1000
0000
1000
0000
,
1001
0100
0100
1001
,
0001
0010
0100
0000
1000
0000
0001
0000
,
1000
0010
0100
0000
0001
0000
0010
0000
,
0100
1000
0001
0000
0100
0000
0001
0000
,
1000
0100
0010
0000
0100
0100
0100
0000
,
1000
0001
1000
0010
,
0100
0000
0001
0000
0010
0000
0100
1000
,
0001
0100
0001
1000
,
0010
0010
0020
0030
,
0100
0001
1000
0100
,
1000
0100
0001
0100
,
1100
1001
0011
0000
,
0101
0000
0110
0000
1000
0010
1000
0000
,
0011
0001
1010
1000
,
0101
0000
0000
0000
0001
0000
0000
0000
1100
0000
0000
0000
0001
0000
0000
1000
,
0000
0010
0000
0000
1000
0000
0001
0000
,
0010
0100
1000
0001
,
1100
1000
0101
1000
,
0011
0000
0000
0000
0001
0000
0000
0000
1010
0000
0000
0000
0001
0000
0000
1000
,
0000
0010
0000
0000
0000
0000
1000
0000
,
0001
0010
0100
1000
,
0001
0000
0100
0001
0100
0000
0010
0000
,
1000
0000
0100
0010
0001
0000
1000
0000
,
0001
0000
1000
0100
0001
0000
1000
0000
,
0010
0000
0100
0010
0001
0000
0200
0000
,
0000
0310
1000
0000
0000
0000
0020
0000
,
0000
0031
0100
0000
0000
0000
2000
0000
,
0000
3001
0100
0000
0000
0000
0002
0000
,
0000
1003
0010
0000
0000
0000
0102
0000
,
1000
0000
0010
0003
0000
0000
2100
0000
,
0001
0000
0010
3000
0000
0000
0120
0000
,
0001
0000
1000
0030
0000
0000
0210
0000
,
1000
0000
0001
0300
0000
0000
1000
0000
,
0100
0001
1001
0001
,
0101
1000
1010
0001
,
0011
0000
0000
0000
1000
0000
0000
0000
1100
0000
0000
0000
1000
0000
0000
0100
,
0000
0010
0000
0000
0101
0000
1000
0000
,
0011
0001
1010
0100
,
1001
0010
1001
1000
,
0011
0000
0000
0000
0001
0000
0000
0000
1100
0000
0000
0000
0001
0000
0000
1000
,
0000
0100
0000
0000
0011
0000
1000
0000
,
0110
0001
1010
0100
,
0001
0000
1000
0100
1000
0000
0001
0000
,
0010
0000
0100
1000
0001
0000
0100
0000
,
0001
0000
1000
0010
0100
0000
0001
0000
,
0010
0000
0100
1000
0010
0000
1001
0000
,
0001
0000
1000
0100
0010
0000
1001
0000
,
0010
0000
0100
0001
0010
0000
1001
0000
,
0100
0000
1000
0010
0100
0000
1000
0010
,
0010
0000
0100
0100
0000
0001
1001
0000
;

//--------------- dance-single - forcednature ----------------
#NOTES:
     dance-single:
     forcednature:
     Hard:
     7:
     0,0,0,0,0:
0000
0000
0000
0000
,
0000
0000
0000
0000
,
0000
0000
0000
0000
,
0000
0000
0000
0000
,
0001
0010
0001
1000
0100
1000
0001
0000
,
1000
0001
0100
0001
1000
0010
1000
0000
,
0001
0010
0100
1000
0100
0010
0001
0000
,
1000
0010
0100
0001
0100
0010
1000
0000
,
1001
0000
0000
1000
0000
0000
0100
0000
0010
0000
0001
0000
1000
0000
0000
0000
,
1001
0000
0000
0001
0000
0000
0100
0000
0010
0000
0100
0000
0001
0000
0000
0000
,
1100
0000
0000
1000
0000
0000
0001
0000
0010
0000
0100
0000
1000
0000
0000
0000
,
0001
0000
0100
0000
0001
1000
0000
0000
0100
0000
1000
0001
0000
0010
0001
0000
,
1000
0000
0100
1000
0001
1000
0010
0100
,
0001
0010
0100
1000
0100
0001
0100
1000
,
0000
0010
0100
0001
1000
0100
0010
0001
,
1000
0010
0100
0001
0010
0100
1000
0100
,
0000
1000
0001
0100
0000
0010
1000
0001
,
0000
0010
0100
1000
0000
0010
0100
0001
,
1002
0000
0000
0010
0000
0000
0100
0000
0000
0003
1000
0000
0001
0000
0000
0000
,
1000
0000
0010
0000
1000
0000
0100
0000
0010
0001
0010
0000
0001
0000
0010
0000
,
0100
1000
0100
0001
0100
1000
0000
0010
,
0100
0000
0001
0000
1000
0000
0100
0000
0010
0000
0001
0000
0100
0000
0000
0010
,
0000
0000
1000
0000
0000
0000
0001
0000
1000
0000
0001
0000
0100
0000
0000
0010
,
0000
0000
1000
0000
0100
0000
0000
0010
0000
0000
0000
0000
0001
0000
0010
0000
,
0100
1000
0001
1000
0010
0100
0000
0001
,
0010
0000
1000
0000
0010
0000
0100
0000
1000
0000
0001
0000
1000
0000
0000
0010
,
0000
0000
0100
0000
0000
0000
0001
0000
0000
0000
1000
0000
0001
0000
0000
0100
,
0000
0010
1000
0100
0010
0000
0001
0100
,
0101
0000
0001
0010
0100
1000
0000
0001
,
1001
0000
0100
0001
1000
0010
0000
0110
,
0000
1001
1000
0100
0010
0001
0100
0001
,
1000
0010
1000
0001
0010
0000
1100
0000
,
0010
0001
0100
0010
0000
1000
1001
0000
,
0001
0100
0010
1000
0000
0001
0011
0000
,
1000
0100
0010
0001
0000
0100
0110
0000
,
0010
1000
0001
0010
0100
1000
1001
0000
,
1000
0010
0100
0101
0000
0001
0011
0000
,
0100
1000
0001
0011
0000
0001
1001
0000
,
1000
0010
0100
0101
0000
0001
1001
0000
,
1000
0100
0010
0001
0100
0010
2010
0000
,
0001
0000
0100
3000
0011
0000
0100
0001
,
0100
1000
0100
0001
0100
0010
0000
1000
,
0001
0000
0010
0000
0100
0000
1000
0000
0001
0000
0100
0000
0010
0000
0000
1000
,
0000
0000
0001
0000
0000
0000
0010
0000
0100
0000
0000
0000
1000
0000
0000
0001
,
0000
0000
0010
0000
0100
0000
0000
1000
0000
0000
0000
0000
1001
0000
0000
0000
,
1000
0100
1000
0010
0100
0001
0000
1000
,
0100
0000
0010
0000
0001
0000
0100
0000
1000
0000
0100
0000
0001
0000
0000
0010
,
0000
0000
0100
0000
0000
0000
1000
0000
0001
0000
0000
0000
0100
0000
0000
0001
,
0000
0000
1000
0000
0100
0000
0010
0000
0001
0000
0000
0000
1001
0000
0000
1000
,
0000
0000
0001
0000
1000
0000
0010
0000
0100
0000
0000
0000
0001
0000
0000
0100
,
0000
0000
0010
0000
1000
0000
0010
0000
0100
0000
0000
0000
0010
0000
0000
0100
,
0000
0000
0001
0000
1000
0000
0100
0000
0010
0000
0000
0000
0100
0000
0000
1000
,
0000
0000
0001
0000
1000
0000
0010
0000
0100
0000
0000
0000
0001
0000
0000
0010
,
0000
0000
0100
0000
1000
0000
0010
0000
0100
0000
0000
0000
0001
0000
0000
1000
,
0000
0000
0100
0000
1000
0000
0001
0000
0100
0000
0000
0000
0010
0000
0000
1000
,
0000
0100
0010
0001
0100
0000
0010
1000
,
0010
1000
0000
0000
0001
0000
0010
0001
0000
1000
0100
0000
1001
0000
0000
0000
;

//--------------- dance-single - forcednature ----------------
#NOTES:
     dance-single:
     forcednature:
     Challenge:
     8:
     0,0,0,0,0:
0000
0000
0000
0000
,
0000
0000
0000
0000
,
0000
0000
0000
0000
,
0000
0000
0000
0000
,
1000
0000
0001
0000
0010
0000
0001
0000
1000
0000
0010
0000
0100
0000
0001
0010
,
0000
0100
1000
0100
0010
0001
1000
0010
,
0100
0000
0000
0100
0000
0000
1001
0000
0000
0000
1000
0000
0010
0000
1000
0001
,
1000
0000
0000
0010
0100
0000
0001
0000
0010
0000
0100
0000
1000
0000
0001
0000
,
0101
0000
0000
1000
0100
0000
0010
0000
0100
0000
1000
0000
0001
0000
1000
0000
,
0010
0000
0000
0100
0001
0000
1000
0000
0100
0000
0010
0000
0100
0000
1000
0000
,
0001
0000
0000
0010
0100
0000
1000
0000
0001
0000
0100
0000
0010
0000
0000
0000
,
1000
0000
0001
0010
0001
0010
0000
0000
0100
1000
0100
1000
0000
0001
0100
0001
,
0100
0000
0010
1000
0001
0010
0100
1000
,
0001
1000
0010
0100
0001
0010
0100
1000
,
0000
0001
1000
0010
0100
0001
0010
1000
,
0010
0001
1000
0010
0100
0001
0100
1000
,
0000
0100
0001
0010
1001
0100
1000
0010
,
1001
0100
0001
0010
1001
0100
1000
0010
,
1002
0000
0000
0020
0003
0000
2000
0030
0000
3000
0000
0000
1001
0000
0000
0000
,
0100
0000
0001
0000
1000
0000
0010
0000
1000
0100
1000
0000
0010
0000
1000
0000
,
0001
0000
1000
0000
0100
0000
1000
0000
0001
0000
0010
0100
0000
0000
1000
0000
,
0001
0000
1000
0000
0010
0000
0100
0000
0001
0000
1000
0000
0100
0000
0000
0010
,
0000
0000
1001
0000
0000
0000
0000
0000
0001
0000
1000
0000
0010
0000
0000
1000
,
0000
0000
0001
0000
0010
0000
0000
0100
0000
0000
0000
0000
1000
0000
0100
0000
,
0010
0000
0100
0000
1000
0000
0001
0000
1000
0000
0010
0100
0000
0000
0001
0000
,
1000
0000
0001
0000
0010
0000
0100
0000
1000
0000
0001
0000
0100
0000
0000
0001
,
0000
0000
1001
0000
0000
0000
0000
0000
0001
0000
1000
0000
0100
0000
0000
0010
,
0000
0001
0100
0010
1000
0000
0001
0010
,
1001
0000
0000
0000
1000
0000
0010
0000
0100
0001
0100
0000
0000
0000
0010
0000
,
1001
0000
0000
0000
1000
0100
1000
0000
0001
0010
0001
0000
0000
0000
0101
0000
,
0000
0000
1010
0000
1000
0100
1000
0001
0010
0000
0100
0000
1000
0000
0001
0100
,
0001
0000
1000
0010
1000
0000
0001
0010
0001
0000
0000
0000
1001
0000
0000
1000
,
0010
0000
0100
0000
0001
0000
1000
0000
0000
0000
0100
0000
1001
0000
0000
0001
,
0010
0000
0100
0000
1000
0000
0010
0000
0000
0000
0100
0000
1001
0000
0000
1000
,
0010
0000
0100
0000
0001
0000
0010
0000
0000
0000
0100
0000
1001
0000
0000
1000
,
0010
0000
0100
0000
0001
0000
0010
0000
0100
0000
1000
0000
1001
0000
0000
0001
,
0010
0000
0100
0000
1000
0000
0010
0000
0000
0000
0100
0000
1001
0000
0000
1000
,
0010
0000
0100
0000
0001
0000
0010
0000
0000
0000
0100
0000
1001
0000
0000
1000
,
0100
0000
0010
0000
0001
0000
0100
0000
0000
0000
0010
0000
1001
0000
0000
1000
,
0010
0100
0001
0010
0100
1000
1002
0000
,
0100
0000
0000
0000
0010
0003
0000
0000
1001
0000
0000
0000
1000
0000
0010
0000
,
1000
0000
0001
0000
0010
0000
0100
0000
1000
0000
0001
0100
0000
0000
0010
0000
,
1000
0000
0001
0000
1000
0000
0100
0000
0010
0000
0001
0000
0100
0000
0000
0010
,
0000
0000
1001
0000
0000
0000
0000
0000
1000
0000
0100
0000
1000
0000
0000
0001
,
0000
0000
0010
0000
0100
0000
0000
1000
0000
0000
0000
0000
0010
0000
0100
0000
,
0001
0000
0100
0000
0010
0000
1000
0000
0001
0000
0010
0100
0000
0000
1000
0000
,
0100
0000
0001
0000
0100
0000
1000
0000
0010
0000
0100
0000
0001
0000
0000
0010
,
0000
0000
1100
0000
0000
0000
0000
0000
1000
0000
0001
0000
1000
0000
0000
0010
,
0000
0000
0100
0000
0001
0000
1000
0000
0100
0000
0010
0000
0100
0000
0000
1000
,
0001
0000
1000
0000
0010
0000
0100
0000
0001
0000
1000
0000
0100
0000
0000
0010
,
0001
0000
1000
0000
0010
0000
0100
0000
0001
0000
1000
0000
0100
0000
0000
1000
,
0001
0000
0100
0000
0010
0000
1000
0000
0001
0000
0010
0000
0100
0000
0000
1000
,
0100
0000
1000
0000
0001
0000
0100
0000
0010
0000
1000
0000
0001
0000
0000
0010
,
0100
0000
1000
0000
0001
0000
1000
0000
0010
0000
0100
0000
0001
0000
0000
1000
,
0001
0000
0010
0000
0100
0000
1000
0000
0001
0000
0100
0000
0010
0000
0000
1000
,
0001
0000
1000
0000
0010
0000
0100
0000
0001
0000
0000
0000
1000
0000
0100
1000
,
0100
1000
0000
0000
0001
0100
0001
0100
0000
0010
1000
0010
1000
0000
0000
0000
;

//--------------- dance-double - forcednature ----------------
#NOTES:
     dance-double:
     forcednature:
     Easy:
     4:
     0,0,0,0,0:
00000000
00000000
00000000
00000000
,
00000000
00000000
00000000
00000000
,
00000000
00000000
00000000
00000000
,
00000000
00000000
00000000
00000000
,
01000000
00010000
00001000
00000100
,
00000010
00001000
00010000
00100000
,
10000000
00010000
00001000
00000001
,
00000010
00001000
00010000
01000000
,
10000000
10000000
00010000
00000000
,
01000000
01000000
00001000
00000000
,
00000001
00000001
00001000
00000000
,
00000000
00000100
00000100
00000000
00010000
00010000
00000000
00000000
,
01001000
00100000
01000000
00000000
,
10000000
00010000
01000000
00001000
,
00010000
00000010
00000001
00000000
,
00000010
00000100
00001000
01000000
,
10010000
00000000
01001000
00000000
,
00010100
00000000
00000011
00000000
,
00000020
00000000
00000000
00020000
00000000
00000000
00030030
00000000
,
01020000
00000000
10000000
00000000
00100000
00130000
10000000
00000000
,
00010000
01000000
00001000
00000100
,
00000001
00000010
00001000
00010000
,
01000000
00100000
00001000
00010000
,
01000000
10000000
00001000
00010000
,
00000010
00000100
00000001
00000010
,
00010000
00000100
00010000
00001000
,
01000000
00010000
00100000
01000000
,
10000000
00010000
01000000
00011000
,
00000100
00001000
00000010
00000100
,
00001001
00000010
00010000
00001000
,
00001000
00010000
00010000
01000000
,
10000000
00100000
00000000
21000000
,
00000000
00000000
00010000
30000000
00000000
00000000
00002010
00000000
,
00000000
00000000
00000001
00003000
00000000
00000000
00021000
00000000
,
00000000
00000000
00000100
00030000
00000000
00000000
00012000
00000000
,
00000000
00000000
01000000
00003000
00000000
00000000
20100000
00000000
,
00000000
00000000
00010000
30000000
00000000
00000000
00001020
00000000
,
00000000
00000000
00000100
00000030
00000000
00000000
00002001
00000000
,
00000000
00000000
00000100
00003000
00000000
00000000
10020000
00000000
,
00000000
00000000
01000000
00030000
00000000
00000000
00022000
00000000
,
00000000
00000000
00000000
00033000
00011000
00000000
01000000
00000000
,
00001000
10000000
00100000
01000000
,
00001000
00000010
00000001
00000100
,
00001000
00010000
00100000
01000000
,
00001000
00010000
00000100
00001000
,
00000001
00001000
00000010
00010000
,
00001000
01000000
00010000
00100000
,
01000000
10000000
00010000
01000000
,
00001000
00010000
00000000
01000000
,
00010000
00001000
00000000
00000010
,
00001000
00010000
00000000
00100000
,
10000000
01000000
00000000
00010000
,
00001000
00000100
00000001
00000010
,
00000100
00000001
00000000
00000010
,
00001000
00010000
00000000
01000000
,
00100000
00010000
00000000
01000000
,
01000000
00000000
00001000
00001000
00000000
00010000
00010000
00000000
;

//--------------- dance-double - forcednature ----------------
#NOTES:
     dance-double:
     forcednature:
     Medium:
     6:
     0,0,0,0,0:
00000000
00000000
00000000
00000000
,
00000000
00000000
00000000
00000000
,
00000000
00000000
00000000
00000000
,
00000000
00000000
00000000
00000000
,
00011000
01010000
00100000
00010000
,
00011000
00001100
00010000
00000010
,
00011000
11000000
00100000
00010000
,
00011000
00000101
00001000
00010000
,
01000000
00010000
00001000
00000010
,
00000100
00001000
00010000
00100000
,
01000000
10000000
00010000
01000000
,
00001000
00000100
00000001
00000000
00000100
00001000
00010000
00000000
,
01010000
10000000
00100000
00010000
,
00001000
00000010
00000001
00000100
,
00001000
00010000
01000000
00000000
10000000
00000000
00100000
00000000
,
01000000
00001000
00010000
00000100
,
00001000
00000100
00000001
00000000
00010000
01000000
10000000
00000000
,
00001000
00000100
00000001
00000000
00010000
01000000
10000000
00000000
,
00010000
00000000
00000000
01000000
00000000
00000000
00200000
00000000
00000000
00000000
00000000
00000000
00300000
00000000
00000000
00000000
,
10000000
00010000
00100000
00000000
00001000
00011000
00010000
00000000
,
00001010
00001000
00110000
00001000
,
01010000
00000000
00010000
00000000
00001100
00000000
00010000
01000000
,
10000000
00000000
00100000
00000000
01000000
00000000
00001000
00000100
,
00000001
00000010
00000100
00010000
,
00001010
00001000
00110000
00010000
,
00001100
00000000
00001000
00000000
01010000
00000000
00010000
00100000
,
10000000
00000000
01000000
00000000
00010000
00000000
00001000
00000010
,
00000001
00000000
00000100
00000000
00001000
00000000
00010000
01010000
,
00000000
10000000
00100000
01000000
00000000
00010000
00001000
00001100
,
00000000
00000001
00000010
00000100
00000000
00010000
00001000
01001000
,
00000000
00010000
00001000
00000100
00000000
00100000
00100000
00100000
,
00000000
01000000
00000000
10000000
00010000
00000000
11000000
00000000
,
00100000
00010000
00000000
00001010
,
00000100
00000001
00000000
00001100
,
00010000
01000000
00000000
01010000
,
00001000
00000100
00000000
00110000
,
00001000
00000010
00000000
00001010
,
00010000
00100000
00000000
10010000
,
10000000
01000000
00000000
00001001
,
00000001
00000100
00000000
00022000
,
00000000
00000000
00000000
00033000
00011000
00000000
00001000
00000000
,
01010000
00010000
00001100
00010000
,
00001010
00000000
00000000
00000000
00001000
00000000
00000000
00000000
00110000
00000000
00000000
00000000
10000000
00000000
00000000
00010000
,
00000000
01000000
00000000
00000000
00011000
00000000
00000100
00000000
,
00011000
01000000
00011000
00000010
,
01010000
00010000
00001010
01000000
,
00001010
00000000
00000000
00000000
00000100
00000000
00000000
00000000
00110000
00000000
00000000
00000000
01000000
00000000
00000000
10000000
,
00000000
00010000
00000000
00000000
00000000
10000000
00100000
00000000
,
01000000
00000000
00010000
00001000
00000100
00000000
00010000
00000000
,
01000000
00000000
10000000
00100000
01000000
00000000
00001000
00000000
,
00010000
00000000
00000100
00000010
00000001
00000000
00000100
00000000
,
00010000
00000000
00001000
01000000
00010000
00000000
10000000
00000000
,
00100000
00000000
01000000
00001000
00010000
00000000
00000100
00000000
,
00001000
00000000
00000001
00000010
00000100
00000000
00010000
00000000
,
00001000
00000000
01000000
00010000
00100000
00000000
10000000
00000000
,
00100000
00000000
01000000
10000000
00010000
00000000
00000000
01000000
,
01000000
00000000
00001000
00001000
00000000
00010000
00000110
00000000
;

//--------------- dance-double - forcednature ----------------
#NOTES:
     dance-double:
     forcednature:
     Hard:
     7:
     0,0,0,0,0:
00000000
00000000
00000000
00000000
,
00000000
00000000
00000000
00000000
,
00000000
00000000
00000000
00000000
,
00000000
00000000
00000000
00000000
,
00010000
00001000
01000000
00001000
00010000
00001000
00100000
00000000
,
00001000
00010000
00000100
00010000
00000010
00010000
00001000
00000000
,
01000000
00010000
00100000
01000000
10000000
00100000
01000000
00000000
,
00001000
00010000
00000010
00001000
00000001
00000100
00000010
00000000
,
00001010
00000000
00010000
00001000
01000000
00010000
00100000
00000000
,
11000000
00000000
00100000
00001000
00010000
00000010
00000100
00000000
,
00001001
00000000
00000100
00010000
00001000
01000000
00010000
00000000
,
10000000
00000000
01000000
10000000
01000000
00000000
00000000
00000000
00100000
00010000
00100000
00000000
00000000
00000000
00001000
00010000
,
00001000
00010000
00000010
00001000
00000001
00000100
00000010
00000000
,
00010000
00001000
01000000
00010000
10000000
01000000
00100000
00000000
,
01000000
10000000
00010000
01000000
00001000
00010000
00000100
00000000
,
00001000
00000001
00001000
00000010
00010000
00001000
00100000
00000000
,
11000000
00100000
01001000
00000100
,
00001001
00000010
00011000
01000000
,
00210000
00000000
00000000
10000000
00000000
00000000
01000000
00000000
00000000
00000000
00300000
00000000
10010000
00000000
00000000
00000000
,
10000000
00000000
01000000
00000000
00010000
00000000
00000000
00000000
00001000
00000010
00001000
00000000
00000101
00000000
00000000
00000000
,
00001100
00000000
00010000
00001000
01000000
00000000
00110000
00000000
,
11000000
00000000
00000000
00000000
00100000
00000000
10000000
00000000
01000000
00000000
00000000
00000000
00110000
00000000
00000000
00001000
,
00000000
00000000
00000010
00000000
00000000
00000000
00000000
00000000
00000101
00000000
00000000
00000000
00001000
00000000
00000000
00000100
,
00000000
00000000
00010000
00000000
00001000
00000000
00000000
01000000
00000000
00000000
00000000
00000000
00010000
00000000
00000000
00000000
,
10100000
10000000
00110000
01000000
,
00011000
00000000
00000000
00000000
00000100
00000000
00000000
00000000
00011000
00000000
00000000
00000000
00100000
00000000
00000000
00001000
,
00000000
00000000
00010000
00000000
00000000
00000000
00000000
00000000
00001010
00000000
00000000
00000000
00000001
00000000
00000000
00000100
,
00000000
00000010
00010000
00001000
00010000
00000000
00001000
01000000
,
00010000
00000000
10000000
01010000
00010000
11000000
00000000
00100000
,
00001000
00000000
00010000
00001010
00000001
00001010
00000000
00001100
,
00000000
00011000
01000000
00010000
00001000
00000000
00100000
01000000
,
10000000
00100000
00010000
01000000
00010000
00000000
00011000
00000000
,
00000100
00001000
00000001
00000100
00000000
00000010
00010000
00000000
,
00001000
01000000
00010000
00100000
00000000
01000000
10000000
00000000
,
00010000
01000000
00001000
00010000
00000000
00000100
00001000
00000000
,
00000001
00000010
00000100
00010000
00001000
01000000
10010000
00000000
,
10000000
01000000
00010000
00001000
00000000
00000010
00000001
00000000
,
00000100
00000010
00010000
00001000
00000000
00100000
01000000
00000000
,
10000000
00010000
01000000
00001000
00000000
00010000
00000100
00000000
,
00001000
00000010
00001000
00000001
00000100
00000010
00022000
00000000
,
00000000
00000000
00000000
00000000
00003000
00000000
00000000
00000000
02000000
03030000
00000000
00000000
10000000
00000000
00000000
00000000
,
00110000
01000000
00011000
00000010
,
00001001
00000000
00000000
00000000
00000100
00000000
00000000
00000000
00000011
00000000
00000000
00000000
00001000
00000000
00000000
00010000
,
00000000
00000000
01000000
00000000
00000000
00000000
00000000
00000000
10100000
00000000
00000000
00000000
01000000
00000000
00000000
00100000
,
00000000
00000000
00001000
00000000
00010000
00000000
00000000
00000010
00000000
00000000
00000000
00000000
00000100
00000000
00000000
00000000
,
00001001
00000010
00011000
01000000
,
00110000
00000000
00000000
00000000
00100000
00000000
00000000
00000000
11000000
00000000
00000000
00000000
00100000
00000000
00000000
10000000
,
00000000
00000000
00010000
00000000
00000000
00000000
00000000
00000000
01000000
00000000
00001000
00000000
00010000
00000000
00000000
00000100
,
00000000
00001000
00000001
00000100
00000010
00000000
00010000
00001000
,
00100000
00010000
01000000
00100000
10000000
00000000
01000000
00100000
,
00010000
01000000
00001000
00010000
00000100
00000000
00001000
00000001
,
00001000
00000010
00010000
00001000
00100000
00000000
01000000
10000000
,
00010000
00100000
00001000
00010000
00000100
00000000
00001000
00000001
,
00001000
00000010
00010000
00001000
01000000
00000000
00010000
10000000
,
01000000
00100000
01000000
10000000
00010000
00000000
00100000
00001000
,
00010000
00000000
00000010
00000000
00001000
00000000
00000001
00000000
00000100
00000000
00000000
00000000
00000010
00000000
00010000
00001000
,
00010000
00000000
00000000
00000000
00001000
01000000
00001000
00000000
00000000
00000000
10000000
00100000
10000000
00000000
00000000
00000000
;

//--------------- dance-double - forcednature ----------------
#NOTES:
     dance-double:
     forcednature:
     Challenge:
     8:
     0,0,0,0,0:
00000000
00000000
00000000
00000000
,
00000000
00000000
00000000
00000000
,
00000000
00000000
00000000
00000000
,
00000000
00000000
00000000
00000000
,
00001000
01000000
00010000
00100000
01000000
10000000
00010000
00100000
,
00001000
00010000
00000010
00001000
00000001
00000100
00000010
00010000
,
00001000
01000000
00010000
10000000
01000000
00100000
00001000
00010000
,
00000100
00001000
00000001
00000010
00000100
00010000
00001000
00000000
,
01000000
00000000
00000000
00010000
10000000
00000000
00100000
00000000
01000000
00000000
00001000
00000000
00010000
00000000
00000100
00000000
,
00001000
00000000
00000000
00000001
00000100
00000000
00000010
00000000
00010000
00000000
00001000
00000000
00100000
00000000
00010000
00000000
,
10000000
00000000
00000000
00100000
01000000
00000000
00001000
00000000
00010000
00000000
00000100
00000000
00001000
00000000
00000000
00000000
,
00000001
00000000
00001000
00000010
00001000
00000010
00000000
00000000
00010000
00001000
00010000
00001000
00000000
01000000
00010000
01000000
,
00010000
00000000
00000000
10000000
01000000
00000000
00100000
00000000
01000000
00000000
10000000
00000000
00010000
00000000
00000000
00000000
,
01000000
00000000
00000000
00001000
00010000
00000000
00000100
00000000
00001000
00000000
00000001
00000000
00001000
00000000
00000010
00000000
,
00010000
00000000
00000000
00001000
01000000
00000000
00010000
00000000
10000000
00000000
00100000
00000000
01000000
00000000
00000000
00000000
,
00001000
00000000
00000000
00010000
00000100
00000000
00001000
00000000
00000010
00000000
00000100
00000000
00000001
00000000
00000010
00000000
,
00000000
00001000
00010000
01000000
00000000
00010000
00001000
00000100
,
00000000
00001000
00010000
00100000
00000000
00010000
00001000
00000010
,
00001000
00000000
00000000
00010000
00000000
00000000
20100000
00000000
00000000
00000000
31000000
00000000
10000000
00010000
00000000
00000000
,
01000000
00000000
00010000
00000000
01000000
00000000
00001000
00000000
00010000
00000010
00010000
00000000
00001100
00000000
00000000
00000000
,
00000001
00000000
00000010
00000000
00000100
00000000
00010000
00000000
00001000
00000000
01000000
00010000
00000000
00000000
10000000
00000000
,
01000000
00000000
00100000
00000000
00001000
00000000
00010000
00000000
00000100
00000000
00000010
00000000
00000001
00000000
00000000
00000100
,
00000000
00000000
00002002
00000000
00000000
00000000
00003003
00000000
00000000
00000000
00001000
00000000
00000010
00000000
00000000
00010000
,
00000000
00000000
00001000
00000000
01000000
00000000
00000000
00010000
00000000
00000000
00000000
00000000
10000000
00000000
01000000
00000000
,
00100000
00000000
01000000
00000000
10000000
00000000
00100000
00000000
01000000
00000000
00001000
00010000
00000000
00000000
00000100
00000000
,
00001000
00000000
00000001
00000000
00001000
00000000
00000010
00000000
00000100
00000000
00000001
00000000
00000010
00000000
00000000
00000100
,
00000000
00000000
00022000
00000000
00000000
00000000
00033000
00000000
00000000
00000000
00001000
00000000
01000000
00000000
00000000
00100000
,
00000000
10000000
01000000
00100000
00001000
00000000
00010000
00000010
,
00001010
00000000
00000000
00000000
00000001
00000100
00000001
00000000
00001000
00000010
00001000
00000000
00000000
00000000
00010000
00000000
,
00011000
00000000
00000000
00000000
01000000
00010000
01000000
00000000
00100000
10000000
00100000
00000000
00000000
00000000
11000000
00000000
,
00000000
00000000
00011000
00000000
00000100
00000000
00001000
00000001
00000100
00000000
00000010
00000000
00001000
00000000
00000100
00010000
,
00001000
00000000
01000000
00010000
00100000
00000000
00001000
00010000
00000010
00000000
00000000
00000000
00001100
00000000
00000000
00000010
,
00000001
00000000
00000100
00000000
00000010
00000000
00010000
00000000
00000000
00000000
00001000
00000000
01001000
00000000
00000000
01000000
,
00010000
00000000
10000000
00000000
01000000
00000000
00100000
00000000
00000000
00000000
00001000
00000000
00011000
00000000
00000000
00010000
,
00000010
00000000
00001000
00000000
00000001
00000000
00000100
00000000
00000000
00000000
00000010
00000000
00001001
00000000
00000000
00001000
,
00000010
00000000
00010000
00000000
00001000
00000000
01000000
00000000
00010000
00000000
10000000
00000000
11000000
00000000
00000000
10000000
,
01000000
00000000
00100000
00000000
00001000
00000000
00010000
00000000
00000000
00000000
00000100
00000000
00001001
00000000
00000000
00001000
,
00000010
00000000
00000100
00000000
00000001
00000000
00000010
00000000
00000000
00000000
00000100
00000000
00011000
00000000
00000000
01000000
,
00010000
00000000
00100000
00000000
01000000
00000000
10000000
00000000
00000000
00000000
00010000
00000000
01010000
00000000
00000000
01000000
,
00001000
00010000
00000100
00001000
00000001
00000100
00000102
00000000
,
00001000
00000000
00000000
00000000
00010000
00000003
00000000
00000000
00001100
00000000
00000000
00000000
01010000
00000000
00000000
00000000
,
10000000
00000000
00100000
00000000
01000000
00000000
00010000
00000000
00100000
00000000
00001000
00010000
00000000
00000000
00000100
00000000
,
00001000
00000000
00000001
00000000
00001000
00000000
00000010
00000000
00010000
00000000
00001000
00000000
01000000
00000000
00000000
00010000
,
00000000
00000000
10100000
00000000
00000000
00000000
00000000
00000000
00000000
00000000
01000000
00000000
10000000
00000000
00000000
00010000
,
00000000
00000000
01000000
00000000
00001000
00000000
00000000
00010000
00000000
00000000
00000000
00000000
00000100
00000000
00001000
00000000
,
00000100
00000000
00000001
00000000
00000100
00000000
00010000
00000000
00001000
00000000
01000000
00010000
00000000
00000000
10000000
00000000
,
00100000
00000000
10000000
00000000
00010000
00000000
00100000
00000000
00001000
00000000
00010000
00000000
00000010
00000000
00000000
00001000
,
00000000
00000000
00000101
00000000
00000000
00000000
00000000
00000000
00000000
00000000
00001000
00000000
00000100
00000000
00000000
00010000
,
00000000
00000000
00001000
00000000
01000000
00000000
00010000
00000000
00100000
00000000
00000000
00000000
01000000
00000000
00000000
10000000
,
00010000
00000000
01000000
00000000
00001000
00010000
00001000
00000000
00010000
00000000
00000010
00000000
00001000
00000000
00000000
00000001
,
00000100
00000000
00000010
00000000
00010000
00001000
00010000
00000000
00001000
00000000
01000000
00000000
00010000
00000000
00000000
00100000
,
01000000
10000000
00010000
01000000
00001000
00010000
00000010
00001000
,
00000010
00000000
00000001
00000000
00000010
00000000
00010000
00000000
00001000
00000000
01000000
00000000
00010000
00000000
00000000
00100000
,
01000000
00000000
10000000
00000000
00010000
00100000
00010000
00000000
01000000
00000000
00001000
00000000
00010000
00000000
00000000
00000100
,
00001000
00000000
00000001
00000000
00000010
00000100
00000010
00000000
00000100
00000000
00010000
00000000
00001000
00000000
00000000
01000000
,
00010000
00000000
10000000
00000000
00100000
00000000
10000000
00000000
01000000
00000000
00000000
00000000
00100000
00000000
00001000
00010000
,
00001000
00010000
00000000
00000000
00000010
00001000
00000010
00001000
00000000
00000001
00000100
00000001
00000100
00000000
00000000
00000000
;
