#VERSION:0.83;
#TITLE:夜明けまであと3秒;
#SUBTITLE:;
#ARTIST:Taku Inoue;
#TITLETRANSLIT:Yoake Made Ato 3 Byou;
#SUBTITLETRANSLIT:;
#ARTISTTRANSLIT:;
#GENRE:Artcore;
#ORIGIN:;
#CREDIT:;
#BANNER:[Round F] - Yoake Made Ato 3 Byou.png;
#BACKGROUND:[Round F] - Yoake Made Ato 3 Byou-bg.png;
#PREVIEWVID:;
#JACKET:[Round F] - Yoake Made Ato 3 Byou-jacket.png;
#CDIMAGE:;
#DISCIMAGE:;
#LYRICSPATH:;
#CDTITLE:cdtitle.png;
#MUSIC:[Round F] - Yoake Made Ato 3 Byou.ogg;
#OFFSET:-0.293000;
#SAMPLESTART:35.554688;
#SAMPLELENGTH:10.549450;
#SELECTABLE:YES;
#BPMS:0.000=88.500,
15.000=44.250,
16.000=91.000,
32.000=182.000,
144.000=91.000,
152.000=182.000,
214.000=91.000,
235.000=60.667,
237.000=91.000,
239.000=182.000;
#STOPS:;
#DELAYS:;
#WARPS:;
#TIMESIGNATURES:0.000=4=4;
#TICKCOUNTS:0.000=4;
#COMBOS:0.000=1;
#SPEEDS:0.000=1.000=0.000=0;
#SCROLLS:0.000=1.000;
#FAKES:;
#LABELS:0.000=Song Start;
#BGCHANGES:;
#KEYSOUNDS:;
#ATTACKS:
;

//---------------dance-single - ----------------
#NOTEDATA:;
#CHARTNAME:11-16;
#STEPSTYPE:dance-single;
#DESCRIPTION:;
#CHARTSTYLE:;
#DIFFICULTY:Challenge;
#METER:11;
#RADARVALUES:0.899638,1.473171,0.827017,0.189683,0.986350,830.000000,721.000000,109.000000,25.000000,8.000000,0.000000,0.000000,0.000000,0.000000,0.899638,1.473171,0.827017,0.189683,0.986350,830.000000,721.000000,109.000000,25.000000,8.000000,0.000000,0.000000,0.000000,0.000000;
#CREDIT:;
#NOTES:
// measure 0
0000
0000
0000
0000
,  // measure 1
0000
0000
0000
0000
,  // measure 2
1000
0100
0010
0100
0010
0001
1000
0000
0001
0100
0000
0000
0001
0010
0001
1000
0010
1000
0001
0010
0001
1000
0010
1000
,  // measure 3
0001
0100
0010
0100
0010
1000
0001
0010
0100
0010
0100
1000
0001
0100
0010
1000
0010
1000
0200
0000
0000
0000
0000
0000
,  // measure 4
1300
0100
0010
0001
0100
0010
1000
0000
1000
0000
0010
1000
0001
0010
0100
0010
0100
0010
0001
0100
0010
0100
0010
0100
,  // measure 5
0001
0100
0010
1000
0100
0010
0001
0000
0001
0000
0010
0001
1000
0010
0100
0010
0100
0001
0010
0100
1000
0100
1000
0001
,  // measure 6
1000
0010
0100
0001
0010
0100
1000
0000
1000
0000
0001
0100
0010
1000
0100
1000
0100
1000
0001
1000
0010
1000
0010
1000
,  // measure 7
0001
0010
0100
1000
0100
1000
0010
0100
0001
0010
0001
0010
0100
1000
0010
0100
0010
0100
0001
1000
0100
0010
0100
0010
,  // measure 8
0001
0001
1000
1000
,  // measure 9
0001
0001
1000
1000
,  // measure 10
0001
0001
1000
1000
,  // measure 11
0001
0001
1000
1000
,  // measure 12
0001
1000
0001
1000
0010
0100
0010
0100
,  // measure 13
0001
1000
0001
1000
0100
0010
0100
0010
,  // measure 14
0001
1000
0001
1000
0010
1000
0010
1000
0001
1000
0001
1000
0001
0010
0001
0010
,  // measure 15
0001
1000
0001
1000
0100
1000
0100
1000
0001
1000
0001
1000
0001
0100
0001
0100
,  // measure 16
0010
0000
0000
1010
0000
0000
1001
0000
0000
0011
0000
0000
2002
0000
0000
0000
,  // measure 17
0000
0000
0000
0000
0000
0000
0000
0000
0000
0000
0000
3003
MMMM
0000
0000
0000
,  // measure 18
1000
0000
0100
0000
0010
0000
0001
0100
0010
0000
0100
0000
2001
0000
0000
3001
,  // measure 19
1000
0000
0010
1000
0100
0000
1000
0000
0100
0000
0010
0001
0100
0000
0001
0000
,  // measure 20
1000
0000
0010
0000
0001
0000
0010
0100
0010
0000
1000
0000
0100
0000
0100
0000
,  // measure 21
0010
0001
0100
0010
1000
0000
0001
0000
0010
0000
0001
0000
1010
0000
0000
0000
,  // measure 22
0001
0000
0010
0000
0100
0000
1000
0010
0100
0000
0001
0000
0010
0000
0100
0000
,  // measure 23
0001
0000
0100
0010
0100
0000
1000
0000
0100
0010
0001
0100
0010
0000
1000
0000
,  // measure 24
0010
0001
1000
0100
0001
1000
0010
0100
,  // measure 25
0101
0000
0001
0000
1000
0000
1100
0000
1000
0000
0001
0100
0010
0000
0000
0000
,  // measure 26
0100
0000
0010
0000
0100
0000
0010
0100
0010
0000
0100
0000
2001
0000
0000
0000
,  // measure 27
3001
0000
0100
0001
0010
0000
0001
0000
0010
0000
0100
1000
0010
0000
0001
0000
,  // measure 28
1000
1000
0100
0010
0010
0100
0001
1000
,  // measure 29
1100
0100
0010
0011
0001
1000
1010
0000
,  // measure 30
0001
0000
0010
0000
1000
0000
0001
0100
0010
0000
0001
0000
1000
0000
0010
0000
,  // measure 31
0010
0100
0010
0001
0010
1000
1001
0000
,  // measure 32
1000
0100
1000
0001
0100
0001
1000
0100
,  // measure 33
0010
0000
0001
0000
1000
0000
0010
1000
0010
1000
0001
0000
0011
0000
0000
0000
,  // measure 34
2200
0000
0000
0000
,  // measure 35
3300
0000
0001
0000
0011
0000
1000
0000
1010
0000
0001
0100
0001
0000
0000
0000
,  // measure 36
1001
0000
0000
0000
0002
0000
0000
0203
0000
0000
0302
0000
0000
0023
0000
0000
,  // measure 37
2030
0000
0000
0000
0000
0000
3020
0000
0000
0000
0000
0000
0032
0000
0000
0000
1003
0100
1000
0100
1000
0000
0001
0100
0000
0001
0100
0000
0110
0000
0000
0000
,  // measure 38
1001
0000
0000
0000
1000
0000
0010
0000
1010
0000
0000
0001
0010
0000
0011
0000
,  // measure 39
0000
1000
0100
0000
1100
0000
0000
0001
0100
0000
0101
0000
0000
1000
0010
0000
,  // measure 40
1001
0000
0000
0000
0001
0000
0010
0000
0011
0000
0000
1000
0100
0000
0110
0000
,  // measure 41
0000
0001
0100
0000
1010
0000
0000
0110
0000
0000
1010
0000
0010
1000
0100
0010
,  // measure 42
0001
0000
0000
0000
0001
0000
0100
0000
1001
0000
0000
1000
0100
0000
1001
0000
,  // measure 43
0000
0001
0010
0000
1001
0000
0000
1000
0010
0000
1001
0000
0000
0001
0100
0000
,  // measure 44
2001
0000
0000
0000
3100
0000
0010
0000
0011
0000
0000
1001
0000
0000
0101
0000
,  // measure 45
0000
1010
0000
0000
1001
0000
0000
1100
0000
0000
0110
0000
0000
1100
0000
0000
,  // measure 46
1001
0000
0000
0000
0001
0000
0100
0000
0110
0000
0000
1000
0100
0000
0110
0000
,  // measure 47
0000
0001
0100
0000
0110
0000
0000
1000
0100
0000
0110
0000
0000
0001
0010
0001
,  // measure 48
1000
0000
0000
0000
0001
0000
0100
0000
0101
0000
0000
0110
0000
0000
1010
0000
,  // measure 49
0000
1100
0000
0000
0110
0000
0000
0011
0000
0000
1001
0000
1001
0000
0000
0000
,  // measure 50
0101
0000
0000
1100
0000
0000
1010
0000
0000
1100
0000
0000
0101
0000
0000
0000
,  // measure 51
1100
0000
0000
0101
0000
0000
0011
0000
0000
0101
0000
0000
1100
0000
0000
0000
,  // measure 52
0011
0000
0000
1100
0000
0000
0101
0000
0000
0011
0000
0000
0101
0000
0000
1100
,  // measure 53
0000
0000
0011
0000
0000
1010
0000
0000
0102
0000
0000
0000
0000
0000
0000
0000
,  // measure 54
1003
0100
0010
0100
0010
0001
1000
0000
0000
1000
0000
0000
0001
0100
0001
1000
0010
1000
0001
0010
0001
1000
0100
1000
,  // measure 55
0001
0100
0010
0100
0010
1000
0001
0000
0000
0001
0000
0000
1000
0100
1000
0001
0010
0001
1000
0010
1000
0001
0100
0001
,  // measure 56
1000
0100
0010
0100
0010
0001
0100
0000
0100
0010
0000
0000
1000
0100
1000
0001
0010
0001
1000
0010
1000
0001
0100
0001
,  // measure 57
1000
0100
0010
0100
0010
0100
1000
0010
0100
0010
0100
0010
1000
0100
0010
0100
0010
0100
1000
0010
0100
0010
0100
0010
,  // measure 58
1000
0001
0010
0100
0010
0001
0100
0010
0100
0001
0010
0001
0100
0010
1000
0010
1000
0100
0020
0000
0000
0000
0000
0000
,  // measure 59
0000
0000
0030
0000
0000
MMMM
0001
0100
,  // measure 60
0010
0000
0000
0000
0000
0000
1000
0000
0000
0100
0000
0000
0010
0000
0000
0000
0000
0000
0100
0000
0000
0000
0000
0000
1002
0000
0000
0000
0000
0000
0000
0000
0000
0000
0000
0000
1003
0000
0000
0000
0100
0000
0000
0000
0001
0000
0000
0000
,  // measure 61
0100
0000
1000
0000
0001
0000
0100
0000
1000
0000
0100
0000
0001
0000
0000
1000
0000
0000
0001
0000
0000
0010
0000
0000
,  // measure 62
1000
0000
0010
0100
0010
0000
0001
0000
0100
0000
0100
0000
0010
1000
0100
0010
,  // measure 63
0001
1000
0010
1000
0011
0000
1000
0010
,  // measure 64
0100
0000
0001
0010
0100
0000
1000
0000
0010
0000
0100
0000
1000
0000
0100
0010
,  // measure 65
0100
0000
0001
0000
0100
0010
1000
0100
0010
0000
0001
0000
0010
0000
1000
0000
,  // measure 66
0001
0000
0100
0010
0100
0000
1000
0000
0010
0000
0100
0000
0101
0000
0001
0000
,  // measure 67
1000
1100
1000
0001
0011
0000
0100
0010
,  // measure 68
0100
0000
0010
0100
0010
0000
0100
0000
1002
0000
0000
0000
1003
0000
0100
1000
,  // measure 69
0010
0000
1000
0000
0010
0000
0100
0001
0010
0000
1000
0000
0001
0000
0001
0000
,  // measure 70
0100
0010
0010
0100
1000
0001
0202
0000
,  // measure 71
0303
0220
0000
0330
1010
0000
2002
0000
,  // measure 72
3003
0000
1000
0100
0010
0000
0001
0000
0100
0000
0100
0000
0010
0000
0100
0001
,  // measure 73
0010
1000
0010
0001
0110
0000
1000
0010
,  // measure 74
0001
0000
1000
0100
0010
0000
1000
0000
1010
0000
0000
0000
0001
0000
0011
0000
,  // measure 75
0000
0000
1100
0000
0000
0000
1000
0000
1001
0000
0000
0000
0011
0000
0000
0101
,  // measure 76
0000
0000
1100
0000
0000
0101
0000
0000
0011
0000
1000
0000
1010
0000
0000
1100
,  // measure 77
0000
0000
0101
0000
0000
1100
0000
0000
1010
0000
0000
0000
0011
0000
0000
1100
,  // measure 78
0000
0000
0101
0000
0000
0011
0000
0000
0101
0000
0000
1100
0000
0000
0011
0000
,  // measure 79
0000
1010
0000
0000
0101
0000
0000
0000
0000
0000
0000
0000
0000
0000
0000
0000
;

//---------------dance-single - ----------------
#NOTEDATA:;
#CHARTNAME:09-13;
#STEPSTYPE:dance-single;
#DESCRIPTION:;
#CHARTSTYLE:;
#DIFFICULTY:Hard;
#METER:9;
#RADARVALUES:0.613488,0.751618,0.470413,0.220032,0.466620,566.000000,504.000000,62.000000,29.000000,8.000000,0.000000,2.000000,0.000000,0.000000,0.613488,0.751618,0.470413,0.220032,0.466620,566.000000,504.000000,62.000000,29.000000,8.000000,0.000000,2.000000,0.000000,0.000000;
#CREDIT:;
#NOTES:
// measure 0
0000
0000
0000
0000
,  // measure 1
0000
0000
0000
0000
,  // measure 2
1000
0000
0100
0000
0010
0000
0001
0000
0001
0100
0000
0000
0001
0000
0100
0000
0010
0000
1000
0000
0100
0000
0010
0000
,  // measure 3
0001
1000
0010
1000
0001
0010
0001
1000
0010
0200
0000
0000
,  // measure 4
0301
0010
0100
1000
0010
0100
0001
0010
0010
0001
1000
1000
,  // measure 5
0001
0100
0010
1000
0100
0010
0100
1000
1000
0001
0100
0100
,  // measure 6
0010
1000
0100
0010
0001
1000
0001
0100
0100
0010
0100
0100
,  // measure 7
1000
0100
0100
0010
1000
1000
0100
0010
0010
0001
1000
1000
,  // measure 8
0001
0001
1000
1000
,  // measure 9
0001
0001
1000
1000
,  // measure 10
0001
0001
1000
1000
,  // measure 11
0001
0001
1000
1000
,  // measure 12
0001
1000
0001
1000
0001
1000
0001
1000
,  // measure 13
0001
1000
0001
1000
0001
1000
0001
1000
,  // measure 14
0004
4000
0000
0000
0000
0000
0000
0000
0000
0000
0000
0000
0000
0000
0000
0000
,  // measure 15
0000
0000
0000
3003
,  // measure 16
0100
0000
0000
0100
0000
0000
0100
0000
0000
0100
0000
0000
2002
0000
0000
0000
,  // measure 17
0000
0000
0000
0000
0000
0000
0000
0000
0000
0000
0000
3003
MMMM
0000
0000
0000
,  // measure 18
1000
0010
0100
0001
0010
0100
0002
0000
,  // measure 19
0103
0010
0001
0001
0010
0001
0001
1000
,  // measure 20
0001
0100
0010
1000
0100
0010
0001
0100
,  // measure 21
2000
0000
3100
0001
0010
0000
0110
0000
,  // measure 22
1000
0100
1000
0001
0100
0010
0100
0100
,  // measure 23
0000
0100
0001
1000
0100
0010
1000
0010
,  // measure 24
0001
0001
1000
0001
0001
1000
0001
0100
,  // measure 25
1000
0001
0010
1000
0100
0010
0011
0000
,  // measure 26
1000
1000
1000
0101
,  // measure 27
1000
0010
0010
1000
0010
0010
1000
0100
,  // measure 28
0001
0100
0010
0010
0100
1000
1000
0010
,  // measure 29
1000
0100
0001
1000
0010
0001
0011
0000
,  // measure 30
0010
0001
0100
1000
0100
0001
0010
0000
,  // measure 31
0100
1000
0000
1001
0000
1000
0010
0000
,  // measure 32
1000
0010
1000
0001
0010
0001
1000
0010
,  // measure 33
0100
0001
1000
0100
1000
0001
0101
0000
,  // measure 34
2020
0000
0000
0000
,  // measure 35
3030
0001
0010
0001
0010
0001
0100
0000
,  // measure 36
1001
0000
0000
0000
0002
0000
0000
0203
0000
0000
0302
0000
0000
0023
0000
0000
,  // measure 37
2030
0000
0000
0000
0000
0000
3020
0000
0000
0000
0000
0000
0032
0000
0000
0000
0103
0000
0000
0000
0100
0000
0000
0100
0000
0000
0100
0000
0110
0000
0000
0000
,  // measure 38
1001
0000
0000
0000
0001
0000
0010
0000
0011
0000
0000
1000
0000
0000
1010
0000
,  // measure 39
0000
0001
0000
0000
0101
0000
0000
1000
0000
0000
1100
0000
0000
0001
0000
0000
,  // measure 40
0101
0000
0000
0000
1000
0000
0100
0000
1100
0000
0000
0001
0000
0000
1010
0000
,  // measure 41
0000
0001
0000
0000
1100
0000
0000
0011
0000
0000
1000
0000
0100
0000
0010
0000
,  // measure 42
0011
0000
0000
0000
1000
0000
0010
0000
1010
0000
0000
0001
0000
0000
0101
0000
,  // measure 43
0000
0001
0000
0000
0011
0000
0000
1000
0000
0000
1100
0000
0000
1000
0000
0000
,  // measure 44
1010
0000
0000
0000
0001
0000
0100
0000
0110
0000
0000
0110
0000
0000
1010
0000
,  // measure 45
0000
1001
0000
0000
0011
0000
0000
0110
0000
0000
0110
0000
0000
0011
0000
0000
,  // measure 46
1001
0000
0000
0000
0001
0000
0010
0000
0011
0000
0000
1000
0000
0000
0101
0000
,  // measure 47
0000
1000
0000
0000
0011
0000
0000
1000
0000
0000
0001
0000
0100
0000
0010
0000
,  // measure 48
1010
0000
0000
0000
1000
0000
0001
0000
1001
0000
0000
1001
0000
0000
1100
0000
,  // measure 49
0000
1001
0000
0000
0101
0000
0000
0101
0000
0000
1001
0000
0010
0000
0000
0000
,  // measure 50
1000
0000
0000
0010
0000
0000
0001
0000
0000
0010
0000
0000
2010
0000
0000
0000
,  // measure 51
3001
0000
0000
0010
0000
0000
1000
0000
0000
0010
0000
0000
0012
0000
0000
0000
,  // measure 52
1003
0000
0000
0010
0000
0000
0001
0000
0000
1000
0000
0000
0001
0000
0000
0010
,  // measure 53
0000
0000
1000
0000
0000
0001
0000
0000
2001
0000
0000
0000
0000
0000
0000
0000
,  // measure 54
3001
0000
0100
0000
0010
0000
1000
0000
0000
0100
0000
0000
1000
0000
0100
0000
0010
0000
0100
0000
1000
0000
0010
0000
,  // measure 55
1000
0000
0100
0000
0010
0000
0001
0000
0000
0100
0000
0000
0001
0000
0100
0000
0010
0000
0100
0000
0001
0000
0010
0000
,  // measure 56
0100
0000
1000
0000
0001
0000
0100
0000
0100
0010
0000
0000
1000
0000
0100
0000
0100
0000
0010
0000
0001
0000
0001
0000
,  // measure 57
0100
0010
0010
1000
0100
0100
0010
0001
0001
0100
1000
1000
,  // measure 58
0001
0010
1000
0001
0010
1000
0001
0100
0010
0002
0000
0000
,  // measure 59
0000
0000
0003
0000
0000
MMMM
0001
0010
,  // measure 60
0100
1000
0010
0100
2000
0000
3002
0000
,  // measure 61
0023
0000
2030
0000
3001
0001
1000
0100
,  // measure 62
0010
0001
0100
0010
1000
0100
0002
0000
,  // measure 63
0103
1000
0010
0000
0110
0000
0001
0100
,  // measure 64
0001
1000
0100
0010
0100
0100
0000
0100
,  // measure 65
1000
0001
0100
0010
0001
0010
1000
1000
,  // measure 66
0001
1000
1000
0001
1000
0100
0001
1000
,  // measure 67
0010
0001
0100
0010
1010
0000
0001
0000
,  // measure 68
0001
0000
0001
0000
1100
0000
0001
0010
,  // measure 69
0010
0001
0010
0010
0001
0100
1000
0100
,  // measure 70
0010
0010
0100
0001
0001
0010
0022
0000
,  // measure 71
0033
2200
0000
3300
1010
0000
2001
0000
,  // measure 72
0000
3010
1000
0100
0001
0000
1000
0010
,  // measure 73
0000
0110
0000
0010
0001
0000
0001
0100
,  // measure 74
1000
0001
0010
1000
1010
0000
0001
0011
,  // measure 75
0000
0000
1100
0000
0000
0000
0001
0000
0101
0000
0000
0000
0001
0000
0000
0010
,  // measure 76
0000
0000
1000
0000
0000
0010
0000
0000
0001
0000
0001
0000
1000
0000
0000
0010
,  // measure 77
0000
0000
0001
0000
0000
0010
0000
0000
2010
0000
0000
0000
3001
0000
0000
0010
,  // measure 78
0000
0000
1000
0000
0000
0001
0000
0000
1000
0000
0000
0010
0000
0000
0001
0000
,  // measure 79
0000
1000
0000
0000
0010
0000
0000
0000
0000
0000
0000
0000
0000
0000
0000
0000
;

//---------------dance-single - ----------------
#NOTEDATA:;
#CHARTNAME:07-10;
#STEPSTYPE:dance-single;
#DESCRIPTION:;
#CHARTSTYLE:;
#DIFFICULTY:Medium;
#METER:7;
#RADARVALUES:0.461742,0.511100,0.235207,0.182095,0.113810,426.000000,395.000000,31.000000,24.000000,0.000000,0.000000,0.000000,0.000000,0.000000,0.461742,0.511100,0.235207,0.182095,0.113810,426.000000,395.000000,31.000000,24.000000,0.000000,0.000000,0.000000,0.000000,0.000000;
#CREDIT:;
#NOTES:
// measure 0
0000
0000
0000
0000
,  // measure 1
0000
0000
0000
0000
,  // measure 2
1000
0100
0010
0001
0100
0100
0010
0010
,  // measure 3
1000
1000
0001
0001
0010
0100
0020
0000
,  // measure 4
0031
0010
1000
0010
0001
0001
1000
1000
,  // measure 5
0001
0100
1000
0100
0001
0001
1000
1000
,  // measure 6
0001
0010
0100
0001
0100
1000
0010
0100
,  // measure 7
1000
1000
0100
0100
0001
0001
0010
0010
,  // measure 8
0001
0001
1000
1000
,  // measure 9
0001
0001
1000
1000
,  // measure 10
0001
0001
1000
1000
,  // measure 11
0001
0001
1000
1000
,  // measure 12
0001
0010
1000
0010
,  // measure 13
0001
0010
1000
0010
,  // measure 14
0001
1000
0001
1000
0001
1000
0001
1000
,  // measure 15
0001
1000
0001
1000
0001
1000
0001
1000
,  // measure 16
0010
0000
0000
0100
0000
0000
0010
0000
0000
0100
0000
0000
0020
0000
0000
0000
,  // measure 17
0000
0000
0000
0030
,  // measure 18
1000
0000
0010
1000
0000
1000
0002
0000
,  // measure 19
0013
0100
1000
0000
1000
0100
0010
0000
,  // measure 20
0001
0000
1000
0010
0000
0001
0010
0000
,  // measure 21
1010
1000
0100
0011
,  // measure 22
1000
0000
0001
0100
0000
0100
0001
0000
,  // measure 23
1000
0100
0010
0000
0001
0100
0010
0000
,  // measure 24
1000
0000
0001
0010
0000
1000
0010
0000
,  // measure 25
0011
0000
0000
1100
0000
0000
0101
0000
,  // measure 26
1000
1000
1000
0011
,  // measure 27
1000
0010
0100
0000
0100
0010
1000
0000
,  // measure 28
0001
0000
0001
0010
0000
0010
1000
0000
,  // measure 29
0010
0000
0001
0100
0000
0010
1000
0000
,  // measure 30
1001
0000
0000
1000
0100
0010
0002
0000
,  // measure 31
0000
0203
0000
0320
0000
0000
1030
0000
,  // measure 32
0001
0000
1000
0100
0000
1000
0100
0000
,  // measure 33
0010
0000
0001
0100
0010
0100
0001
0000
,  // measure 34
2002
0000
0000
0000
,  // measure 35
3003
1001
1001
1001
,  // measure 36
0100
0000
0000
0000
0002
0000
0000
0203
0000
0000
0302
0000
0000
2003
0000
0000
,  // measure 37
3200
0000
0000
0320
0000
0000
0032
0000
1003
0000
1000
0000
0100
0000
0110
0000
,  // measure 38
1001
0000
0001
0000
1000
0000
0010
1000
,  // measure 39
0000
0010
1000
0000
0001
0010
0000
0001
,  // measure 40
0010
0000
0100
0000
1000
0000
0001
1000
,  // measure 41
0000
0000
1000
0000
0010
0000
0000
0100
0000
0000
0010
0000
0000
0100
0000
0000
,  // measure 42
0001
0000
1000
0000
1100
0000
0010
0001
,  // measure 43
0000
0001
0100
0000
0010
1000
0000
1000
,  // measure 44
0100
0000
0000
0000
0010
0000
0000
0000
0001
0000
0000
0100
0000
0000
0001
0000
,  // measure 45
0000
0100
0000
0000
1000
0000
0000
0100
0000
0000
1000
0000
0000
0100
0000
0000
,  // measure 46
0001
0000
0100
0000
0101
0000
0010
1000
,  // measure 47
0000
1000
0100
0000
0010
0001
0000
0001
,  // measure 48
0100
0000
0000
0000
0010
0000
0000
0000
1000
0000
0000
0100
0000
0000
1000
0000
,  // measure 49
0000
0100
0000
0000
0010
0000
0000
0001
0000
0000
1000
0000
0010
0000
0000
0000
,  // measure 50
1000
0000
0000
1000
0000
0000
1000
0000
0000
1000
0000
0000
2000
0000
0000
0000
,  // measure 51
3001
0000
0000
0001
0000
0000
0001
0000
0000
0001
0000
0000
0002
0000
0000
0000
,  // measure 52
1003
0000
0000
0100
0000
0000
0010
0000
0000
0001
0000
0000
0100
0000
0000
0010
,  // measure 53
0000
0000
1000
0000
0000
0100
0000
0000
2001
0000
0000
0000
0000
0000
0000
0000
,  // measure 54
3001
0100
0010
1000
0001
0001
1000
1000
,  // measure 55
0001
0010
0100
1000
0001
0001
1000
1000
,  // measure 56
0001
0100
1000
0100
0001
0001
0010
0010
,  // measure 57
0100
0100
1000
1000
0010
0010
0100
0100
,  // measure 58
0001
0100
1000
0001
0010
1000
0002
0000
,  // measure 59
0000
0003
0000
0001
,  // measure 60
0010
0001
0000
0001
2000
0000
3010
0000
,  // measure 61
0010
0010
1001
1000
,  // measure 62
0001
0010
0000
1000
0010
0000
0011
0000
,  // measure 63
0001
0100
1010
0001
,  // measure 64
1000
0100
0000
0100
1000
0000
0001
0100
,  // measure 65
0010
0000
1000
0100
0010
0000
0001
0000
,  // measure 66
1000
0010
0000
0001
0010
0000
1010
0000
,  // measure 67
0000
0101
0000
0000
1100
0000
0001
0000
,  // measure 68
0001
0000
0001
0000
1010
0000
0001
0010
,  // measure 69
0100
0000
0100
0010
0001
0000
1000
0000
,  // measure 70
1000
0010
0000
0010
0001
0000
0011
0000
,  // measure 71
0000
0110
0000
0000
1010
0000
1001
0000
,  // measure 72
0000
0001
0010
0100
2000
0000
0000
3200
,  // measure 73
0000
0310
0000
0010
0001
0000
1001
0000
,  // measure 74
0000
0001
0100
0010
1000
0000
0000
1100
,  // measure 75
0000
0000
0011
0000
0000
0000
0000
0000
1001
0000
0000
0000
0001
0000
0000
0001
,  // measure 76
0000
0000
0001
0000
0000
0001
0000
0000
0002
0000
0000
0000
1003
0000
0000
1000
,  // measure 77
0000
0000
1000
0000
0000
1000
0000
0000
2000
0000
0000
0000
3001
0000
0000
0010
,  // measure 78
0000
0000
0100
0000
0000
1000
0000
0000
0010
0000
0000
0100
0000
0000
0001
0000
,  // measure 79
0000
1000
0000
0000
0100
0000
0000
0000
0000
0000
0000
0000
0000
0000
0000
0000
;

//---------------dance-single - ----------------
#NOTEDATA:;
#CHARTNAME:05-07;
#STEPSTYPE:dance-single;
#DESCRIPTION:;
#CHARTSTYLE:;
#DIFFICULTY:Easy;
#METER:5;
#RADARVALUES:0.292653,0.541165,0.356604,0.204857,0.000000,270.000000,223.000000,47.000000,27.000000,0.000000,0.000000,9.000000,0.000000,0.000000,0.292653,0.541165,0.356604,0.204857,0.000000,270.000000,223.000000,47.000000,27.000000,0.000000,0.000000,9.000000,0.000000,0.000000;
#CREDIT:;
#NOTES:
// measure 0
0000
0000
0000
0000
,  // measure 1
0000
0000
0000
0000
,  // measure 2
1000
0010
1000
0000
0001
0000
0010
0000
,  // measure 3
0001
0010
0001
0200
,  // measure 4
0301
0010
0001
0000
1000
0000
0100
0000
,  // measure 5
1000
0010
1000
0000
0001
0000
0100
0000
,  // measure 6
0101
0010
1010
0000
1100
0000
0011
0000
,  // measure 7
1010
0101
1100
0011
,  // measure 8
0001
0001
1000
1000
,  // measure 9
0001
0001
1000
1000
,  // measure 10
0001
0001
1000
1000
,  // measure 11
0001
0001
1000
1000
,  // measure 12
0001
0010
0100
1000
,  // measure 13
0001
0010
0100
1000
,  // measure 14
0001
0100
1000
0100
,  // measure 15
0001
0010
1000
0010
,  // measure 16
0004
0000
0000
0003
,  // measure 17
0000
0000
0000
1001
,  // measure 18
1000
0000
0000
0100
0000
0000
0210
0000
,  // measure 19
0000
1300
0100
0010
,  // measure 20
0001
0000
0000
0001
0000
0000
0100
0000
,  // measure 21
0010
0000
0000
1000
0000
0000
0101
0000
,  // measure 22
1000
0000
1000
0100
,  // measure 23
0000
1000
0010
0001
,  // measure 24
0010
0000
0000
1000
0000
0000
0001
0000
,  // measure 25
0101
0000
0000
0011
0000
0000
1100
0000
,  // measure 26
0001
0001
0001
2010
,  // measure 27
0000
3001
0100
0001
,  // measure 28
0010
0000
0000
1000
0000
0000
0010
0000
,  // measure 29
0011
0000
0000
0110
0000
0000
0011
0000
,  // measure 30
1001
0000
1000
0010
,  // measure 31
0000
0010
0000
0100
0000
0000
0100
0000
,  // measure 32
0002
0000
2003
0000
,  // measure 33
3200
0010
0310
0110
,  // measure 34
2002
0000
0000
0000
,  // measure 35
3003
1001
1001
1001
,  // measure 36
2000
0000
3000
0000
,  // measure 37
0002
0000
0000
0000
1003
0001
1000
1001
,  // measure 38
0001
0000
0000
0000
0102
0000
0000
2003
,  // measure 39
0000
0000
0100
0000
0000
3001
0000
0000
,  // measure 40
1001
0000
0000
0000
2010
0000
0000
3002
,  // measure 41
0000
0020
0000
0033
,  // measure 42
1100
0000
0000
0000
0012
0000
0000
2003
,  // measure 43
0000
0000
3020
0000
0000
0230
0000
0000
,  // measure 44
0302
0000
4003
0000
,  // measure 45
0000
0000
0000
0000
,  // measure 46
3000
0000
0000
0000
2100
0000
0000
3002
,  // measure 47
0000
0000
0010
0000
0000
2003
0000
0000
,  // measure 48
3020
0000
0430
0000
,  // measure 49
0000
0000
0000
0300
,  // measure 50
0004
0000
0000
0003
,  // measure 51
4000
0000
0000
3000
,  // measure 52
0400
0000
0000
0000
,  // measure 53
0000
0000
0300
0000
,  // measure 54
1000
0100
1000
0000
0010
0000
0100
0000
,  // measure 55
0001
0010
0001
0000
0100
0000
0010
0000
,  // measure 56
1000
0100
0010
0000
0001
0000
0100
0000
,  // measure 57
0010
1000
0100
1000
,  // measure 58
0010
0001
0100
2000
,  // measure 59
0000
0000
3000
0000
0000
1001
0001
0000
,  // measure 60
0000
0100
0000
0000
0210
0000
0001
0000
,  // measure 61
0001
0301
0110
1000
,  // measure 62
0000
1000
0000
0000
0100
0000
0010
0000
,  // measure 63
0000
0001
0000
0000
1100
0000
0001
0000
,  // measure 64
0000
0001
0100
0000
,  // measure 65
0001
0010
1000
0010
,  // measure 66
0000
0001
0000
0000
1000
0000
1100
0000
,  // measure 67
0000
1010
0000
0000
0101
0000
1000
0000
,  // measure 68
1000
1000
0012
0000
,  // measure 69
1003
0100
1000
0010
,  // measure 70
0000
0001
0000
0000
0010
0000
1010
0000
,  // measure 71
0000
0101
0000
0000
0011
0000
1100
0000
,  // measure 72
0000
0000
0001
0000
0010
0000
0000
0010
,  // measure 73
0000
0100
0000
0000
0100
0000
1000
0000
,  // measure 74
0000
0000
1000
0000
1010
0000
0000
0110
,  // measure 75
0000
0110
0000
0000
0101
0000
0004
0000
,  // measure 76
0000
0000
0003
4000
,  // measure 77
0000
0000
3000
0400
,  // measure 78
0000
0000
0000
0000
,  // measure 79
0000
0300
0000
0000
;

//---------------dance-single - ----------------
#NOTEDATA:;
#CHARTNAME:02-03;
#STEPSTYPE:dance-single;
#DESCRIPTION:;
#CHARTSTYLE:;
#DIFFICULTY:Beginner;
#METER:2;
#RADARVALUES:0.150662,0.270582,0.030349,0.106222,0.000000,139.000000,135.000000,4.000000,14.000000,0.000000,0.000000,0.000000,0.000000,0.000000,0.150662,0.270582,0.030349,0.106222,0.000000,139.000000,135.000000,4.000000,14.000000,0.000000,0.000000,0.000000,0.000000,0.000000;
#CREDIT:;
#NOTES:
// measure 0
0000
0000
0000
0000
,  // measure 1
0000
0000
0000
0000
,  // measure 2
1000
0000
0001
0000
,  // measure 3
0001
0000
0010
0010
,  // measure 4
0001
0000
0100
0000
,  // measure 5
0010
0000
1000
0000
,  // measure 6
0100
0000
1000
0000
,  // measure 7
0001
0000
1000
0000
,  // measure 8
0001
0000
1000
0000
,  // measure 9
0001
0000
1000
0000
,  // measure 10
0001
0000
1000
0000
,  // measure 11
0001
0000
1000
0000
,  // measure 12
0010
0010
0010
0010
,  // measure 13
0010
0010
0010
0010
,  // measure 14
0020
0000
0000
0000
,  // measure 15
0000
0000
0000
0000
,  // measure 16
0030
0000
0000
0000
,  // measure 17
0000
0000
0000
0000
,  // measure 18
1000
0000
0001
0001
,  // measure 19
0000
1000
1000
0000
,  // measure 20
0010
0000
1000
0000
,  // measure 21
0100
0000
0010
0000
,  // measure 22
0001
0000
0001
0001
,  // measure 23
0000
1000
1000
0000
,  // measure 24
0001
0000
0100
0000
,  // measure 25
0010
0000
1000
0000
,  // measure 26
0100
0000
0000
0110
,  // measure 27
0000
0100
0100
0000
,  // measure 28
1000
0000
0010
0000
,  // measure 29
1001
0000
0000
0000
,  // measure 30
0001
0000
0001
0001
,  // measure 31
0000
0001
0001
0000
,  // measure 32
2000
0000
3000
0000
,  // measure 33
1000
0000
0001
0000
,  // measure 34
0020
0000
0000
0000
,  // measure 35
0030
0010
0010
0010
,  // measure 36
0010
0000
0000
0000
,  // measure 37
0000
0000
0000
0000
,  // measure 38
0001
0000
0010
0000
,  // measure 39
0002
0000
0003
0000
,  // measure 40
1000
0000
0010
0000
,  // measure 41
2000
0000
3000
0000
,  // measure 42
0001
0000
0010
0000
,  // measure 43
0001
0000
0010
0000
,  // measure 44
0002
0000
0000
0000
,  // measure 45
0000
0000
0003
0000
,  // measure 46
1000
0000
0010
0000
,  // measure 47
1000
0000
0010
0000
,  // measure 48
2000
0000
0000
0000
,  // measure 49
0000
0000
3000
0000
,  // measure 50
0002
0000
0000
0003
,  // measure 51
2000
0000
0000
3000
,  // measure 52
0200
0000
0000
0000
,  // measure 53
0000
0000
0300
0000
,  // measure 54
1000
0000
0001
0000
,  // measure 55
1000
0000
0001
0000
,  // measure 56
0010
0000
0100
0000
,  // measure 57
1000
0000
0010
0000
,  // measure 58
0100
0000
0001
0001
,  // measure 59
0000
0000
0000
0001
,  // measure 60
0000
0001
0002
0000
,  // measure 61
0000
0003
0010
0010
,  // measure 62
0000
0001
0000
0100
,  // measure 63
0000
0010
0000
1000
,  // measure 64
0000
1000
1000
0000
,  // measure 65
0001
0001
0000
1000
,  // measure 66
0000
0100
0000
0010
,  // measure 67
0000
0001
0000
0100
,  // measure 68
0000
0000
0110
0000
,  // measure 69
0100
0100
0000
0001
,  // measure 70
0000
0010
0000
1001
,  // measure 71
0000
0000
0000
1000
,  // measure 72
0000
0010
0000
1000
,  // measure 73
1000
1000
0000
0001
,  // measure 74
0000
0010
0000
0001
,  // measure 75
0001
0001
0000
2000
,  // measure 76
0000
0000
3000
0002
,  // measure 77
0000
0000
0003
0200
,  // measure 78
0000
0000
0000
0000
,  // measure 79
0000
0300
0000
0000
;
