#TITLE:Russian Roulette;
#SUBTITLE:;
#ARTIST:Red Velvet;
#TITLETRANSLIT:;
#SUBTITLETRANSLIT:;
#ARTISTTRANSLIT:;
#GENRE:;
#CREDIT:;
#MENUCOLOR:;
#METERTYPE:DDR;
#BANNER:[Round F] - Russian Roulette.png;
#BACKGROUND:[Round F] - Russian Roulette-bg.png;
#LYRICSPATH:;
#CDTITLE:;
#MUSIC:[Round F] - Russian Roulette.ogg;
#OFFSET:-0.407;
#SAMPLESTART:44.031;
#SAMPLELENGTH:15.000;
#SELECTABLE:YES;
#LISTSORT:;
#BPMS:0.000=130.000;
#STOPS:;
#BGCHANGES:-4.000=[Round F] - Russian Roulette.avi=1.000=0=0=0,
99999=-nosongbg-=1.000=0=0=0 // don't automatically add -songbackground-
;
#ATTACKS:;

//---------------dance-single - ----------------
#NOTES:
     dance-single:
     :
     Beginner:
     1:
     0.110,0.160,0.000,0.000,0.000:
0000
0000
0000
0000
,
0000
0000
0000
0000
,
0000
0000
0000
0000
,
0000
0000
0000
0000
,
0000
1000
0000
1000
,
0000
0001
0000
0001
,
0000
0100
0000
0100
,
0000
0010
0000
0010
,
0010
0000
0000
0000
,
1000
0000
0000
0000
,
0001
0000
0000
0000
,
0100
0000
0000
0000
,
0010
0000
0010
0000
,
0010
0000
0000
0000
,
0100
0000
0100
0000
,
0100
0000
0000
0000
,
0000
0001
0000
0001
,
0000
0001
0000
0000
,
0000
1000
0000
1000
,
0000
1000
0000
0000
,
0000
0010
0000
0010
,
0000
0010
0000
0000
,
0100
0000
0100
0000
,
0100
0000
0000
0000
,
0010
0000
0010
0000
,
0010
0000
0000
0000
,
1000
0000
1000
0000
,
1000
0000
0000
0000
,
0001
0000
0000
0000
,
1000
0000
0000
0000
,
0010
0000
0000
0000
,
0100
0000
0000
0000
,
0010
0000
0010
0000
,
0010
0000
0000
0000
,
0100
0000
0100
0000
,
0100
0000
0000
0000
,
0001
0000
0001
0000
,
0001
0000
0000
0000
,
1000
0000
1000
0000
,
1000
0000
0000
0000
,
0001
0000
0000
0000
,
0100
0000
0000
0000
,
0010
0000
0000
0000
,
1000
0000
0000
0000
,
0100
0000
0000
0000
,
0010
0000
0000
0000
,
0001
0000
1000
0000
,
0001
0000
0000
0000
,
0000
0000
0000
0000
,
1000
0000
1000
0000
,
1000
0000
0000
0000
,
0100
0000
0100
0000
,
0100
0000
0000
0000
,
0010
0010
0010
0000
,
0100
0100
0100
0000
,
0010
0000
0000
0000
,
0001
0000
1000
0000
,
0001
0000
0001
0000
,
0001
0000
0000
0000
,
1000
0000
1000
0000
,
1000
0000
0000
0000
,
0100
0100
0100
0000
,
0010
0010
0010
0000
,
0001
0000
1000
0000
,
0001
0000
0000
0000
,
1000
0000
1000
0000
,
1000
0000
0000
0000
,
0100
0000
0100
0000
,
0100
0000
0000
0000
,
0010
0000
0010
0000
,
0010
0000
0000
0000
,
0001
0000
0001
0000
,
0001
0000
0000
0000
,
1000
0000
0001
0000
,
1000
0000
0000
0000
,
0001
0000
1000
0000
,
0001
0000
0000
0000
,
0100
0000
0010
0000
,
0100
0000
0000
0000
,
0010
0000
1000
0000
,
0100
0000
0000
0000
;

//---------------dance-single - ----------------
#NOTES:
     dance-single:
     :
     Easy:
     3:
     0.255,0.269,0.073,0.240,0.000:
0000
0000
0000
0000
,
0000
0000
0000
0000
,
0000
0000
0000
0000
,
0000
0000
0000
0000
,
0010
0010
0010
0000
,
0100
0100
0100
0000
,
0001
0001
0001
0000
,
1000
1000
1000
0000
,
0002
0100
0000
0103
,
2000
0100
0000
3100
,
0002
0010
0000
0013
,
2000
0010
0000
3010
,
0001
0001
1000
0000
,
0100
0100
0010
0000
,
0001
0001
0100
0000
,
0010
1000
0002
0003
,
1000
0100
2000
3000
,
0001
0100
0002
0003
,
0100
0010
0200
0300
,
0010
1000
0002
0003
,
1000
0100
0020
0030
,
0001
0100
0020
0030
,
0100
0001
1000
0001
,
2002
0000
0000
3003
,
1100
0001
0010
0001
,
0100
0100
0010
0000
,
1000
0100
1000
0001
,
0010
0100
0010
0000
,
0002
0000
0100
0103
,
2000
0000
0100
3100
,
0002
0000
0010
0013
,
2000
0000
0010
3010
,
0100
0010
0000
0110
,
0001
1000
0000
1001
,
0100
0010
0000
0110
,
0001
0000
1000
0000
,
0001
0001
0010
0010
,
0100
0100
1000
1000
,
0001
0001
0100
0100
,
0020
0000
0000
0030
,
0100
0000
0000
0000
,
0100
0000
0000
0000
,
0010
0000
0000
0000
,
0010
0000
0000
0000
,
1000
0000
1000
0000
,
1000
0000
0000
0000
,
0001
0000
1000
0000
,
0001
0000
0000
0000
,
0200
0000
0000
0300
,
0110
0010
1000
1000
,
0001
0100
0001
0000
,
1000
1000
0100
0100
,
0010
0001
1000
0000
,
0002
0000
0010
0013
,
2000
0000
0010
3010
,
0002
0000
0100
0103
,
2000
0000
0100
3100
,
0010
0010
0100
0100
,
1000
1000
0001
0001
,
0100
0100
0010
0100
,
0002
0003
2000
3000
,
0110
0001
0100
0000
,
1010
0100
1000
0000
,
0011
0100
0001
0000
,
2000
0000
0002
3003
,
0001
0010
0100
1000
,
0001
0100
0010
1000
,
0002
0003
2000
3000
,
0020
0030
0200
0300
,
0010
1000
1001
0000
,
0010
0001
1001
0000
,
0001
0100
0010
0100
,
0002
0000
2003
0000
,
3001
0010
0100
1000
,
0001
0010
0100
1000
,
0001
0100
0010
1000
,
0002
0003
2000
3000
,
0010
0100
0010
0100
,
0001
1000
0100
0000
,
1000
0100
0010
0001
,
2000
0000
0000
3000
;

//---------------dance-single - ----------------
#NOTES:
     dance-single:
     :
     Medium:
     5:
     0.353,0.377,0.080,0.287,0.000: // measure 1
0000
0000
0000
0000
,  // measure 2
0000
0000
0000
0000
,  // measure 3
0000
0000
0000
0000
,  // measure 4
0000
0000
0000
0000
,  // measure 5
0001
0001
0001
0001
,  // measure 6
1000
1000
1000
1000
,  // measure 7
0010
0010
0010
0010
,  // measure 8
0100
0100
0100
0010
,  // measure 9
2001
0000
3010
0000
0000
0100
0010
0200
,  // measure 10
0000
0000
0301
0000
0000
0010
0100
0020
,  // measure 11
0000
0000
0031
0000
0000
1000
0001
0200
,  // measure 12
0000
0310
0100
0002
0000
1003
0001
2000
,  // measure 13
0000
0000
3010
0000
0000
1000
0100
0020
,  // measure 14
0000
0000
0130
0000
0000
0010
0001
2000
,  // measure 15
0000
0000
3001
0000
0000
0100
0010
0200
,  // measure 16
0000
0301
0001
2000
0000
3001
1000
0000
,  // measure 17
0110
0000
0010
0000
1000
0000
1000
0010
,  // measure 18
0100
0000
0100
0000
0001
0000
0010
0001
,  // measure 19
1000
0000
1000
0000
0100
0000
0010
0100
,  // measure 20
1000
0000
1000
0000
0010
0000
0100
0001
,  // measure 21
0100
0000
0010
0000
1000
0000
0100
0010
,  // measure 22
0001
0000
1000
0000
0010
0000
1000
0001
,  // measure 23
0100
0100
0010
0010
,  // measure 24
2002
0000
0000
3003
,  // measure 25
1100
0000
0001
0010
0001
0000
1000
0000
,  // measure 26
0001
0100
0010
1000
,  // measure 27
0001
0000
1000
0010
1000
0000
0001
0000
,  // measure 28
1000
0100
0010
0001
,  // measure 29
2000
0000
3100
0100
0100
0000
0100
0000
,  // measure 30
0020
0000
0031
0000
0001
0001
0001
0000
,  // measure 31
0200
0000
0310
0010
0010
0000
0010
0000
,  // measure 32
2002
0000
3003
0000
0010
0100
0010
0000
,  // measure 33
1000
0010
0100
0001
,  // measure 34
1000
0000
0100
0000
0010
0100
1000
0000
,  // measure 35
0001
0010
0100
1000
,  // measure 36
0010
0000
0100
0000
0001
1000
0010
0000
,  // measure 37
1000
0000
1000
1000
1000
0000
1000
0000
,  // measure 38
0010
0000
0010
0000
0010
0010
0010
0000
,  // measure 39
0100
0000
0100
0100
0100
0000
0001
0000
,  // measure 40
2002
0000
0000
3003
,  // measure 41
0020
0000
0000
0030
,  // measure 42
0200
0000
0000
0300
,  // measure 43
0002
0000
0000
0003
,  // measure 44
2000
0000
0000
3000
,  // measure 45
0200
0000
0010
0300
,  // measure 46
0002
0000
1000
0003
,  // measure 47
0200
0300
0020
0030
,  // measure 48
2000
0000
0000
0000
,  // measure 49
0002
0000
0000
3003
,  // measure 50
1001
0000
0100
0010
0100
0000
0001
0000
,  // measure 51
1000
0000
0100
0010
0001
0000
1000
0000
,  // measure 52
0001
0000
0100
0010
0100
0000
0001
0000
,  // measure 53
1000
0000
0010
1000
0001
0000
1000
0000
,  // measure 54
0020
0000
1030
1000
1000
0000
1000
0000
,  // measure 55
0002
0000
0013
0000
0010
0010
0010
0000
,  // measure 56
0002
0000
0103
0100
0100
0000
0100
0000
,  // measure 57
0010
0000
0100
0000
0001
0001
1000
0000
,  // measure 58
0001
0000
1000
0100
0000
0000
1000
0000
,  // measure 59
0010
0000
0100
0001
0000
0000
1000
0000
,  // measure 60
0001
0000
0010
0100
0000
0000
1000
0000
,  // measure 61
0010
0000
0100
0001
0000
0000
1000
0000
,  // measure 62
0010
0000
0010
0010
0010
0000
0010
0000
,  // measure 63
1000
0000
1000
0000
1000
1000
1000
0000
,  // measure 64
0100
0000
0100
0100
0100
0000
0100
0000
,  // measure 65
0220
0000
0000
0330
,  // measure 66
2001
3010
0001
0100
,  // measure 67
0020
0000
0130
0000
0001
1000
0100
0000
,  // measure 68
2000
3010
1000
0100
,  // measure 69
0020
0000
0031
0000
0100
0001
1000
0000
,  // measure 70
0010
0000
0100
0001
0100
0000
0001
0000
,  // measure 71
1000
0000
0100
0010
0001
0000
1000
0002
,  // measure 72
0000
0000
0103
0020
0000
0000
1030
0200
,  // measure 73
0000
0000
0310
0000
0001
0100
0001
0000
,  // measure 74
0100
0000
0010
0000
1000
0010
0100
0000
,  // measure 75
0010
0000
0100
0000
0001
0010
0100
0000
,  // measure 76
1000
0000
0010
0000
1000
0001
0100
0000
,  // measure 77
0001
0000
0010
0001
1000
0000
0001
0000
,  // measure 78
0100
0000
0100
0010
0100
0000
0110
0000
,  // measure 79
0001
0000
0001
1000
0010
0000
1010
0000
,  // measure 80
1000
0100
0010
0000
0001
0000
0100
0000
,  // measure 81
0220
0000
0000
0330
;

//---------------dance-single - ----------------
#NOTES:
     dance-single:
     :
     Hard:
     7:
     0.482,0.457,0.160,0.307,0.000: // measure 1
0000
0000
0000
0000
,  // measure 2
0000
0000
0000
0000
,  // measure 3
0000
0000
0000
0000
,  // measure 4
0000
0000
0000
0000
,  // measure 5
1000
0000
1000
0100
1000
0000
1000
0000
,  // measure 6
0001
0000
0001
0100
0001
0000
0001
0000
,  // measure 7
0100
0000
0100
0010
0100
0000
0100
0000
,  // measure 8
0010
0100
0010
0200
0000
0000
0301
0000
,  // measure 9
2001
0000
3010
0000
1000
0100
0010
0200
,  // measure 10
0000
0000
1300
0000
0010
0100
0001
0020
,  // measure 11
0000
0000
0031
0000
1000
0001
0100
0020
,  // measure 12
0000
0130
0001
2000
0000
3001
0010
0200
,  // measure 13
0000
0000
0310
0000
0001
0100
0001
2000
,  // measure 14
0000
0000
3010
0000
1000
0100
0010
0002
,  // measure 15
0000
0103
0010
0000
0100
0001
1000
0020
,  // measure 16
0000
1030
1000
0002
0000
1003
0100
0010
,  // measure 17
0100
0000
1100
0000
0010
0001
0100
0001
,  // measure 18
0010
0000
0011
0000
1000
0100
0010
0100
,  // measure 19
1000
0000
1010
0000
0010
0100
0001
0100
,  // measure 20
0010
0000
0110
0000
0001
1000
0100
1000
,  // measure 21
0001
0000
0011
0000
1000
0100
0001
0100
,  // measure 22
1000
0000
1010
0000
1000
0010
0001
0010
,  // measure 23
0100
0000
0110
0000
0001
1000
0100
0010
,  // measure 24
0002
0000
0000
0000
0000
1000
1003
0000
,  // measure 25
1001
0000
0001
0100
0010
1000
0100
2000
,  // measure 26
0000
3100
0010
0100
1000
0010
0100
0020
,  // measure 27
0000
1030
0010
0100
0001
1000
0100
2000
,  // measure 28
0000
3001
0010
0200
0000
0310
0001
1000
,  // measure 29
1001
0000
0001
0001
0100
0100
0010
0000
,  // measure 30
1010
0000
1000
1000
0100
0100
0010
0000
,  // measure 31
0011
0000
0001
0001
1000
1000
0010
0200
,  // measure 32
0000
0010
0000
1000
0000
0010
0310
0000
,  // measure 33
0110
0000
0001
0100
1000
0100
0001
0000
,  // measure 34
0010
0000
1000
0010
0001
0010
1000
0000
,  // measure 35
0010
0001
0100
0001
0000
1000
0001
0100
,  // measure 36
0000
0010
0010
0010
0000
1000
0001
0000
,  // measure 37
1001
0000
0010
0001
0100
0001
0010
0000
,  // measure 38
0001
0000
1000
0100
0010
0100
1000
0000
,  // measure 39
0010
0000
0100
0001
1000
0100
0010
0100
,  // measure 40
2000
0000
0000
0000
0000
0000
0000
3010
,  // measure 41
0020
1000
0100
0031
,  // measure 42
2000
0100
0001
3010
,  // measure 43
0002
0100
1000
0013
,  // measure 44
0200
0010
1000
0301
,  // measure 45
2000
0100
0010
3010
,  // measure 46
0002
0000
0010
0000
0100
0000
0103
0020
,  // measure 47
0000
0000
0130
0002
0000
0000
1003
0200
,  // measure 48
0010
0000
0010
0010
0010
0000
0310
0000
,  // measure 49
0100
0100
0100
0100
0010
0001
1000
0000
,  // measure 50
1001
0000
0001
0100
0010
0100
0001
0000
,  // measure 51
1000
0000
0100
1000
0010
1000
0100
0000
,  // measure 52
0010
0000
0001
0100
0010
0100
0001
2000
,  // measure 53
0010
0000
3001
0020
0100
0001
0031
0000
,  // measure 54
1001
0000
1000
1000
0010
0010
0100
0000
,  // measure 55
0001
0000
0010
0010
0100
0100
1000
0000
,  // measure 56
0010
0000
0100
0100
0001
0001
1000
0010
,  // measure 57
0200
0010
0000
1000
0000
0001
0301
0000
,  // measure 58
1100
0000
0001
0100
1000
0100
0001
0000
,  // measure 59
0010
0000
1000
0010
0001
0010
1000
0000
,  // measure 60
0001
0100
0010
0100
0000
0001
1000
0100
,  // measure 61
0000
1000
1000
1000
0000
0001
0010
0000
,  // measure 62
0110
0000
0010
0010
0001
0100
0010
0000
,  // measure 63
1000
0000
0010
0010
1000
0100
0010
0000
,  // measure 64
0001
0000
0100
0100
0010
0100
0001
1000
,  // measure 65
0200
0000
0000
0310
,  // measure 66
0012
0000
2003
0000
3010
1000
0100
2000
,  // measure 67
0000
3001
0100
0020
0000
0130
0001
0000
,  // measure 68
2010
0000
3002
0000
0013
0001
0100
0002
,  // measure 69
0000
1003
0010
0200
0000
0310
1000
0001
,  // measure 70
0010
0000
0001
0001
0001
0000
1001
0000
,  // measure 71
1000
1000
0100
0010
0100
1000
0010
0200
,  // measure 72
0000
0310
1000
0002
0000
1003
0010
0200
,  // measure 73
0000
0301
0010
0001
1000
1000
0010
0000
,  // measure 74
0110
0000
0010
1000
0100
1000
0010
0100
,  // measure 75
0001
0000
0010
0001
0100
0001
0010
0001
,  // measure 76
1000
0010
0010
0010
1000
0001
0100
0002
,  // measure 77
0000
1003
0100
0020
0000
0130
1000
0010
,  // measure 78
0100
0000
0110
0000
0001
0010
1000
0000
,  // measure 79
0010
0000
0110
0000
1000
0100
0001
0000
,  // measure 80
0100
1000
1000
0010
0000
0100
0001
2000
,  // measure 81
0000
3010
0100
0002
0000
1003
0000
0000
;
