#TITLE:Octarmaments;
#SUBTITLE:;
#ARTIST:Turquoise October;
#TITLETRANSLIT:;
#SUBTITLETRANSLIT:;
#ARTISTTRANSLIT:;
#GENRE:Octo Breaks;
#CREDIT:;
#BANNER:;
#BACKGROUND:;
#LYRICSPATH:;
#CDTITLE:;
#MUSIC:[Round F] - Octarmaments.ogg;
#OFFSET:-0.376598;
#SAMPLESTART:78.526611;
#SAMPLELENGTH:11.959999;
#SELECTABLE:YES;
#BPMS:0.000000=160.000000
,49.000000=80.000000
,50.500000=160.000000
,71.000000=80.000000
,72.000000=160.000000
,75.000000=80.000000
,75.500000=160.000000
,84.500000=80.000000
,86.000000=160.000000
,89.000000=80.000000
,89.500000=160.000000
,111.500000=80.000000
,113.500000=160.000000
,124.500000=80.000000
,126.500000=160.000000
,211.500000=80.000000
,212.000000=160.000000
,225.500000=80.000000
,226.500000=160.000000
,234.500000=80.000000
,235.000000=160.000000
,238.000000=80.000000
,240.000000=160.000000
,251.000000=80.000000
,253.000000=160.000000
;
#STOPS:71.000000=0.563000,
108.250000=0.375000,
121.250000=0.375000,
196.000000=0.563000,
208.750000=0.188000,
223.750000=0.188000,
247.750000=0.375000
;
#BGCHANGES:;
#KEYSOUNDS:;
#ATTACKS:;

//---------------dance-single - ----------------
#NOTES:
     dance-single:
     :
     Challenge:
     10:
     0.854175,0.986912,0.806856,0.781376,0.959734,704.000000,609.000000,95.000000,92.000000,0.000000,0.000000,0.854175,0.986912,0.806856,0.781376,0.959734,704.000000,609.000000,95.000000,92.000000,0.000000,0.000000:
0000
0000
0000
0000
,
0000
0000
0000
0000
,
0000
0000
0000
0000
,
0000
0000
0000
0000
,
0000
0000
0000
0000
,
1000
0000
1000
0000
0020
0000
0230
0000
0301
0000
0001
0000
0010
0000
0200
0300
,
1000
0000
0000
0000
1000
0000
0000
0000
0002
0003
0000
0000
0002
0003
0000
0000
0010
0000
0000
0000
0010
0000
0000
0000
0200
0000
0000
0000
2300
0000
0000
0000
,
3010
0000
0010
0000
0200
0000
0302
0000
1003
0000
1000
0000
0100
0000
0010
0001
,
0010
0000
0000
0000
0000
0000
0010
0000
0000
0000
0000
0000
0001
0000
0000
0000
0000
0000
0000
0000
1000
0000
0000
0000
0000
0000
0000
0000
0000
0000
0010
0000
0000
0100
0000
0000
0020
0000
0000
0000
0000
0000
2030
0000
0000
0000
0000
0000
,
3001
0000
0001
0000
0020
0000
0230
0000
1300
0000
1000
0000
0010
0000
0200
0300
,
0001
0000
0000
0000
0001
0000
0000
0000
0200
0300
0000
0000
0200
0300
0000
0000
0010
0000
0000
0000
0010
0000
0000
0000
2000
0000
0000
0000
3002
0000
0000
0000
,
0013
0000
0010
0000
0200
0000
2300
0000
3001
0000
0001
0000
0200
0000
0310
1000
,
0001
0000
0001
0000
0020
0030
0200
0320
0230
2300
3001
0000
0001
0000
0200
0000
,
2300
0000
0000
0000
3100
0000
0000
0000
0100
0000
0000
0000
0010
0000
0000
0000
0200
0000
0300
0000
0001
0000
0000
0000
0001
0000
0000
0000
2000
3000
0000
0000
,
2000
3000
0000
0000
0100
0000
0000
0000
0100
0000
0000
0000
0020
0000
0000
0000
0032
0000
0000
0000
0103
0000
0000
0000
0100
0000
0000
0000
0020
0000
0000
0000
,
0032
0000
0013
0000
0010
0000
1000
0000
0001
1000
0001
0000
0001
0000
0010
0000
,
0000
0000
0100
0000
0000
0000
0000
0000
0000
0000
0000
0000
1000
0000
0000
0001
0000
0000
0000
0000
0000
0000
0000
0000
0100
0000
0000
0010
0000
0000
0100
0000
0000
0000
0000
0000
0000
0000
0000
0001
0000
0000
0100
0000
0000
0000
0000
0000
,
0000
0000
0000
0000
0000
0000
0000
0000
0000
0000
0000
0000
1000
0000
0000
0000
0000
0000
0000
0000
0000
0000
0000
0000
0200
0000
0000
0000
0000
0000
0000
0000
0000
0000
0000
0000
0000
0000
0000
0000
0000
0000
0000
0000
0000
0000
0000
0000
0000
0000
0000
0000
0000
0000
0000
0000
0000
0000
0000
0000
0000
0000
0000
0000
0000
0000
0000
0000
0000
0000
0000
0000
0310
0000
0000
0000
0000
0000
0000
0000
0000
0000
0000
0000
0000
0000
0000
0100
0000
0000
0000
0000
0000
0000
0000
0000
0000
0000
0000
0000
0000
0010
0000
0000
0000
0000
0000
0000
0000
0000
0000
0000
0000
0000
0000
1000
0000
0000
0000
0000
0000
0000
0000
0000
0000
0000
0000
0000
0000
0000
0001
0000
0000
0000
0000
0000
0000
0000
0000
0000
0000
0000
0000
0000
1000
0000
0000
0000
0000
0000
0000
0000
0000
0000
0000
0000
0000
0000
0000
0000
0000
0000
0000
0000
0000
0000
0000
0000
1010
0000
0000
0000
0000
0000
0000
0000
0000
0000
0000
0000
0000
0000
0000
0000
0000
0000
0000
0000
0000
0000
0000
0000
,
0101
0000
0001
1000
0000
0010
1000
0000
1100
0000
0110
0000
0000
0001
0011
0000
,
1000
0001
0000
0100
0001
0010
0001
0010
0100
1000
0002
0000
0003
0000
1010
0000
,
1000
0001
0000
0100
0001
0000
0011
0000
0110
0000
0000
0000
0110
0000
0000
1100
,
0000
0000
1001
0000
0002
2003
3020
0030
1010
0000
0100
0001
0000
0010
0001
0000
,
1100
0000
0110
0000
0000
0100
1100
0000
0001
0010
0000
0001
0100
0010
1000
0100
,
0010
0001
0200
0000
0300
0000
0110
0000
1000
0001
0000
0010
0100
0000
0011
0000
,
1001
0000
0000
0000
0000
0000
0000
0000
0000
0000
0000
0000
0101
0000
0000
0000
0000
0000
0000
0000
0000
0110
0000
0000
0000
0000
0000
0000
0000
0000
1010
0000
0000
0000
0000
0000
0000
0000
0002
0000
0000
0000
0000
0000
0000
0000
0000
0000
,
0013
0100
2000
0000
0000
0000
3002
0000
0000
0103
0000
0001
0010
0000
0110
0000
,
0011
0000
2000
0000
3002
0000
0203
0000
0310
1000
0000
0010
1000
0010
1000
0010
,
0100
0001
0011
0000
0000
0000
1000
0000
0100
0000
0110
0000
0010
0000
0000
0011
,
0000
0110
0000
0000
0100
1000
0100
1000
0020
0000
0230
0000
0302
0000
0000
0000
0000
0000
0000
0000
0023
0000
0000
0000
0000
0000
1030
0000
0000
0000
0010
0000
,
0100
0000
0110
0000
1100
0000
0002
0000
0203
0000
0320
0000
1030
0001
0000
0001
,
0010
0001
0010
0001
1000
0010
0101
0000
0000
0000
0010
0000
1000
0000
1100
0000
,
0100
0000
0000
0000
0000
0000
0000
0000
0000
0000
0000
0000
0000
0000
0000
0000
0000
0000
0000
0000
0000
0000
0000
0000
0000
0000
0000
0000
0000
0000
0000
0000
0000
0000
0000
0000
0110
0000
0000
0000
0000
0000
0000
0000
0000
0000
0000
0000
0000
0000
0000
0000
0000
0000
0011
0000
0000
0000
0000
0000
0000
0000
0000
0000
0000
0000
0000
0000
0000
0000
0000
0000
0101
0000
0000
0000
0000
0000
0000
0000
0000
0000
0000
0000
0000
0000
0000
0000
0100
0000
0000
0000
0000
0000
0000
0000
0000
0000
0000
0000
0000
0000
0000
0000
0000
0000
0000
0000
0010
0000
0000
0000
0000
0000
1000
0000
0000
0000
0000
0000
1010
0000
0000
0000
0000
0000
0000
0000
0000
0000
0000
0000
0000
0000
0000
0000
0000
0000
0000
0000
0000
0000
0000
0000
0000
0000
0000
0000
0000
0000
0000
0000
0000
0000
0000
0000
0000
0000
0000
0000
0000
0000
0000
0000
0000
0000
0000
0000
0012
0000
0000
0000
0000
0000
0000
0000
0000
0000
0000
0000
0000
0000
0000
0000
0000
0000
0000
0000
0000
0000
0000
0000
,
0000
1003
0000
0001
0100
0000
0110
0000
1000
0000
1001
0000
0000
0000
2100
0000
,
0000
3001
0000
0010
0100
0000
0010
0001
0010
0001
0100
0010
0100
0010
0100
0001
,
0000
0010
0001
0000
1000
0100
0000
0001
0000
0100
0010
0000
0000
1100
0000
0000
,
0101
0000
0000
0100
0010
0000
1000
0001
1000
0001
0010
0000
0000
0000
0110
0000
,
0000
1000
0000
0001
0100
0000
0101
0000
0001
0000
0021
0000
0000
0000
2030
0000
,
0000
3010
0000
0001
0100
0000
0010
1000
0010
1000
0100
0010
0001
1000
0100
0010
,
0000
0010
1000
0000
1000
0010
0000
0010
0001
1000
0010
0000
0000
0101
0000
0000
,
0011
0000
0000
0000
0000
0000
0000
0000
0000
1100
0000
0000
0000
0000
0000
0000
0000
0000
0001
0000
0000
1000
0000
0000
0001
0000
1000
0000
0001
0000
0200
0000
0000
0000
0000
0000
0000
0000
0000
0000
0000
0000
1000
0000
0000
0000
0000
0000
,
0000
0301
0000
0010
0100
0000
1000
0100
1000
0000
0020
0000
0000
0000
0100
0000
,
0000
0031
0000
0010
1000
0000
0001
0010
0100
1000
0001
0010
0001
0010
0001
1000
,
0000
0010
0100
0000
1000
0100
0000
0010
0100
0001
1000
0000
0000
1100
0000
0000
,
0011
0000
0000
0001
1000
0000
0001
0100
0010
1000
0200
0000
0000
0000
0001
0000
,
0000
1300
0000
0001
0010
0000
0100
0010
0100
0000
0020
0000
0000
0000
1000
0000
,
0000
0130
0000
0010
0001
0000
1000
0010
0100
0001
1000
0100
1000
0100
1000
0001
,
0000
0100
0010
0000
0001
1000
0000
0100
0010
1000
0001
0000
0100
0010
0100
0000
,
1000
0000
0000
0100
0000
0002
2000
0000
0000
0000
3003
0000
0001
1000
0001
0000
,
0000
0000
0000
0000
0000
0000
0000
0000
0000
0000
0000
0000
1000
0000
0000
0000
0000
0000
0000
0000
0000
0000
0000
0000
0100
0000
0000
0000
0000
0000
0000
0000
0000
0000
0000
0000
0000
0000
0000
0000
0000
0000
0000
0000
0000
0000
0000
0000
0000
0000
0000
0000
0000
0000
0000
0000
0000
0000
0000
0000
0010
0000
0000
0000
0000
0000
0000
0000
0000
0000
0000
0000
0200
0000
0000
0000
0000
0000
0000
0000
0000
0000
0000
0000
0000
0000
0000
0000
0000
0000
0000
0000
0000
0000
0000
0000
0000
0000
0000
0000
0000
0000
0000
0000
0000
0000
0000
0000
0000
0000
0000
0000
0000
0000
0000
0000
0000
0000
0000
0000
1300
0000
0000
0000
0000
0000
0000
0000
0000
0000
0000
0000
0000
0000
0100
0000
0000
0000
0000
0000
0000
0000
0000
0000
0000
0000
0000
0000
0000
0010
0000
0000
0000
0000
0000
0000
0000
0000
0000
0000
0000
0000
0000
0001
0000
0000
0000
0000
0000
0000
0000
0000
0000
0000
0000
0000
0000
0000
1000
0000
0000
0000
0000
0000
0000
0000
0000
0000
0000
0000
0000
0000
,
0100
0000
0011
0000
1100
0000
1010
0100
,
0102
0000
0000
0000
1003
0000
0000
1000
0100
0000
0110
0000
0000
0000
1001
0000
,
0001
0000
1000
0100
0010
0000
0000
0000
0011
0000
0000
0000
0101
0000
0010
0000
,
1001
0000
0000
0000
0000
0001
0010
0000
0110
0000
0000
0000
0000
0000
2000
3001
,
0101
0000
1100
0000
1010
0001
0011
0000
,
1000
0000
0000
0001
0010
0000
0110
0000
0000
0000
1001
0000
1000
0000
0001
0100
,
0010
0000
1010
0000
1100
0010
1001
0000
,
0000
0000
0000
0000
0000
0000
0000
0000
0000
0000
0000
0000
1000
0000
0000
0000
0000
0000
0000
0000
0000
0000
0000
0000
0010
0000
0000
0000
0000
0000
0000
0000
0000
0000
0000
0000
0000
0000
0000
0000
0000
0000
0000
0000
0000
0000
0000
0000
0110
0000
0000
0000
0000
0000
0000
0000
0000
0000
0000
0000
0000
0000
0000
0000
0000
0000
0000
0000
0000
0000
0000
0000
0000
0000
0000
0000
0000
0000
0000
0000
0000
0000
0000
0000
0000
0000
0000
0000
0101
0000
0000
0000
0000
0000
0000
0000
0000
0000
0000
0000
0000
0000
0000
0000
0000
0000
0000
0000
1000
0000
0000
0000
0000
0000
0001
0000
0000
0000
0000
0000
0010
0000
0000
0000
0000
0000
0000
0000
0000
0000
0000
0000
0000
0000
0000
0000
0000
0000
0000
0000
0000
0000
0000
0000
0000
0000
0000
0000
0000
0000
0000
0000
0000
0000
0000
0000
0000
0000
0000
0000
0000
0000
0000
0000
0000
0000
0000
0000
1002
0000
0000
0000
0000
0000
0000
0000
0000
0000
0000
0000
0000
0000
0000
0000
0000
0000
0000
0000
0000
0000
0000
0000
,
0000
0013
0000
0100
0010
0000
0110
0000
0011
0000
2000
0000
3002
0000
0203
0000
,
0310
0000
1000
0000
0000
0000
1000
0000
0100
0000
0001
0000
0100
0000
0010
0000
0100
0000
0010
0000
0001
0010
0100
1000
0001
0000
0000
0000
0000
0000
1000
0000
,
0001
0000
0000
0000
0010
0000
0000
0000
1001
0000
0000
0000
0000
0000
0001
0000
1000
0000
1010
0000
0000
0101
0000
0000
0001
0010
0001
0010
0200
0000
2300
0000
,
3010
0000
0000
0000
0102
0000
0000
0013
0000
0100
0010
0000
1010
0000
0110
0000
,
2000
0000
3002
0000
0203
0000
1300
0100
0000
0010
0100
0010
1000
0100
0010
0001
,
0101
0000
0000
0000
0000
0000
0000
0000
0110
0000
0000
0000
0010
0000
0000
0000
1001
0000
0000
0000
0000
0000
0001
0000
1000
0000
1100
0000
0000
0101
0000
0000
,
0011
0000
0000
0000
1000
0000
0002
0000
0003
0000
0000
0000
0200
0000
0000
0300
0010
0000
0000
0000
0000
0000
0000
0000
0000
0000
0000
0000
0000
0000
0000
0000
2020
0000
0000
0000
3030
0000
0000
0000
0000
0000
0000
0000
0001
0000
0000
0000
0000
0000
0000
0000
0001
0000
0000
0000
0100
0000
0000
0000
0000
0000
0000
0000
,
0101
0000
0001
0000
0020
0000
0000
0031
0100
0000
0000
0001
0000
1000
0010
0000
,
0100
0001
0100
0001
0010
0100
1000
0001
2000
3000
0000
0000
1001
0000
0010
1000
,
0000
0001
0100
0001
1000
0000
0000
1100
0000
0000
0110
0000
0000
0001
1000
0000
,
0001
0100
1000
0100
0001
0000
0000
0010
0200
0300
0000
1100
0000
0001
0100
0000
,
0010
0000
0110
0000
0001
0000
2000
3000
0002
0003
0020
0130
0000
0010
0001
0000
,
1000
0000
0010
0000
0001
0000
0010
0000
2000
3000
0001
0000
1000
0000
0001
0000
0020
0000
0130
0000
0000
0000
0010
0000
0001
0000
0000
0000
1000
0000
0010
0000
,
0000
0001
0010
0100
0001
0000
0000
0011
0000
0000
1000
0000
0000
1010
0000
0000
,
0220
0000
0330
0000
0100
0001
1000
0001
0010
0001
1000
0010
0000
0100
0001
0100
,
0020
0000
0000
0000
0000
0000
0000
0000
0000
0000
0000
0000
0000
0000
0000
0000
0000
0000
0000
0000
0000
0000
0000
0000
0000
0000
0000
0000
0000
0000
0000
0000
0000
0000
0000
0000
0000
0000
0000
0000
0000
0000
0000
0000
0000
0000
0000
0000
1030
0000
0000
0000
0000
0000
0000
0000
0000
0000
0000
0000
0000
0000
0100
0000
0000
0000
0000
0000
0000
0000
0000
0000
0000
0000
0000
0000
0000
1000
0000
0000
0000
0000
0000
0000
0000
0000
0000
0000
0000
0000
0000
0001
0000
0000
0000
0000
0000
0000
0000
0000
0000
0000
0000
0000
0000
0000
0010
0000
0000
0000
0000
0000
0000
0000
0000
0000
0000
0000
0000
0000
0001
0000
0000
0000
0000
0000
0000
0000
0000
0000
0000
0000
0000
0000
0000
0000
0000
0000
0000
0000
0000
0000
0000
0000
0000
0000
0000
0000
0000
0000
0000
0000
0000
0000
0000
0000
0000
0000
0000
0000
0000
0000
0000
0000
0000
0000
0000
0000
0000
0000
0000
0000
0000
0000
0000
0000
0000
0000
0000
0000
0000
0000
0000
0000
0000
0000
0000
0000
0000
0000
0000
0000
;

//---------------dance-single - ----------------
#NOTES:
     dance-single:
     :
     Hard:
     9:
     0.620005,0.678502,0.390688,0.704937,0.530826,511.000000,465.000000,46.000000,83.000000,0.000000,0.000000,0.620005,0.678502,0.390688,0.704937,0.530826,511.000000,465.000000,46.000000,83.000000,0.000000,0.000000:
0000
0000
0000
0000
,
0000
0000
0000
0000
,
0000
0000
0000
0000
,
0000
0000
0000
0000
,
0000
0000
0000
0000
,
0001
0001
0020
0000
0130
0100
0000
2000
,
3010
0010
0200
0302
1003
1000
0200
0000
,
0310
0000
0010
0000
0002
0000
0000
0000
1003
0000
1000
0000
0010
0000
0100
0001
,
0100
0100
0020
0000
0030
0000
2000
0000
,
3100
0100
0020
0000
0031
0001
0000
0200
,
0310
0010
2000
3002
0013
0010
0200
0000
,
1300
0000
1000
0000
0020
0000
0000
0000
0031
0000
0001
0000
0010
0000
1000
0001
,
1000
0000
1000
0000
0200
0000
0320
0032
2003
0000
3001
0000
0001
0000
0200
0000
,
0000
1300
1000
0000
0200
0310
0010
2000
,
3200
0310
0010
0002
0000
0103
0100
2000
,
0000
0000
3100
0000
0100
0000
0001
0000
1000
0001
1000
0000
1000
0000
0200
0000
,
0000
0000
0000
0000
0000
0300
0000
0000
0000
0000
0000
0000
0000
0000
0000
0010
0000
0000
0000
0000
0000
0010
0000
0000
,
0000
0000
0000
2002
0000
0000
3003
0002
,
1003
0000
0000
0010
0000
0100
0010
0000
1000
0000
1000
0000
0000
0001
0020
0000
,
0000
0130
0000
0010
0001
0000
1000
0001
1000
0001
2000
0000
0000
0000
3002
0000
,
0000
0103
0000
0010
1000
0000
0001
0000
0001
0000
0000
0000
0010
0000
0000
0100
,
0000
0000
1000
0000
0002
2003
3002
0000
0103
0000
0000
0010
0000
1000
0100
0000
,
0010
0000
0010
0000
0000
0010
0001
0000
0000
1000
0000
0010
0100
0000
0001
1000
,
0001
1000
0002
0000
0000
0000
0013
0000
0000
0100
0000
1000
0001
0000
0010
0000
,
0010
0000
0000
0000
0001
0000
0000
0100
0000
0000
0010
0000
0000
0000
0000
0000
,
0000
0000
2000
0000
0000
0000
3002
0000
0000
0013
0000
0100
0010
0000
0001
0000
,
0001
2000
3002
0203
2300
3000
0100
0010
,
0100
0000
0101
0000
0000
0000
1000
0000
0100
0000
0001
0000
0000
0000
0100
0100
,
0000
0010
0000
0000
0001
1000
0001
1000
0020
0000
0030
0000
1020
0000
0000
0000
0000
0000
0000
0000
0130
0000
0000
0000
0000
0000
0010
0000
0000
0000
1000
0000
,
0100
0010
0010
0002
2003
3002
0203
0300
,
0010
0100
0010
1010
0000
0001
0100
1000
,
0000
0000
0000
0000
0100
0000
0100
0000
0000
0001
0000
0000
1000
0000
0000
0000
0000
0000
0000
0000
1100
0000
0000
0000
0000
0000
0000
0000
0110
0000
0000
0000
,
0000
0001
0000
1000
0010
0000
0100
0000
0001
0000
0101
0000
0000
0000
0110
0000
,
0000
0001
0000
1000
0100
0000
0010
0000
0001
0000
1000
0001
1000
0001
1000
0000
,
0000
1000
0001
0000
0000
0100
0000
0001
0000
0001
1000
0000
0000
0010
0000
0000
,
0100
0000
0000
0000
0001
0000
1000
0100
1000
0100
2000
0000
0000
0000
3200
0000
,
0000
0310
0000
0010
0001
0000
1000
0000
0010
0000
0200
0000
0000
0000
2300
0000
,
0000
3100
0000
0100
0010
0000
1000
0000
0001
0000
0010
0001
0010
0001
0010
0000
,
0000
0001
0010
0000
0000
0100
0000
1000
0000
1000
0001
0000
0000
0100
0000
0000
,
0010
0000
0000
1000
0000
0000
0002
0000
0000
0000
0103
0000
0000
0000
0110
0000
,
0000
0001
0000
1000
0001
0000
0010
0000
0010
0000
0100
0000
0000
0000
0110
0000
,
0000
1000
0000
0001
0010
0000
0001
0000
0100
0000
0010
1000
0010
1000
0010
0000
,
0000
0010
0100
0000
0000
0001
0000
0000
1000
0000
0100
0000
0000
0010
0000
0000
,
0001
0000
0000
0001
1000
0000
0001
0100
0001
0100
0001
0000
0000
0000
0101
0000
,
0000
0010
0000
0100
1000
0000
0100
0000
0010
0000
0001
0000
0000
0000
0210
0000
,
0000
0301
0000
1000
0100
0000
0001
0000
1000
0000
0010
0100
0010
0100
0010
0000
,
0000
0010
0001
0000
0000
1000
0000
0000
0001
0000
0100
0000
0000
1000
0000
0000
,
0010
0000
0000
0002
0000
0000
2000
0000
0000
0000
3003
0000
0000
0000
0010
0000
,
0000
0010
0000
0000
0000
2002
0000
0000
,
3003
0000
1020
0000
0032
0000
0013
1000
,
1002
0000
0000
0000
0013
0000
0000
0100
0010
0000
0110
0000
0000
0000
1001
0000
,
0000
1000
0021
0000
2030
0000
3010
0001
,
2001
0000
0000
0000
3000
0000
0010
0000
1001
0000
0000
0000
0000
0000
2000
3001
,
0012
0000
0203
0000
1300
0100
0102
0000
,
0013
0000
0000
0010
0100
0000
1100
0000
0000
0000
1001
0000
0000
0000
0101
0000
,
2010
0000
3200
0000
0301
0100
2100
0000
,
3000
0010
1001
0000
0000
0011
0000
1200
,
0000
0310
0000
0001
0010
0000
0100
0000
0100
0000
1100
0000
0001
0000
0100
0000
,
0110
0000
0000
0000
1000
0000
0001
1000
0001
1000
0001
0000
0101
0000
0000
0000
,
1000
0000
0000
0000
0100
0000
0000
0000
0110
0000
0000
0000
0000
0000
0000
0000
0000
0000
0001
0000
0000
0010
0000
0000
0100
1000
0100
1000
0200
0000
0000
0000
,
0310
0000
0000
0000
1001
0000
0000
1000
0000
0001
0010
0000
0100
0000
0100
0000
,
0011
0000
1000
0000
0001
0000
0101
0000
0000
0000
0010
0000
1000
0001
1000
0001
,
0101
0000
0000
0000
0000
0000
0000
0000
1000
0000
0000
0000
0010
0000
0000
0000
0101
0000
0000
0000
0000
0000
0000
0000
0000
0000
1000
0000
0000
0100
0000
0000
,
0010
0000
0001
1000
0000
0000
0000
0000
0010
0000
0000
0000
0000
0000
0000
0000
1002
0000
0000
0000
0000
0000
0103
0000
0000
0000
0001
0000
1000
0000
0000
0000
,
0001
0000
0010
0000
0100
0000
0000
0100
2000
0000
0000
0010
3000
0010
0100
0000
,
0001
1000
0001
1000
0100
0000
0000
0000
0210
0000
0000
1300
0001
0000
0001
0100
,
0000
0001
1000
0000
0010
0000
0000
0100
0000
0000
0001
0000
0000
0001
1000
0000
,
0100
0010
0100
0010
0100
0000
0000
0000
0012
0000
0000
1003
0000
1000
0001
0000
,
0100
0010
1000
0200
2300
3002
0003
0010
,
0001
0100
0001
0100
0001
0000
0000
0000
2010
0000
0000
0000
3100
0000
0001
0000
,
0100
0000
1000
0000
0001
0000
0000
0110
0000
0000
1000
0000
0000
0110
0000
0000
,
0002
0000
0000
0000
1003
0000
0000
1000
0010
0000
0000
0000
1000
0001
1000
0000
,
0000
0010
0220
0000
0000
0330
0000
0000
;

//---------------dance-single - extra editing space----------------
#NOTES:
     dance-single:
     :
     Edit:
     1:
     0.110412,0.629069,0.008493,0.016986,0.182604,91.000000,90.000000,1.000000,2.000000,0.000000,0.000000,0.110412,0.629069,0.008493,0.016986,0.182604,91.000000,90.000000,1.000000,2.000000,0.000000,0.000000:
0000
0000
0000
0000
,
0000
0000
0000
0000
,
0000
0000
0000
0000
,
0000
0000
0000
0000
,
0000
0000
0000
0000
,
0000
0000
0000
0000
,
0000
0000
0000
0000
,
0000
0000
0000
0000
,
0000
0000
0000
0000
,
0000
0000
0000
0000
,
0000
0000
0000
0000
,
0000
0000
0000
0000
,
0000
0000
0000
0000
,
0000
0000
0000
0000
,
0000
0000
0000
0000
,
0000
0000
0000
0000
,
0000
0000
0000
0000
,
0000
0000
0000
0000
,
0000
0000
0000
0000
,
0000
0000
0000
0000
,
0000
0000
0000
0000
,
0000
0000
0000
0000
,
0000
0000
0000
0000
,
0000
0000
0000
0000
,
0000
0000
0000
0000
,
0000
0000
0000
0000
,
0000
0000
0000
0000
,
0000
0000
0000
0000
,
0000
0000
0000
0000
,
0000
0000
0000
0000
,
0000
0000
0000
0000
,
0000
0000
0000
0000
,
0000
0000
0000
0000
,
0000
0000
0000
0000
,
0000
0000
0000
0000
,
0000
0000
0000
0000
,
0000
0000
0000
0000
,
0000
0000
0000
0000
,
0000
0000
0000
0000
,
0000
0000
0000
0000
,
0000
0000
0000
0000
,
0000
0000
0000
0000
,
0000
0000
0000
0000
,
0000
0000
0000
0000
,
0000
0000
0000
0000
,
0000
0000
0000
0000
,
0000
0000
0000
0000
,
0000
0000
0000
0000
,
0000
0000
0000
0000
,
0000
0000
0000
0000
0000
0000
0000
0000
0000
0000
0000
0000
0000
0000
0001
1000
,
0100
0000
0000
1000
0010
0000
0000
0100
0000
0001
1000
0000
0001
0010
0001
0010
,
0001
0000
0000
0001
1000
0000
0010
0100
0000
0100
0010
0000
1000
0001
0100
0001
,
1000
0000
0000
1000
0001
0000
0000
0010
0000
0100
0010
0000
0001
0100
0010
1000
,
0000
1000
0100
0000
0010
0100
0000
0100
0010
0000
0002
2003
3010
0000
0000
0010
,
0100
0000
0000
0001
0000
1000
0100
0000
0010
0000
0000
0010
0001
0000
0000
0001
,
1000
0000
0010
0100
0000
0100
0010
0000
1000
0001
0100
0001
1000
0000
0000
0001
,
0010
0000
0000
0100
0000
0100
0010
0000
0001
0000
0000
0100
0010
0100
0001
0000
,
1000
0000
0000
0000
0000
0000
0000
0000
0000
0000
0000
0000
0000
0000
0000
0000
0000
0000
0000
0000
0000
0000
0000
0000
0001
0000
0000
0000
0000
0000
0010
0000
0000
0000
0000
0000
0000
0000
0000
0000
0100
0000
0000
0000
0000
0000
0000
0000
0000
0000
0000
0000
0000
0000
0000
0000
0000
0000
0000
0000
1000
0000
0000
0000
0000
0000
0001
0000
0000
0000
0000
0000
1000
0000
0000
0000
0000
0000
0000
0000
0000
0000
0000
0000
0000
0000
0000
0000
0000
0000
0000
0000
0000
0000
0000
0000
0000
0000
0000
0000
0000
0000
0000
0000
0000
0000
0000
0000
0000
0000
0000
0000
0000
0000
0000
0000
0000
0000
0000
0000
0000
0000
0000
0000
0000
0000
0000
0000
0000
0000
0000
0000
0000
0000
0000
0000
0000
0000
0000
0000
0000
0000
0000
0000
0000
0000
0000
0000
0000
0000
0000
0000
0000
0000
0000
0000
0000
0000
0000
0000
0000
0000
0000
0000
0000
0000
0000
0000
0000
0000
0000
0000
0000
0000
0000
0000
0000
0000
0000
0000
0000
0000
0000
0000
0000
0000
0000
0000
0000
0000
0000
0000
,
0000
0000
0000
0000
,
0000
0000
0000
0000
,
0000
0000
0000
0000
,
0000
0000
0000
0000
,
0000
0000
0000
0000
,
0000
0000
0000
0000
1000
0000
0010
0000
0101
0000
0000
0100
0000
0000
1000
0010
,
1000
0000
0001
0000
0000
0000
0000
0000
0010
0000
0100
0000
0010
0100
0000
0000
0000
0000
0000
0000
0000
0000
0000
0000
0000
0000
0000
0000
0000
0000
0000
0000
;

//---------------dance-single - ----------------
#NOTES:
     dance-single:
     :
     Medium:
     7:
     0.430728,0.493456,0.084932,0.348222,0.118905,355.000000,345.000000,10.000000,41.000000,0.000000,0.000000,0.430728,0.493456,0.084932,0.348222,0.118905,355.000000,345.000000,10.000000,41.000000,0.000000,0.000000:
// measure 0
0000
0000
0000
0000
,  // measure 1
0000
0000
0000
0000
,  // measure 2
0000
0000
0000
0000
,  // measure 3
0000
0000
0000
0000
,  // measure 4
0000
0000
0000
0000
,  // measure 5
0001
0100
0010
0000
1000
0010
0100
0000
,  // measure 6
0001
1000
0100
0000
0010
0001
1000
0000
,  // measure 7
0001
0100
0010
0000
1000
0100
0010
0000
,  // measure 8
0001
1000
0002
0000
0000
0000
0003
0000
,  // measure 9
0100
0010
1000
0000
0001
0010
0100
0000
,  // measure 10
1000
0001
0100
0000
0010
1000
0010
0000
,  // measure 11
0100
1000
0100
0000
0001
1000
0001
0000
,  // measure 12
0010
0100
1000
0002
2003
3001
0100
0001
,  // measure 13
0000
1000
0010
1000
0000
0100
0010
0100
,  // measure 14
0000
1000
0001
0100
0000
0010
1000
0001
,  // measure 15
0000
0010
0100
1000
0000
0010
0100
0002
,  // measure 16
0000
0000
0003
0000
0000
1000
0000
0001
,  // measure 17
0000
0000
0000
2002
0000
0000
3003
0000
,  // measure 18
0001
0000
0000
0100
0000
0000
0010
0000
1000
0000
0001
0000
0000
0000
1000
0000
,  // measure 19
0000
0100
0000
0000
0010
0000
0001
0000
1000
0000
0001
0000
0000
0000
1000
0000
,  // measure 20
0000
0001
0000
0000
0100
0000
0010
0000
0010
0000
0000
0000
1000
0000
0000
0001
,  // measure 21
0000
0000
1000
0000
0000
0000
0000
0000
0001
0000
0000
0010
0000
0000
0100
0000
,  // measure 22
0010
0000
0001
0000
0000
0000
1000
0000
0000
0010
0000
0000
0100
0000
0010
0000
,  // measure 23
1000
0000
0001
0000
0000
0000
1000
0000
0000
0100
0000
0000
0010
0000
0001
0000
,  // measure 24
1000
0000
0000
0000
0001
0000
0000
0100
0000
0000
0010
0000
0000
0000
0000
0000
,  // measure 25
0000
2000
0000
3020
0000
0130
0001
1000
,  // measure 26
0000
0001
0010
0001
1000
0000
0010
1000
,  // measure 27
0000
0100
0000
0010
0001
1000
0000
0020
,  // measure 28
0000
0200
0330
1000
0000
0001
0000
1000
,  // measure 29
0100
0010
0000
0100
1000
0001
0100
0000
,  // measure 30
0010
0100
0000
0010
0000
1000
0100
0010
,  // measure 31
0000
0002
0000
2003
0000
3001
0000
0100
,  // measure 32
0000
0010
1000
0010
0000
1000
0000
0001
,  // measure 33
0000
0010
0100
0010
0000
0001
1000
0001
,  // measure 34
0000
0000
0100
0000
0000
0100
0000
0000
0100
0000
0010
0000
0000
1000
0000
0000
,  // measure 35
0010
0000
1000
0001
0000
1000
0000
0100
,  // measure 36
0000
1000
0000
0000
0001
0000
0010
0000
0000
0000
0001
0000
0000
0000
1000
0000
,  // measure 37
0000
0001
0000
0000
0100
0000
0010
0000
0000
0000
1000
0000
1000
0000
0010
0000
,  // measure 38
0000
0000
0100
0000
0000
0001
0000
0000
1000
0000
0001
0000
0000
0010
0000
0000
,  // measure 39
0100
0000
0000
1000
0000
0000
0001
0000
0000
0000
1000
0000
0000
0000
1010
0000
,  // measure 40
0000
0001
1000
0100
0000
0010
0000
1000
,  // measure 41
0000
0010
0001
0200
0000
0310
0000
1100
,  // measure 42
0000
0001
1000
0010
0000
0100
0000
0001
,  // measure 43
0000
0010
0100
0010
0000
0001
0000
0101
,  // measure 44
0000
1000
0001
0010
0000
0100
0000
1000
,  // measure 45
0000
0001
1000
0010
0100
0001
0000
0011
,  // measure 46
0000
0000
1000
0000
0001
0000
0100
0000
0000
0000
0010
0000
0000
1000
0000
0000
,  // measure 47
0001
0000
0000
1000
0000
0000
0200
0000
0000
0000
0000
0000
0300
0000
0010
0000
,  // measure 48
0000
0000
0010
0000
0000
0000
0000
0000
0000
0000
2002
0000
0000
0000
0000
0003
,  // measure 49
3000
0000
0002
0000
0203
0000
0310
1000
,  // measure 50
0002
0000
1003
0000
1000
0100
0000
0010
,  // measure 51
0000
0010
0002
0000
2003
0000
3001
0100
,  // measure 52
2000
3000
0000
0100
0001
0000
0000
0000
,  // measure 53
2000
0000
3200
0000
0310
0001
2000
0000
,  // measure 54
3001
0000
0001
0010
0000
0100
0000
0100
,  // measure 55
0020
0000
0032
0000
1003
0001
0200
0300
,  // measure 56
0000
0010
1000
0000
0000
0002
0000
0023
,  // measure 57
0000
0130
0000
0000
0010
0000
0001
0000
0000
0000
1000
0000
0001
0000
0100
0000
,  // measure 58
0010
0000
1000
0010
1000
0000
0100
0000
,  // measure 59
0010
0001
1000
0000
0002
0000
0103
0000
,  // measure 60
0002
0000
0203
0000
0310
1000
0002
0000
,  // measure 61
1003
0100
0010
0001
0000
1000
0001
0100
,  // measure 62
0010
0000
0000
0000
1000
0000
0001
0000
0100
0000
0000
0000
0010
1000
0010
1000
,  // measure 63
0001
0000
0000
0000
0010
0000
0000
0000
2100
0000
0000
3001
0000
0000
0100
0000
,  // measure 64
0010
0000
0000
0000
1000
0000
0000
0000
0001
0000
0000
1000
0000
0000
0100
0000
,  // measure 65
0010
0000
0001
0000
1000
0000
0000
0000
1200
0000
0000
0310
0000
0000
0001
0000
,  // measure 66
1000
0000
0000
0000
0001
0000
0000
0100
0000
0000
0010
0000
0000
1000
0000
0000
,  // measure 67
0002
0000
0000
0000
1003
0000
0000
0000
1002
0000
0000
0013
0000
0000
0100
0000
,  // measure 68
0010
0001
1000
0001
,  // measure 69
0100
0000
0010
0000
2010
0000
3001
1000
,  // measure 70
0100
0000
0000
0000
0010
0000
0000
0001
0000
0000
1000
0000
0000
0001
0000
0000
,  // measure 71
0200
0000
0310
0000
1000
0000
0001
1000
,  // measure 72
0100
0000
0020
0000
0000
0030
0000
0000
;

//---------------dance-single - ----------------
#NOTES:
     dance-single:
     :
     Easy:
     4:
     0.251157,0.370092,0.084932,0.101919,0.000000,207.000000,197.000000,10.000000,12.000000,0.000000,0.000000,0.251157,0.370092,0.084932,0.101919,0.000000,207.000000,197.000000,10.000000,12.000000,0.000000,0.000000:
0000
0000
0000
0000
,
0000
0000
0000
0000
,
0000
0000
0000
0000
,
0000
0000
0000
0000
,
0000
0000
0000
0000
,
0001
0000
0010
0000
,
0100
0000
1000
0000
,
0001
0000
1000
0000
,
0010
0000
0000
0000
,
0100
0000
0001
0000
,
1000
0000
0001
0000
,
0010
0000
0100
0000
,
1000
0000
0000
0000
0000
0001
0000
0000
,
0000
1000
0000
0000
0000
0001
0000
0000
,
0000
0100
0000
0000
0000
0010
0000
0000
,
0000
1000
0000
0000
0000
0001
0000
0000
,
0000
0000
0000
0000
0000
1000
0000
1000
,
0000
0000
0000
0002
0000
0003
0000
0000
,
0001
0000
0000
0000
0010
0000
0000
0001
,
0000
0000
0000
0100
0000
0001
0000
1000
,
0000
0000
0000
0010
0000
0000
0000
1000
,
0000
0000
0001
0000
,
1000
0000
0000
0100
0000
0000
0000
0010
,
0000
0001
0000
0010
0000
0000
0000
0001
,
0000
0000
0000
1000
0000
0000
0000
0000
,
0000
0010
0000
1000
0000
0001
0000
0000
,
0000
0010
0000
0010
0000
0100
0000
1000
,
0000
1001
0000
0000
0000
0110
0000
0000
,
0000
0000
0000
1000
0000
0100
0000
0010
,
0000
0000
0000
0010
0000
0001
0000
1000
,
0000
0001
0000
1000
0000
0100
0000
0010
,
0000
0000
0000
0000
0000
0001
0000
0100
,
0000
0010
0000
0000
0000
1000
0000
0001
,
0000
1000
0000
0000
0000
0001
0000
0001
,
0000
0001
0000
0000
0000
1000
0000
1000
,
0000
1000
0000
0000
0000
0100
0000
0010
,
0000
0001
0000
0000
0000
1000
0000
0001
,
0000
0100
0000
0000
0000
0010
0000
0010
,
0000
0010
0000
0000
0000
1000
0000
0000
,
0000
0100
0000
0000
0000
0010
0000
0010
,
0000
0001
0000
1000
0000
0001
0000
0001
,
0000
0001
0000
0000
0000
1000
0000
1000
,
0000
0010
0000
0100
0000
0001
0000
1000
,
0000
0001
0000
0000
0000
1000
0000
1000
,
0000
0100
0000
0010
0000
0001
0000
0001
,
0000
1000
0000
0000
0000
0001
0000
0001
,
0000
0100
0000
0010
0000
1000
0000
0100
,
0000
1000
0000
0001
0000
0000
0000
1000
,
0000
1000
0000
0000
0000
2000
0000
0000
,
3000
0001
0010
0100
,
0110
1000
0001
0100
,
0100
0002
0013
0001
,
1001
0000
0000
1000
1000
0000
0000
0000
,
1000
0010
0100
0101
,
1000
0001
1000
0001
,
0010
0100
0010
0110
,
0000
1000
1000
0000
0000
0001
0000
1000
,
0000
0010
0000
0010
0000
1000
0001
1000
,
0001
0000
0000
0010
0000
0200
1300
0000
,
0001
0101
1000
0000
,
0010
0100
0001
1001
,
1000
0001
1000
0001
0000
0000
0010
0000
,
0001
1000
1001
0000
,
0010
0001
2000
3001
,
0000
0010
0100
0010
,
0000
0001
0200
0310
,
0000
0000
1000
0000
0000
0001
0000
0000
,
1000
0100
0020
0031
,
0000
1000
0001
0100
,
0000
0010
2000
3100
,
0010
0000
0001
0000
0000
1000
0000
0000
,
0001
0020
0000
0200
,
0330
0000
2002
0000
0000
3003
0000
0000
;
