#TITLE:Flashdance;
#SUBTITLE:;
#ARTIST:litmus*;
#TITLETRANSLIT:;
#SUBTITLETRANSLIT:;
#ARTISTTRANSLIT:;
#GENRE:Sexy electro house;
#CREDIT:TiKAL+;
#MUSIC:[Round F] - Flashdance {TikalFan9000}.ogg;
#BANNER:[Round F] - Flashdance {TikalFan9000}.png;
#BACKGROUND:[Round F] - Flashdance {TikalFan9000}-bg.png;
#CDTITLE:cdtitle.png;
#SAMPLESTART:24.265;
#SAMPLELENGTH:14.769;
#SELECTABLE:YES;
#OFFSET:-0.265;
#BPMS:0.000=130.000;
#STOPS:;
#BGCHANGES:;
#FGCHANGES:;

//--------------- dance-single - TiKAL ----------------
#NOTES:
     dance-single:
     TiKAL:
     Hard:
     8:
     0,0,0,0,0:
0000
0000
0000
0000
,
0000
0000
0000
0000
,
0000
0000
0000
0000
,
0000
0000
0000
0000
,
0000
0000
0000
0000
,
0000
0000
0000
0000
,
0000
0000
0000
0000
,
0022
0000
0033
2020
0000
3030
2002
0000
,
0000
0000
0000
3003
,
0001
0000
0000
0001
0000
0000
0100
0000
0001
0000
0000
0001
0000
0000
1000
0000
,
0100
0000
0000
0100
0000
0000
0010
0000
0100
0000
0000
0100
0000
0000
1000
0000
,
0010
0010
0100
0100
0001
0001
1000
1000
,
0001
0010
0100
1000
0001
0100
0010
1000
,
0001
0000
0010
0000
0001
0000
0000
1000
0000
0001
0100
0000
0001
0000
1000
0000
,
0100
0000
0000
0100
0010
0000
0000
0010
0001
0000
0000
0001
0000
1000
0001
0000
,
1000
0000
0010
0000
1000
0000
0000
0001
0000
1000
0100
0000
1000
0000
0001
0000
,
0100
0000
0000
0100
0010
0000
0000
0010
1000
0000
0001
1000
0000
0000
0000
0000
,
1000
0000
0010
0000
1000
0000
0000
0001
0000
1000
0100
0000
1000
0000
0001
0000
,
0100
0000
0000
0100
0010
0000
0000
0010
1000
0000
0000
1000
0000
0001
1000
0000
,
0001
0000
0010
0000
0001
0000
0000
1000
0000
0001
0100
0000
0001
0000
1000
0000
,
0100
0010
0001
1000
0010
0100
0001
1000
,
0001
0000
0001
0000
0020
0000
0000
0000
0230
0000
0000
0000
1300
0000
0000
1000
,
0000
0000
0000
0100
0000
0000
1000
0000
0000
0001
0000
0000
0100
0000
0000
0000
0100
0000
0000
0000
0100
0000
0000
0000
,
0001
0001
0200
0000
0320
0000
1030
0001
,
1000
0000
0000
0000
0000
0000
0000
0000
0000
1000
0000
0000
0000
0000
0000
0000
0000
0000
1000
0000
0000
0000
0000
0000
0001
0000
0000
0000
0000
0000
0000
0000
0001
0000
0000
0000
0000
0000
0000
0000
0001
0000
0000
0000
0000
0000
0000
0000
,
1000
0000
1000
0000
0020
0000
0000
0000
0230
0000
0000
0000
0301
0000
0000
0001
,
0000
0000
0000
0100
0000
0000
0001
0000
0000
1000
0000
0000
0100
0000
0000
0000
0100
0000
0000
0000
0100
0000
0000
0000
,
1000
1000
0200
0000
0320
0000
0031
1000
,
0001
0100
0010
1000
0001
1000
1001
0000
,
0001
0000
0000
0000
0010
0000
0000
0100
0000
0000
0100
0000
0010
0000
0100
0000
,
1000
0000
0000
0000
0010
0000
0000
0100
0000
0000
0100
0000
0001
0000
1000
0000
,
0010
0000
0000
0000
0100
0000
0000
0010
0000
0000
0100
0000
0001
0000
1000
0000
,
0100
0000
0010
0000
0100
0000
0000
1000
0000
0000
0001
0000
0100
0000
0010
0000
,
1000
0010
1000
0000
0001
0010
0001
0000
,
1000
0100
1000
0000
0001
0100
0001
0000
,
1000
0100
0010
0001
1000
0010
0100
0001
,
1000
0000
0000
0100
0000
0010
0000
0002
0000
0000
2000
0000
3003
0000
0000
0000
,
0101
0000
0000
0000
1000
0000
0000
0100
1000
0000
0000
0000
0001
0000
1000
0000
,
0100
0000
0000
0000
0010
0000
0000
0100
0010
0000
0000
0000
0100
0000
1000
0000
,
0001
0000
0000
0000
1000
0000
0000
0010
1000
0000
0000
0000
0001
0000
1000
0000
,
0010
0000
0100
0000
0001
0000
0000
0010
0000
0000
0100
0000
1000
0000
0000
0000
,
0001
0100
0001
0100
0010
1000
0100
0010
,
0001
1000
0001
0100
0001
1000
0100
0010
,
0001
0010
0001
0010
0100
1000
0100
1000
,
0002
0000
0000
0000
0000
0003
1001
0000
,
0001
0100
0010
0100
0001
0100
0010
0100
,
0001
1000
0100
1000
0001
1000
0010
1000
,
0100
0000
0010
0000
0100
0000
1000
0000
0100
0000
0010
0000
0100
0000
1000
0001
,
0000
0000
0100
0000
0100
0000
0001
1000
0000
0000
0100
0000
0100
0000
0010
0000
,
0001
0010
0100
0010
0001
0010
0100
0010
,
0001
1000
0010
1000
0001
1000
0100
1000
,
0010
0000
0100
0000
0010
0000
1000
0000
0010
0000
0100
0000
0010
0000
1000
0001
,
0000
0000
0010
0000
0010
0000
0001
1000
0000
0000
0010
0000
0110
0000
0000
0000
,
1000
0100
0010
0100
1000
0100
0010
0100
,
1000
0001
0100
0001
1000
0001
0010
0001
,
0100
0000
0010
0000
0100
0000
0001
0000
0100
0000
0010
0000
0100
0000
0001
1000
,
0000
0000
0100
0000
0100
0000
1000
0001
0000
0000
0100
0000
0100
0000
0010
0000
,
1000
0010
0100
0010
1000
0010
0100
0010
,
1000
0001
0010
0001
1000
0001
0100
0001
,
0010
0000
0100
0000
0010
0000
0001
0000
0010
0000
0100
0000
0010
0000
0001
1000
,
0000
0000
0010
0000
0010
0000
1000
0001
0000
0000
0010
0000
0110
0000
0000
0000
,
0000
1000
0010
0100
0000
0001
0010
0100
,
0000
1000
0100
0010
0000
0001
0100
0010
,
0000
1000
0100
1000
0000
0001
0100
0001
,
0000
1000
0001
1000
0000
0001
1000
0000
;

//--------------- dance-single - TiKAL ----------------
#NOTES:
     dance-single:
     TiKAL:
     Challenge:
     10:
     0,0,0,0,0:
0000
0000
0000
0000
,
0000
0000
0000
0000
,
0000
0000
0000
0000
,
0000
0000
0000
0000
,
0000
0000
0000
0000
,
0000
0000
0000
0000
,
0000
0000
0000
0000
,
0022
0000
0033
2020
0000
3030
2002
0000
,
0000
0000
0000
0000
0000
0000
0000
0000
0000
0000
0000
3003
0M0M
0000
M0M0
0000
,
0001
0000
1000
0100
1000
0000
0010
0000
0100
0000
0001
0010
0001
0000
0100
0000
,
0010
0000
1000
0010
1000
0000
0100
0000
0010
0000
0001
0100
0001
0000
0010
0000
,
0100
0000
0000
0100
0000
0000
1000
0000
0000
1000
0000
0000
0001
0000
0001
0100
0000
0100
0010
0000
0010
1000
0000
1000
,
0002
2003
3020
0230
0302
2003
3200
0320
,
0031
0000
1000
0100
0010
0000
0100
0100
0000
0100
1000
0100
1000
0000
0001
0000
,
1000
0000
0001
0100
0010
0000
0100
0010
1000
0000
0010
1000
0000
0010
0100
0001
,
1000
0000
0001
0010
0100
0000
0010
0010
0000
0010
0001
0010
0001
0000
1000
0000
,
0001
0000
1000
0010
0100
0000
0010
0100
0001
0000
0100
0001
MM00
0000
00MM
0000
,
1000
0000
0100
1000
0010
0000
0100
0100
0000
0100
0001
0100
0001
0000
1000
0100
,
0010
0000
0100
1000
0001
0000
1000
0001
0100
0000
0001
0100
0000
0100
0010
1000
,
0001
0000
0100
0001
0010
0000
0100
0100
0000
0100
1000
0100
1000
0000
0001
0100
,
0020
0230
0302
2003
3200
0320
0032
2003
,
3001
0000
0001
0000
0200
0000
0000
0000
0320
0000
0000
0000
1030
0000
0001
0100
,
0000
0000
0000
0001
0000
0000
0100
0000
0000
0001
0000
0000
0010
0000
0000
0000
0000
0000
0100
0000
0000
0000
0000
0000
1000
0000
0000
0000
0000
0000
0000
0000
1000
0000
0000
0000
0000
0000
0000
0000
1000
0000
0000
0000
0000
0000
0000
0000
,
0001
0000
0001
0000
0020
0000
0000
0000
0230
0000
0000
0000
1300
0001
0100
0010
,
1000
0000
0000
0000
0000
0000
0100
0000
0000
1000
0000
0000
0000
0000
0000
0010
0000
0000
1000
0000
0000
0000
0000
0000
0001
0000
0000
0000
0000
0000
0000
0000
0001
0000
0000
0000
0000
0000
0000
0000
0001
0000
0000
0000
0000
0000
0000
0000
,
1000
0000
1000
0000
0200
0000
0000
0000
0320
0000
0000
0000
0031
0000
1000
0100
,
0000
0000
0000
1000
0000
0000
0100
0000
0000
1000
0000
0000
0010
0000
0000
0000
0000
0000
0100
0000
0000
0000
0000
0000
0001
0000
0000
0000
0000
0000
0000
0000
0001
0000
0000
0000
0000
0000
0000
0000
0001
0000
0000
0000
0000
0000
0000
0000
,
1000
0000
1000
0000
0020
0000
0000
0000
0230
0000
0000
0000
0301
1000
0100
0010
,
0100
1000
0100
1000
0001
0100
0001
0100
0010
0100
0010
0100
0002
0000
0000
0000
,
1003
0000
1000
0000
0010
0100
0000
1000
0000
0000
1000
0000
0100
0000
0010
0000
,
1000
0000
1000
0000
0100
0010
0000
0001
0000
0000
0001
0000
1000
0000
0010
0000
,
0100
0000
0100
0000
0001
0010
0000
0100
0000
0000
0001
0000
0100
0000
1000
0000
,
0001
0000
0100
0000
0001
0000
0000
1000
0000
0000
0001
0000
0010
0000
0100
0000
,
1000
0100
1000
0100
0010
0001
0010
0001
1000
0010
1000
0010
0100
0001
0100
0001
,
1000
0001
1000
0001
0010
0100
0010
0100
1000
0100
1000
0100
0010
0001
0010
0001
,
1000
0010
0100
0010
1000
0001
0010
0100
1000
0001
0100
0010
0100
0001
1000
0100
,
1000
0001
1000
0010
0100
0001
1000
0100
0010
0001
1000
0001
0200
0000
0000
0000
,
0302
0000
0000
0000
1003
0200
0000
0320
0001
0000
0000
0000
0130
0000
1000
0000
,
0001
0000
0100
0000
0010
2000
0000
3001
2000
0000
0000
0000
3100
0000
0010
0000
,
0002
0000
0000
0000
1003
0020
0000
0230
0001
0000
0000
0000
0310
0000
1000
0000
,
0001
0000
0010
0000
0001
0000
0001
2000
0000
0000
3100
0000
0010
0000
0001
0000
,
1000
0010
1000
0010
0100
0001
1000
0100
,
0010
1000
0010
0100
0010
0001
1000
0010
,
0100
0000
0000
0001
0000
0000
0100
0000
0000
0001
0000
0000
1000
0000
0000
0100
0000
0000
1000
0000
0000
0100
0000
0000
0040
0000
0400
0000
0000
0000
0000
0000
0000
0000
0000
0000
0000
0000
0000
0000
0000
0000
0000
0000
0000
0330
0000
0000
,
2000
0000
0000
0000
3001
0000
0100
0001
0000
0001
1000
0000
0100
0000
0010
0001
,
0000
0001
0100
0000
0001
0000
0010
0001
0000
0001
0100
0000
0001
0000
1000
0010
,
0000
0010
0100
0000
0010
0000
1000
0100
0000
0100
0010
0000
0100
0000
1000
0001
,
0000
0001
0100
0000
0001
0000
1000
0001
0000
0001
0100
0000
0001
0000
1000
0100
,
0000
0100
0010
0000
0001
0000
1000
0010
0000
0010
0100
0000
0001
0000
0100
0001
,
0000
0001
0010
0000
0001
0000
0100
0001
0000
0001
0010
0000
0001
0000
1000
0100
,
0000
0100
0010
0000
0100
0000
1000
0010
0000
0010
0100
0000
0010
0000
1000
0001
,
0000
0001
0010
0000
0001
0000
1000
0001
0000
0001
0010
0000
0001
0000
1000
0010
,
0000
0010
0100
0000
0001
0000
1000
0100
0000
0100
0010
0000
0001
0000
1000
0010
,
0000
0010
0100
0000
0110
0000
0100
0001
0000
0001
1000
0000
1001
0000
0001
0010
,
0000
0010
0100
0000
0110
0000
0100
1000
0000
1000
0001
0000
1001
0000
1000
0010
,
0000
0010
0100
0000
0101
0000
0001
0010
0000
0010
0100
0000
1100
0000
1000
0100
,
0000
0100
0010
0000
0011
0000
0001
0100
0000
0100
0010
0000
1010
0000
1000
0010
,
0000
0100
0001
0000
1001
0000
0001
0010
0000
0100
1000
0000
1001
0000
0001
1000
,
0000
0100
0010
0000
0110
0000
1000
0001
0000
0100
0010
0000
0110
0000
0100
0001
,
0000
0100
0010
0000
1010
0000
0010
1000
0000
0010
0100
0000
0101
0000
1000
0100
,
0000
0100
0010
0000
0011
0000
0001
0100
0000
0100
0010
0000
1010
0000
1000
0000
,
0000
0001
0010
0100
0000
1000
0010
0100
,
0000
0001
0100
0010
0000
1000
0100
0010
,
0000
0001
0100
0001
0000
1000
0100
1000
,
0000
0001
1000
0001
0000
1000
0001
0000
;

//--------------- dance-single - Cocaine! ----------------
#NOTES:
     dance-single:
     Cocaine!:
     Edit:
     12:
     0,0,0,0,0:
0000
0000
0000
0000
,
0000
0000
0000
0000
,
0000
0000
0000
0000
,
0000
0000
0000
0000
,
0000
0000
0000
0000
,
0000
0000
0000
0000
,
0000
0000
0000
0000
,
0022
0000
0033
2020
0000
3030
2002
0000
,
0000
0000
0000
0000
0000
0000
0000
0000
0000
0000
0000
3003
0M0M
0000
M0M0
0000
,
0001
0000
1000
0100
0001
0000
0100
1000
0001
0000
0100
1000
0100
0000
0001
0000
,
1000
0000
0001
0010
1000
0000
0010
0001
1000
0000
0010
0001
0010
0000
1000
0000
,
0001
0000
0000
0100
0000
0000
0001
0000
0000
0100
0000
0000
0010
0000
0000
1000
0000
0000
0010
0000
0000
1000
0000
0000
0001
0000
0000
0000
0001
0000
0010
0000
0000
0000
0010
0000
0100
0000
0000
0000
0100
0000
1000
0000
0000
0000
1000
0000
,
0002
0000
2003
0000
3020
0000
0230
0000
0302
0000
2003
3001
0020
0000
0230
0000
,
1300
0000
0001
0010
0100
0000
0010
0M10
0000
0010
1000
0010
1000
0000
0100
1000
,
0001
0000
0000
0000
0100
0000
010M
0000
0010
0000
0000
0000
0100
0000
0010
0000
0001
0000
0000
0000
0010
0000
0001
0000
0000
00M0
0001
0000
0100
0000
1000
0000
,
0001
0000
1000
0010
0100
0000
0010
0M10
0000
0010
0001
0010
0001
0000
0100
0001
,
1000
0000
0100
M100
0010
0000
0100
0010
1000
0000
0010
1000
00MM
0000
MM00
0000
,
0010
0000
0100
0010
1000
0000
0100
01M0
0000
0100
0001
0100
0001
0000
1000
0100
,
0010
0000
0000
0000
0010
0000
0M10
0000
1000
0000
0000
0000
0010
0000
1000
0000
0001
0000
0000
0000
1000
0000
0001
0000
0000
M000
0001
0000
0010
0000
1000
0000
,
0100
0000
0010
0100
1000
0000
0010
0M10
0000
0010
0001
0010
0001
0000
1000
0010
,
0100
0000
0001
0000
0100
0000
0001
1000
0100
0000
0010
0100
0010
0000
0001
0000
1000
0010
1000
0000
0001
0000
1000
0000
2002
0000
0000
0000
0000
0000
3003
0000
,
0001
0000
0001
0000
0200
0000
0000
0000
0320
0000
0000
0000
1030
0000
0001
0100
,
0000
0000
0000
000M
0000
0000
0100
0000
0000
0000
0000
0000
M100
0000
0000
0000
0000
0000
010M
0000
0000
0000
0000
0000
0010
0000
0000
0000
0000
0000
0000
0000
0000
0000
0000
0000
0100
0000
0000
0000
0000
0000
0000
0000
0000
0000
0000
0000
1000
0000
0000
0000
0000
0000
0000
0000
0000
0000
0000
0000
0000
0000
0000
0000
1000
0000
0000
0000
0000
0000
0000
0000
0000
0000
0000
0000
0000
0000
0000
0000
1000
0000
0000
0000
0000
0000
0000
0000
0000
0000
0000
0000
0000
0000
0000
0000
,
0001
0000
0001
0000
0020
0000
0000
0000
0230
0000
0000
0000
1300
0001
0100
0010
,
1000
0000
0000
0000
0000
0000
0100
0000
0000
1000
0000
0000
0000
0000
0000
0010
0000
0000
1000
0000
0000
0000
0000
0000
0001
0000
0000
0000
0000
0000
0000
0000
0001
0000
0000
0000
0000
0000
0000
0000
0001
0000
0000
0000
0000
0000
0000
0000
,
1000
0000
1000
0000
0200
0000
0000
0000
0320
0000
0000
0000
0031
0000
1000
0100
,
0000
0000
0000
M000
0000
0000
0100
0000
0000
0000
0000
0000
010M
0000
0000
0000
0000
0000
M100
0000
0000
0000
0000
0000
0010
0000
0000
0000
0000
0000
0000
0000
0000
0000
0000
0000
0100
0000
0000
0000
0000
0000
0000
0000
0000
0000
0000
0000
0001
0000
0000
0000
0000
0000
0000
0000
0000
0000
0000
0000
0000
0000
0000
0000
0001
0000
0000
0000
0000
0000
0000
0000
0000
0000
0000
0000
0000
0000
0000
0000
0001
0000
0000
0000
0000
0000
0000
0000
0000
0000
0000
0000
0000
0000
0000
0000
,
1000
0000
1000
0000
0020
0000
0000
0000
0230
0000
0000
0000
0301
1000
0100
0010
,
0100
0000
1000
0000
0100
0000
1000
0001
0100
0000
0010
0100
0010
0000
1000
0000
0001
0010
0001
0000
1000
0000
0001
0000
2002
0000
0000
0000
0000
0000
3003
0000
,
1000
0000
1000
0000
0001
0100
0000
1000
0000
0000
1000
0000
0100
0000
0001
0000
,
1000
0000
1000
0000
0100
0010
0000
0001
0000
0000
0001
0000
1000
0000
0010
0000
,
0100
0000
0100
0000
0001
0010
0000
0100
0000
0000
0001
0000
0100
0000
1000
0000
,
0010
0000
0100
0000
0010
0000
0000
1000
0000
0000
0001
0000
0010
0000
0100
0000
,
1000
0100
1000
0100
0010
0001
0010
0001
1000
0010
1000
0010
0100
0001
0100
0001
,
1000
0001
1000
0001
0010
0100
0010
0100
1000
0100
1000
0100
0010
0001
0010
0001
,
1000
0010
0100
0010
1000
0001
0010
0100
1000
0001
0100
0010
0100
0001
1000
0100
,
1000
0001
1000
0010
0100
0001
1000
0100
0010
0001
1000
0001
MMMM
0000
0000
0000
,
2000
0000
0000
0000
3001
0200
0000
1300
0200
0000
0000
0000
0310
0000
1000
0000
,
0100
0000
0010
0000
0100
2000
0000
3001
2000
0000
0000
0000
3100
0000
0010
0000
,
0002
0000
0000
0000
1003
0200
0000
0301
0200
0000
0000
0000
1300
0000
0001
0000
,
0100
0000
0010
0000
0100
0000
0001
2000
0001
0000
3100
0000
0010
0000
0001
0000
,
1000
0000
0100
0000
1000
0000
0100
1000
0010
0000
0010
1000
0100
0000
0010
0000
,
0001
0000
0100
0000
0001
0000
0100
0001
0010
0000
0010
0001
0100
0000
0010
0000
,
1000
0000
0000
0010
0000
0000
1000
0000
0000
0010
0000
0000
0100
0000
0000
0001
0000
0000
0100
0000
0000
0001
0000
0000
4000
0000
0004
0000
0000
0000
0000
0000
0000
0000
0000
0000
0000
0000
0000
0000
0000
0000
0000
0000
0000
3003
0000
0000
,
1000
0000
0100
0000
1000
0000
0100
1000
0001
0000
0100
0001
1000
0000
0010
0000
0100
0001
1000
0000
0100
0000
0010
0000
0220
0000
0000
0000
0330
0000
1000
0000
,
0001
1000
0100
0000
0110
0000
0010
0001
1000
0001
0100
0000
0110
0000
0001
1000
,
0100
0010
0001
0000
1001
0000
1000
0001
0100
0010
1000
0000
1001
0000
0001
0010
,
0100
1000
0100
0000
1100
0000
1000
0100
0010
0001
0010
0000
0011
0000
1000
0010
,
0100
0001
0100
0000
0101
0000
0001
0100
0010
1000
0010
0000
1010
0000
1000
0001
,
0100
0001
0010
0000
0110
0000
0001
1000
0100
1000
0010
0000
0110
0000
0001
0100
,
1000
0100
0010
0000
1010
0000
1000
0100
0001
0100
0010
0000
0011
0000
0001
0010
,
1000
0010
0100
0000
1100
0000
1000
0010
0001
0010
0100
0000
0101
0000
0001
1000
,
0001
0000
0100
0000
0001
0000
0100
0001
1000
0000
0100
1000
0001
0000
0010
0000
0100
1000
0001
0000
0100
0000
0010
0000
0220
0000
0000
0000
0330
0000
0100
0000
,
1000
0100
0001
1000
0101
0000
1000
0100
0001
0100
1000
0001
1100
0000
0001
0010
,
1000
0010
0001
1000
0011
0000
1000
0010
0001
0010
1000
0001
1010
0000
0001
0100
,
1000
0100
0010
0100
0011
0000
1000
0100
0001
0100
0010
0100
1010
0000
0001
0010
,
1000
0010
0100
0010
0101
0000
1000
0010
0001
0010
0100
0010
1100
0001
1000
0001
,
0010
1000
0010
0100
1010
0000
0001
1000
0010
0001
0010
0100
0011
0000
0001
1000
,
0100
0001
0100
0010
0101
0000
1000
0001
0100
1000
0100
0010
1100
0000
0001
0100
,
010M
1000
0100
0010
0101
0000
1000
0100
M100
0001
0100
0010
1100
0000
0001
0010
,
0100
0000
1000
0000
0100
0000
1000
0001
0100
0000
0010
0100
0010
0000
1000
0000
0001
0010
0001
0000
1000
0000
0001
0000
2002
0000
0000
0000
0000
0000
3003
0000
,
1000
0001
1000
0000
0100
0000
0010
0000
0000
0010
0100
0000
0010
0000
0001
0000
,
0000
0001
1000
0000
0010
0000
0100
0000
0000
0100
0010
0000
0100
0000
0001
0000
,
0000
1000
0100
1000
0000
0001
0100
0001
,
0000
1000
0001
1000
0000
0001
1000
0000
;
