#TITLE:Prince On A Star (Another Story);
#SUBTITLE:;
#ARTIST:SPIRITUAL RIDE feat. Sana;
#TITLETRANSLIT:;
#SUBTITLETRANSLIT:;
#ARTISTTRANSLIT:;
#CREDIT:;
#BANNER:;
#BACKGROUND:;
#LYRICSPATH:;
#CDTITLE:;
#MUSIC:Prince On A Star (Another Story).ogg;
#OFFSET:-0.030;
#SAMPLESTART:41.409;
#SAMPLELENGTH:12.000;
#SELECTABLE:YES;
#BPMS:0.000=145.000;
#STOPS:;
#BGCHANGES:;

//---------------dance-single - ----------------
#NOTES:
     dance-single:
     :
     Hard:
     8:
     0.568,0.633,0.605,0.030,0.159: // measure 1
0000
0000
0000
0000
,  // measure 2
0000
0000
0000
0000
,  // measure 3
0000
0000
0000
0000
,  // measure 4
0000
0000
0000
0000
,  // measure 5
1000
0100
0010
0001
0000
0001
0100
0000
,  // measure 6
0100
1000
0100
0001
0000
0100
0001
0010
,  // measure 7
0001
0100
0010
1000
0000
1000
0100
0000
,  // measure 8
0100
0001
0100
1000
0000
0100
1000
0010
,  // measure 9
1000
0100
0010
0001
0000
0001
0100
0000
,  // measure 10
0100
1000
0100
0001
0000
0100
0001
0010
,  // measure 11
0001
0100
0010
1000
0000
1000
0100
0000
,  // measure 12
0010
0001
0000
0010
0001
0000
1000
0100
0000
1000
0100
0000
0010
0000
0001
0000
,  // measure 13
1001
1000
0010
0100
,  // measure 14
0002
0010
0100
0013
,  // measure 15
0001
1000
0100
1000
0000
0010
0000
0100
,  // measure 16
0000
0001
0000
1000
0000
0100
0010
0000
,  // measure 17
0001
0001
0100
0010
,  // measure 18
2000
0100
0010
3100
,  // measure 19
1000
0100
0000
0010
0000
0001
0000
0100
,  // measure 20
0000
0010
0000
0000
1010
0000
2100
0000
,  // measure 21
3100
0000
0000
0000
0100
0000
1000
0100
1000
0000
0001
0000
0100
0000
0010
0000
,  // measure 22
0000
0000
1000
0000
0000
0000
0100
0010
0100
0000
1000
0000
0001
0000
0000
0000
,  // measure 23
0101
0000
0000
0000
0100
0000
0001
0100
0001
0000
0100
0000
0010
0000
1000
0000
,  // measure 24
0100
0000
0000
0000
0010
0000
0001
0010
0001
0000
0100
0000
0010
0000
1000
0000
,  // measure 25
0001
0000
1000
0000
0000
0000
1000
0010
1000
0000
0100
0000
0010
0000
0001
0000
,  // measure 26
0000
0000
0100
0000
0000
0000
0010
1000
0010
0000
0100
0000
0001
0000
0000
0000
,  // measure 27
0101
0000
0101
0000
0001
0100
0010
1000
,  // measure 28
1100
1100
0100
0010
,  // measure 29
0001
0100
0101
0000
0100
0010
1000
0100
,  // measure 30
1000
0000
0010
0000
0100
0000
0001
0100
0001
0000
1000
0000
0100
0000
0000
0000
,  // measure 31
1100
0000
1100
0000
1000
0100
1000
0010
,  // measure 32
1010
1010
0010
0100
,  // measure 33
0101
0000
0101
0000
0001
0010
1000
0010
,  // measure 34
0011
0000
0011
0001
0100
0000
0010
0000
,  // measure 35
1000
0100
1000
0100
1000
1000
1001
0000
,  // measure 36
0001
0010
0001
0010
0001
0001
1001
0000
,  // measure 37
1000
0000
0000
0000
,  // measure 38
0000
0000
0000
0000
0000
0000
0000
0000
1000
0000
0000
1000
0000
0000
1000
0000
,  // measure 39
0100
0000
0000
0000
,  // measure 40
0000
0000
0000
0000
0000
0000
0000
0000
0001
0000
0000
0001
0000
0000
0001
0000
,  // measure 41
0100
0010
0000
0010
0010
0000
0100
0010
,  // measure 42
0010
0000
0000
0000
0100
0000
0010
0000
0010
0000
0000
0010
0000
0000
0010
0000
,  // measure 43
0001
1000
0000
1000
1000
0000
0001
1000
,  // measure 44
1000
0000
0000
0000
0001
0000
1000
0000
0001
0000
0000
0001
0000
0000
0001
0000
,  // measure 45
0010
0100
0000
0100
0100
0000
0010
0100
,  // measure 46
0100
0000
0000
0000
0010
0000
0100
0000
0100
0000
0000
0100
0000
0000
0100
0000
,  // measure 47
1000
0001
0000
0001
0001
0000
1000
0001
,  // measure 48
0001
0000
1000
0001
0001
0100
0001
0001
,  // measure 49
1001
0000
0000
0000
0101
0000
0000
0001
0100
0000
0000
0000
1100
0000
0000
1000
,  // measure 50
0100
0000
0101
0001
1001
1000
1100
0100
,  // measure 51
0010
0000
0000
0000
0110
0000
0000
0001
1000
0000
0000
0000
0110
0000
0000
1000
,  // measure 52
0001
0000
0011
0001
1001
1000
1010
0010
,  // measure 53
0100
0000
0000
0000
0001
0000
0000
0001
0010
0000
0000
0000
0100
0000
0000
0100
,  // measure 54
1000
0000
1010
0010
0110
0100
0101
0000
,  // measure 55
0001
0000
0000
0000
0011
0000
0000
0010
0100
0000
0000
0000
1100
0000
0000
1000
,  // measure 56
0010
0000
0110
0100
0101
0001
1001
0000
,  // measure 57
1100
0000
0000
0000
1100
0000
0000
0100
1000
0000
0001
0000
1001
0000
0000
0000
,  // measure 58
1000
0001
0101
1000
1100
0001
0101
0000
,  // measure 59
1001
0000
0000
0000
1001
0000
0000
1000
0100
0000
0000
0000
0101
0000
0000
0100
,  // measure 60
1000
0000
1100
0010
0101
0010
1100
0000
,  // measure 61
0001
0000
0000
0000
0101
0000
0000
0001
0100
0000
0000
0000
1010
0000
0000
0010
,  // measure 62
1000
0000
1001
0100
1001
0010
1001
0100
,  // measure 63
0010
0000
0000
0000
0011
0000
0000
0001
0100
0000
0000
0000
1010
0000
0000
1000
,  // measure 64
0100
0010
0000
0100
0010
0000
0001
1000
0000
0001
1000
0000
0001
0000
1000
0000
,  // measure 65
1001
0000
0000
0000
1000
0000
0010
0100
0001
0000
0010
0000
1000
0000
0010
0000
,  // measure 66
0001
0000
0000
0000
1001
0000
1000
0001
0100
0000
0010
0000
1000
0000
0000
0000
,  // measure 67
1010
0000
0000
0000
1000
0000
0100
0010
0001
0000
1000
0000
0001
0000
0000
0000
,  // measure 68
1001
0000
0000
0000
1000
0000
1000
0010
0100
0000
0001
0000
1000
0000
0000
0000
,  // measure 69
0010
1000
0010
1000
0000
0000
0001
0010
0001
0000
0010
0000
0000
0000
0110
0000
,  // measure 70
0000
0000
1100
0000
0000
0000
1000
0100
0010
0000
0001
0000
0010
0000
0000
0000
,  // measure 71
0011
0000
0011
0000
0001
0010
0001
0100
,  // measure 72
0101
0101
0100
0010
,  // measure 73
1000
0001
0101
0000
0001
1000
0001
0100
,  // measure 74
0010
1000
0001
0000
1000
0000
0100
0000
,  // measure 75
1100
0000
1100
0000
0000
1000
0100
0010
,  // measure 76
0011
0001
1001
0000
1000
0000
0001
0000
,  // measure 77
0011
0000
0011
0000
0001
0010
0000
0100
,  // measure 78
1100
1100
0100
0010
,  // measure 79
0011
0001
1000
0000
1010
0010
0110
0100
,  // measure 80
0101
0000
0001
0000
0011
0010
0110
0100
,  // measure 81
2000
0000
0000
0000
,  // measure 82
0000
0000
0000
3000
;

//---------------dance-single - ----------------
#NOTES:
     dance-single:
     :
     Medium:
     1:
     0.093,0.102,0.022,0.044,0.000: // measure 1
0000
0000
0000
0000
,  // measure 2
0000
0000
0000
0000
,  // measure 3
0000
0000
0000
0000
,  // measure 4
0000
0000
0000
0000
,  // measure 5
1000
0100
1000
0100
0000
0000
0010
0000
,  // measure 6
0001
0100
0000
1000
0000
0100
0001
0100
,  // measure 7
0001
1000
0100
1000
0000
0000
0001
0000
,  // measure 8
0000
0001
0000
0100
0000
0001
0100
0001
,  // measure 9
0100
0010
1000
0010
0000
0000
0100
0000
,  // measure 10
0000
0001
0000
1000
0000
0100
0010
0100
,  // measure 11
0010
0001
0010
0001
0000
0000
0100
0000
,  // measure 12
0020
0000
0000
0030
,  // measure 13
1010
0000
1000
0000
0100
0000
0000
0020
,  // measure 14
0000
0001
1000
0031
,  // measure 15
0000
0001
0100
0010
0000
1000
0000
0100
,  // measure 16
0000
0010
0000
0001
0000
0100
0000
0000
,  // measure 17
0010
1000
0100
1000
,  // measure 18
0020
0000
0001
1000
,  // measure 19
0031
0000
0010
1000
0010
0100
0000
0001
,  // measure 20
0000
0010
0000
0100
0000
1000
0000
0000
,  // measure 21
2000
3000
0100
0010
,  // measure 22
0001
1000
0001
0100
,  // measure 23
0120
0000
0000
1030
0000
0000
1200
0000
,  // measure 24
0310
0000
0000
0000
;
